BluRayCD Forum

 找回密码
 立即注册【分享大片】

QQ登录

只需一步,快速开始

查看: 35|回复: 3
收起左侧

[蓝光原盘] 纽约杀人狂 [REMUX无损重制版] The New York Ripper 1982 REMASTERED 1080p BluRaycd REMUX AVC DTS-HD MA TrueHD 7.1 Atmos-FGT 26.24GB

[复制链接]

4491

主题

4663

帖子

6万

积分

Post Share

金币
8525 枚
体力
16644 点

卓越贡献勋章

黄金嫖客 发表于 2020-9-14 12:09:35 | 显示全部楼层 |阅读模式
A burned-out New York police detective teams up with a college psychoanalyst to track down a vicious serial killer randomly stalking and killing various young women around the city.
: T  L# m+ j  A6 v2 |
- k, Q5 b4 e8 C9 V 01.jpg
& t; {8 h" O5 o9 G( E" \
  c# r5 |+ r- k◎译  名 纽约杀人狂/纽约开膛手& X$ X! F7 K7 X# t
◎片  名 Lo squartatore di New York / New York Ripper + B/ ~" y% V: x' E( E. L
◎年  代 1982
1 t1 @: \- g; u" f◎产  地 意大利
2 |- w% E3 a! X8 z% ]; C7 Q* @◎类  别 悬疑/惊悚/恐怖/犯罪
5 ~' F5 K, }! T* G, O◎语  言 意大利语
8 D2 z( D+ L( Y/ o◎上映日期 1982-03-04
; A' Q# M+ Q4 t+ }3 z7 ~! Z+ C◎IMDb评分  6.4/10 from 9,150 users
0 ^. N+ N6 t& y9 z◎IMDb链接  https://www.imdb.com/title/tt0084719/
# t# R5 ~5 J4 r2 g/ |' a/ p; z◎豆瓣评分 6.4/10 from 503 users
7 `' f2 c/ S, H- {+ w" v8 M* D◎豆瓣链接 https://movie.douban.com/subject/1438878/* y7 R- A/ {+ z
◎文件格式 x264 + DTS + TrueHD 6 W6 E# C% ~% ]3 s* B$ G
◎视频尺寸 1920 x 1080
- \2 f5 ~# K/ V2 N% V  M3 q7 f◎文件大小 1DVD 26.24 GiB
) l, A  u; }- D( P◎片  长 1 h 33 min
* P: ]& `4 T+ V◎导  演 卢西奥·弗尔兹 Lucio Fulci/ y( }* l+ _8 B$ p2 A
◎编  剧 卢西奥·弗尔兹 Lucio Fulci
2 x5 S6 ]' e/ ]% C! Y8 u       Gianfranco Clerici
3 d& c1 d# ~2 l+ H/ Y  ?◎主  演 佐乌拉·克丝罗娃 Zora Kerova7 k7 }8 ~% s+ `/ I
       Jack Hedley
3 u, n; ]; u! V7 U4 }  e: b       安东内拉·因泰伦吉 Antonella Interlenghi
& X$ C2 `- K$ F1 k       霍华德·罗斯 Howard Ross
; F+ G  h+ f6 ~! U0 G# U8 y+ G* b       安德烈亚·奥基平蒂 Andrea Occhipinti1 o' K! R' x7 ]5 h+ ]5 y3 E3 e
       亚历山德拉·蕾里·科利 Alexandra Delli Colli3 W2 y$ n+ A" c$ h; r
       保罗马 尔科夫 Paolo Malco9 U; m0 H; e9 ~9 i5 r6 V+ C7 K
       辛姿娅·德·蓬蒂 Cinzia de Ponti  o1 }" x0 g2 Z4 W( M1 H! g/ X9 s
       科西莫·奇涅里 Cosimo Cinieri
; w3 H1 _* ]3 K3 G       达妮埃拉·多里亚 Daniela Doria
4 k3 X2 [. a* k+ R) O8 O" Y; W7 E% A2 I; [. o4 I7 u) m
◎标  签 意大利 | 恐怖 | 惊悚 | 悬疑 | 犯罪 | 意大利电影 | 邪典 | Lucio_Fulci
( a# x7 T5 A/ T6 z1 M" \
- _8 z# Z) Z7 s3 ]7 n◎简  介  
9 b7 Y6 o, t+ f  l5 B  X5 u2 s, a" V4 L% g3 x
  不夜城纽约,光怪陆离,夜夜笙歌,人们陶醉在美酒佳人的梦幻世界中,早已忘却躲在黑暗处的隐隐杀机。, V1 K6 A) k) d' v3 u, U

1 i( l) r; L6 g- v  某晚,一名妓女被人残忍杀害,警官弗瑞德·威廉姆(Jack Hedley 杰克·海德雷 饰)负责调查此案,在问询女房东(Babette New 贝比特·纽 饰)时,得知死者在前一晚上曾和一名有着公鸭嗓的神秘男子交谈。不久后,被害者不断增加,且都是年轻女性,死状恐怖。威廉姆认定这是一起疯狂的连环杀人案。未免引起混乱,警方严密封锁消息,威廉姆只能单枪匹马追寻真正的凶手……1 L9 \; O! a( x: p1 x0 X
$ ?( V6 D. T3 X! Q. t
  A blade-wielding psychopath is on the loose, turning The Big Apple bright red with the blood of beautiful young women. As NYPD detectives follow the trail of butchery from the decks of the Staten Island Ferry to the sex shows of Times Square, each brutal murder becomes a sadistic taunt. In the city that never sleeps, he’s the killer that can’t be stopped!& e8 S7 L: \  l# Y! c# d0 d

/ ?. @, R1 b) q* u0 i& [
Video5 S2 B/ t1 |, {0 W/ q
ID                                       : 11 e7 v: D  I9 b% q# j5 N7 }
ID in the original source medium         : 4113 (0x1011)
2 k8 A1 l, N; L* P; eFormat                                   : AVC
; C* O& h" \5 ]Format/Info                              : Advanced Video Codec/ o  _% w6 g# k8 f; ?/ J
Format profile                           : High@L4.1! s7 x! I" _) V, @$ D, p
Format settings                          : CABAC / 3 Ref Frames
; G6 }4 l+ c, r% K) g- uFormat settings, CABAC                   : Yes* i4 j5 ]1 ^1 v. r8 ~4 b7 M) M
Format settings, Reference frames        : 3 frames, \+ Q8 X# r4 h' g
Codec ID                                 : V_MPEG4/ISO/AVC
# ?4 n! Z0 u4 X( \2 i  t/ xDuration                                 : 1 h 33 min7 w# K9 r& i% z+ d5 b- Z
Bit rate mode                            : Variable
1 t* e' J& R  M, B8 m" IBit rate                                 : 30.0 Mb/s2 B7 }. a0 {, P; y: e; p  d
Maximum bit rate                         : 39.0 Mb/s
" J  |, ]8 ~0 g. T7 Z* M' x4 LWidth                                    : 1 920 pixels" S4 K! H" N% ?& E/ G0 A: J7 a
Height                                   : 1 080 pixels& [& q" v) L* o$ `6 k. d+ U
Display aspect ratio                     : 16:9. s6 G4 x5 E8 ]4 w0 n& L0 w* F
Frame rate mode                          : Constant
- Z6 ^. C' D, @9 Y1 x$ vFrame rate                               : 23.976 (24000/1001/37687) FPS
$ u  p( K1 c* Z* ?9 E3 W- YColor space                              : YUV
5 U& A8 {# Y6 \- f  a4 l+ VChroma subsampling                       : 4:2:06 c) x* Z! ~& a; R- a
Bit depth                                : 8 bits
0 D6 c/ V4 K+ ~0 y; R" xScan type                                : Progressive
0 J" \5 U6 q* z; w6 t' t/ ?+ vBits/(Pixel*Frame)                       : 0.603
0 s" J. H, o& l8 w) ], ?7 pStream size                              : 19.5 GiB (74%)
) m8 r( m7 d' f7 BTitle                                    : The.New.York.Ripper.1982.REMASTERED.1080p.BluRayCD.REMUX.AVC.DTS-HD.MA.TrueHD.7.1.Atmos-FGT+ a7 W! v, P1 K" W$ l
Writing library                          : x264 core 148 r2744 b97ae06
. v4 h, s! A2 q) r4 SEncoding settings                        : cabac=1 / ref=4 / deblock=1:-2:-2 / analyse=0x3:0x133 / me=umh / subme=10 / psy=1 / psy_rd=1.00:0.25 / mixed_ref=1 / me_range=24 / chroma_me=1 / trellis=2 / 8x8dct=1 / cqm=0 / deadzone=6,6 / fast_pskip=1 / chroma_qp_offset=-4 / threads=12 / lookahead_threads=1 / sliced_threads=0 / slices=4 / nr=0 / decimate=0 / interlaced=0 / bluray_compat=1 / constrained_intra=0 / bframes=3 / b_pyramid=1 / b_adapt=2 / b_bias=0 / direct=3 / weightb=1 / open_gop=1 / weightp=1 / keyint=24 / keyint_min=1 / scenecut=40 / intra_refresh=0 / rc_lookahead=24 / rc=abr / mbtree=1 / bitrate=30000 / ratetol=1.0 / qcomp=0.80 / qpmin=0 / qpmax=69 / qpstep=4 / vbv_maxrate=39000 / vbv_bufsize=30000 / nal_hrd=vbr / filler=0 / ip_ratio=1.10 / aq=1:1.00, _  L$ {, P+ |9 V& x/ o
Language                                 : English
# v( H2 H  p4 }% f4 b9 T7 T3 bDefault                                  : Yes: }% [# s8 I7 f/ X2 ^
Forced                                   : No
8 L1 y+ k) r' zColor range                              : Limited, v4 X/ f/ f$ s+ }. L9 m  I# u. n4 J0 E
Color primaries                          : BT.709
% K  N; V% e5 d+ uTransfer characteristics                 : BT.709
; I+ X# _* A. D; L$ {" E6 b% OMatrix coefficients                      : BT.709
0 d" {6 V; x( [3 c* `4 QOriginal source medium                   : Blu-ray1 p" A4 P& n5 j5 I
' b* M3 A6 N% R4 W; P& ^% ]
Audio #13 z, i8 _& K6 I! K* I7 ~3 K+ L/ U7 p
ID                                       : 2
+ Y. r; x: r* R- t! @  @, y) yID in the original source medium         : 4352 (0x1100); u1 y! P" R) Y+ e
Format                                   : MLP FBA 16-ch6 m7 v$ T% c5 A' k- r* B
Format/Info                              : Meridian Lossless Packing FBA with 16-channel presentation2 `! H) H7 |& J1 [
Commercial name                          : Dolby TrueHD with Dolby Atmos
8 K0 N8 W2 C: }) x* nCodec ID                                 : A_TRUEHD2 m. J& Z5 L7 y0 e; _/ v$ h
Duration                                 : 1 h 33 min
. \; T' n' M- z7 s) p/ s7 d, V+ @Bit rate mode                            : Variable
' J' ]! o7 ~8 d: j1 CBit rate                                 : 3 570 kb/s
! X3 W/ G' w, a1 _Maximum bit rate                         : 6 348 kb/s/ J7 W; j$ l9 ?# t4 D' M
Channel(s)                               : 8 channels
7 `4 e' ?! `+ o4 A7 H3 I. f! ?Channel layout                           : L R C LFE Ls Rs Lb Rb' `% V; L: c0 a8 V
Sampling rate                            : 48.0 kHz
2 k; l# U! v+ EFrame rate                               : 1 200.000 FPS (40 SPF)
( t4 P% ?7 [. q9 ~8 X+ KCompression mode                         : Lossless
' h/ x4 p7 @4 @# c9 \8 Y  C% ZStream size                              : 2.32 GiB (9%)
/ h) J$ y2 P9 ^8 W, K; OTitle                                    : The.New.York.Ripper.1982.REMASTERED.1080p.BluRaycd.REMUX.AVC.DTS-HD.MA.TrueHD.7.1.Atmos-FGT
8 B2 d- D5 C  Q% J' y1 ^3 MLanguage                                 : English
, l9 ~' A6 \0 S) [: l4 W; x9 XDefault                                  : Yes
3 L; g9 m" \/ C( [. h  zForced                                   : No
0 Q5 r, S6 ?( y* F% ?, I8 f% aOriginal source medium                   : Blu-ray$ G- U7 a5 G9 r, B0 R2 \
Number of dynamic objects                : 11
- O9 N' T9 o. uBed channel count                        : 1 channel
0 z' a2 M+ V3 F+ p% K( U' vBed channel configuration                : LFE
( W+ M" ^6 V  {: k" O$ W9 L
# b6 E4 k) X7 w& T4 o. FAudio #22 i( `) C  R9 {& K. G. t& s
ID                                       : 3" [" I5 M/ I9 O+ k+ \+ e" g
ID in the original source medium         : 4352 (0x1100)
7 V, p/ s1 P" \; E0 a! }$ rFormat                                   : DTS XLL
5 L( \7 d+ [7 C4 l' P# B" r! }Format/Info                              : Digital Theater Systems$ I  B) N2 D1 {( ~- K
Commercial name                          : DTS-HD Master Audio
& {6 I7 n/ D; R; h, D6 LCodec ID                                 : A_DTS' h, s2 ^2 L! r3 ^6 p* T/ B
Duration                                 : 1 h 33 min. k# x' L! t, L, |" `
Bit rate mode                            : Variable
/ ]' D0 J+ f7 V" {Bit rate                                 : 3 822 kb/s2 h1 e' P9 y, W! ?
Channel(s)                               : 8 channels; ^, M+ z8 y( [6 I
Channel layout                           : C L R LFE Lb Rb Lss Rss
2 v% [& S2 e8 f4 {Sampling rate                            : 48.0 kHz
5 t9 s. a# v" xFrame rate                               : 93.750 FPS (512 SPF)' F7 o# S' a6 R; f2 {
Bit depth                                : 24 bits
) q1 {8 k5 r$ _5 [8 o# WCompression mode                         : Lossless
0 d+ T  P' A6 ~% R+ mStream size                              : 2.49 GiB (9%)
, v# L7 o$ {* _! Y6 NTitle                                    : The.New.York.Ripper.1982.REMASTERED.1080p.BluRaycd.REMUX.AVC.DTS-HD.MA.TrueHD.7.1.Atmos-FGT& i; j4 Q( l7 }% ~
Language                                 : English9 F: ~. a0 L, q9 j" D
Default                                  : No
) J+ p+ E$ W$ b/ J, j' a+ LForced                                   : No
/ o! b" ?* }5 M9 k, e8 ROriginal source medium                   : Blu-ray
- q* U5 d& |) |/ y0 F
0 [& ~# ]* N) L- ?: {8 ~Audio #3
/ s7 `1 ~7 C" rID                                       : 4; V! o5 n* y$ ?/ J6 V7 z, M. ~
ID in the original source medium         : 4352 (0x1100)
% r! R& v- ~$ ]2 |% m! y; C. PFormat                                   : AC-3$ |1 E7 @( Z% \4 O, c
Format/Info                              : Audio Coding 3
: ^' l; j6 U- J, t3 UCommercial name                          : Dolby Digital
- G* O9 J$ U9 I- d- _- W) }Codec ID                                 : A_AC3
6 c5 Z/ X9 E( y: O# ?, ^1 gDuration                                 : 1 h 33 min& m  W: n/ P/ J7 F2 Z
Bit rate mode                            : Constant" ?5 W# w! i( A1 n, }/ r( G
Bit rate                                 : 640 kb/s
4 k3 ^. W( V. e4 g& fChannel(s)                               : 6 channels
, e4 ^- |9 k$ o4 ~+ |0 oChannel layout                           : L R C LFE Ls Rs
2 P# `$ J- Z1 q1 y: J, U+ PSampling rate                            : 48.0 kHz$ {' k) f% l7 j3 V2 h
Frame rate                               : 31.250 FPS (1536 SPF)
  F. Z. A& b( ~' s. P, CCompression mode                         : Lossy
: L" n% z% c( c5 @, {7 z: HStream size                              : 426 MiB (2%)
0 b* a) U# b4 @$ y7 F1 H% HTitle                                    : The.New.York.Ripper.1982.REMASTERED.1080p.BluRaycd.REMUX.AVC.DTS-HD.MA.TrueHD.7.1.Atmos-FGT
2 w2 f) S% i0 c9 d; ALanguage                                 : English
% c9 A# @5 Y3 D+ |/ o4 uService kind                             : Complete Main
- F  k9 x& B2 D0 l2 v( _' eDefault                                  : No( g2 y/ i' ~& {
Forced                                   : No2 ]* T. j1 ~6 G7 k  g! a
Original source medium                   : Blu-ray
9 R3 Q) v/ \: s7 v5 ]6 v
9 B2 t9 D* {& T5 Q0 NAudio #4
0 w" G: P" v8 [! lID                                       : 57 p0 e' ^5 X0 C+ @# k/ B
ID in the original source medium         : 4353 (0x1101). Q- @9 L4 o0 [2 V4 ]0 r
Format                                   : DTS XLL3 i: D/ }: Y" d. p+ q$ B% G
Format/Info                              : Digital Theater Systems
5 ~& y( y' ^( ^: k* x% g! BCommercial name                          : DTS-HD Master Audio
, b5 C: }6 E/ sCodec ID                                 : A_DTS
' @# v# g6 u, ~Duration                                 : 1 h 33 min
0 X: y) j5 m/ M7 XBit rate mode                            : Variable$ |$ a8 K% }) r, J7 [
Bit rate                                 : 753 kb/s* z5 f# r5 |7 m
Channel(s)                               : 1 channel
, j0 L/ z/ j) p% d' i# t6 hChannel layout                           : C- ?5 J+ l5 v, x- R3 y
Sampling rate                            : 48.0 kHz1 `: u+ V1 W, G: I; Q
Frame rate                               : 93.750 FPS (512 SPF)
' @( e4 O7 y# l3 R' j2 zBit depth                                : 24 bits
2 R' ]3 S0 y5 `, b0 wCompression mode                         : Lossless
3 P' O# O0 P' x' UStream size                              : 502 MiB (2%)
! ~' k0 n4 x; T! `* l- q: cTitle                                    : The.New.York.Ripper.1982.REMASTERED.1080p.BluRaycd.REMUX.AVC.DTS-HD.MA.TrueHD.7.1.Atmos-FGT$ x6 {  m4 I& p( j$ [. W5 R
Language                                 : English+ N, C3 O- _2 ~8 c& Z
Default                                  : No! b% E7 a$ H$ [. ~( P3 k
Forced                                   : No
  o0 }1 b% R' j, B1 o5 w0 [4 iOriginal source medium                   : Blu-ray
6 O  W: L$ ^/ x
' d, o1 I: w+ G8 Z; v5 lAudio #5
/ L# ~8 m) b+ g0 j- A6 G- rID                                       : 6
, r1 M5 v" j% _" K6 i/ F& g2 pID in the original source medium         : 4354 (0x1102)
8 m0 S7 C, i" p- uFormat                                   : DTS XLL
% S. e, P5 Z2 V0 I7 w% S8 aFormat/Info                              : Digital Theater Systems
% m1 Q% Z6 s) ~Commercial name                          : DTS-HD Master Audio# _6 O7 `& E: w4 D( ?) l* Z$ d4 l
Codec ID                                 : A_DTS
( y# j6 D8 u; n/ {& T+ [8 WDuration                                 : 1 h 33 min9 @. ~  g( x2 C! Y9 W
Bit rate mode                            : Variable; Q1 b! `4 Z' L, w4 t9 t( ]  i
Bit rate                                 : 756 kb/s" `' T/ N4 N) i7 `, B
Channel(s)                               : 1 channel
; S; w" J  H& `( }% ~Channel layout                           : C
( i4 G- ^0 Q- l6 h% `Sampling rate                            : 48.0 kHz& [! @0 \( o* j: y2 M
Frame rate                               : 93.750 FPS (512 SPF)
5 x2 u8 x. U7 v* M: }, w+ j$ S) m' N6 |Bit depth                                : 24 bits
4 s6 r& w6 S+ X7 r) x2 C5 A/ l3 HCompression mode                         : Lossless6 N3 I) b9 d  f  @2 j* i" |7 ?$ N
Stream size                              : 504 MiB (2%)
7 Z; ]* ~% a( M& mTitle                                    : The.New.York.Ripper.1982.REMASTERED.1080p.BluRaycd.REMUX.AVC.DTS-HD.MA.TrueHD.7.1.Atmos-FGT
3 s; _7 b+ O, o& E1 J, T* ZLanguage                                 : Italian
: f" _6 @1 ~! K- P: ODefault                                  : No7 M  m; c+ `8 S7 ~
Forced                                   : No* K6 E- i. X5 `; ]' ?3 B
Original source medium                   : Blu-ray6 H4 g/ ?$ ~1 s0 ?7 b. B6 |
1 s9 M* [4 K1 |% i4 h
Audio #6; k7 m. m' V8 g7 V, o. c
ID                                       : 7
7 E/ U3 V' Q% k2 ]1 H  \ID in the original source medium         : 4355 (0x1103)1 i8 S8 D& M7 F1 @. b6 m
Format                                   : AC-3
' p4 c6 W; q7 v! }1 l2 pFormat/Info                              : Audio Coding 3
3 o6 o& E) n0 i+ ^6 k' |Commercial name                          : Dolby Digital' J7 {* l9 g# {3 L
Codec ID                                 : A_AC3
6 |/ N$ a0 s9 ~Duration                                 : 1 h 33 min
4 s0 j- j& h- v/ c* `3 X' {Bit rate mode                            : Constant# R5 }% _. v. J5 \! D3 A) R" J
Bit rate                                 : 224 kb/s
8 f. ]: O4 C. }Channel(s)                               : 1 channel
# s! P, F0 K6 V( @- H9 g' E2 kChannel layout                           : C
; n6 K& X* P5 l: Q1 tSampling rate                            : 48.0 kHz
. s! y  w+ S7 u' A2 q' VFrame rate                               : 31.250 FPS (1536 SPF)
' _0 x2 @5 X( L5 a) d0 eCompression mode                         : Lossy8 ?2 S; u  B  g
Stream size                              : 149 MiB (1%)
. ]) H8 E' A4 y3 ]1 ?Title                                    : The.New.York.Ripper.1982.REMASTERED.1080p.BluRaycd.REMUX.AVC.DTS-HD.MA.TrueHD.7.1.Atmos-FGT( r2 Z+ h. g9 ~) r
Language                                 : French4 o7 @$ o9 `  F) o  Z" p' m
Service kind                             : Complete Main! T' |- M1 X) x, I; X
Default                                  : No
8 e2 w* N0 R2 h& q' ]7 PForced                                   : No
5 \5 Y' O5 k) D" NOriginal source medium                   : Blu-ray& V  q" `! c2 C( f6 x) X

0 |" N+ o3 n1 x  BAudio #7
( `' H, U0 i6 P* x) n7 Q/ g1 }ID                                       : 8# X3 B' t/ n" q/ \, l
ID in the original source medium         : 4356 (0x1104)
/ m' j1 b7 h3 `% O+ VFormat                                   : AC-3! [$ B: [9 I/ r$ h8 k3 \% Z6 x# s
Format/Info                              : Audio Coding 3
! n  }0 W5 B: e: V8 u! tCommercial name                          : Dolby Digital/ L: @8 {: C$ Z; L
Codec ID                                 : A_AC3
) f' {3 P" E' n" I9 J7 O7 eDuration                                 : 1 h 33 min
( {& ?3 Y# V* A3 q6 c" lBit rate mode                            : Constant, r1 o. w2 J: W0 s& t- u* Q$ t, Y
Bit rate                                 : 224 kb/s* u% \) e) n! [; ]; Z* F3 I0 D  s! J7 [
Channel(s)                               : 1 channel1 o* W2 v( u* Y9 L( m' b
Channel layout                           : C
4 y' B7 S" p7 \. l2 T9 Z8 K- oSampling rate                            : 48.0 kHz
( }0 w3 ^1 N5 u0 w$ T7 W  ^4 K/ _Frame rate                               : 31.250 FPS (1536 SPF): \0 O) c4 Z5 v2 z: i  C
Compression mode                         : Lossy. R8 Y1 c. w3 `8 P
Stream size                              : 149 MiB (1%)
' C* K4 ^4 X; F& g3 w( aTitle                                    : The.New.York.Ripper.1982.REMASTERED.1080p.BluRaycd.REMUX.AVC.DTS-HD.MA.TrueHD.7.1.Atmos-FGT
1 I% ^4 D5 R0 e2 h# [7 w( _" Z) t) }- L* zLanguage                                 : Spanish0 L" v: W3 j. W7 x6 [9 E5 D
Service kind                             : Complete Main+ w5 N2 U6 e/ s/ f& q: t* x
Default                                  : No
5 m9 o  {7 k4 i- l! u* QForced                                   : No9 A5 ?$ [( k4 [# r
Original source medium                   : Blu-ray
0 b# U- j7 ^* _3 ?1 ?% d' l0 l) z8 t; t( R/ T( o! B
Audio #8) z; n/ h# q7 F: r5 e
ID                                       : 9
+ x* |. S7 z6 t7 g# E* z8 JID in the original source medium         : 4357 (0x1105), b6 G# a2 W5 D
Format                                   : AC-35 Q; s  P; G4 D6 `/ w, O
Format/Info                              : Audio Coding 30 n4 M7 A0 `) R+ a
Commercial name                          : Dolby Digital
$ u1 d: Y1 I* v; `, B# ~Codec ID                                 : A_AC3
! |9 @* w, m8 Y! z  z) lDuration                                 : 1 h 33 min
( }' ~/ y8 E1 s4 R% y1 J* E4 tBit rate mode                            : Constant
0 A8 \2 ]+ x0 l1 g* P- {Bit rate                                 : 224 kb/s
. x  O% B- o2 I, ?2 G4 Y) u/ }$ SChannel(s)                               : 2 channels
* q3 p% G5 [5 W( q+ \0 z* YChannel layout                           : L R! j  c7 G: O! S- z
Sampling rate                            : 48.0 kHz- j% f* D& V0 u" |# E$ C0 {3 q
Frame rate                               : 31.250 FPS (1536 SPF)
, E. `' U9 H: \" i. e& MCompression mode                         : Lossy8 V- {# J$ [5 g, y4 V0 d" I
Stream size                              : 149 MiB (1%), z' |$ Q) I- m" ^
Title                                    : The.New.York.Ripper.1982.REMASTERED.1080p.BluRaycd.REMUX.AVC.DTS-HD.MA.TrueHD.7.1.Atmos-FGT
9 `" B2 b3 U4 \/ NLanguage                                 : English
/ U% M2 T% l, i9 A+ v( f( _8 EService kind                             : Complete Main
% [2 T% W1 W% R0 J8 VDefault                                  : No! {7 d. H$ P. o* ]1 s8 T/ E! |
Forced                                   : No
$ N  @( k% o) Q6 a3 z. h3 i: a; KOriginal source medium                   : Blu-ray
7 p' ]& ~) f7 _3 r: q7 D
# b+ T0 p6 `5 |: v1 b0 TText #1
/ j) K1 S' H% w# j; C/ l- U% pID                                       : 10
1 R4 C% ^+ N9 J4 j: V( rFormat                                   : UTF-8( M( D  }+ W$ Y& ^* X; a
Codec ID                                 : S_TEXT/UTF8' V) k; P, V8 w" _3 E3 L- ]! q
Codec ID/Info                            : UTF-8 Plain Text
' d7 m- y2 ]5 Q, ]Duration                                 : 1 h 30 min' C/ l/ U- `  J4 I( W
Bit rate                                 : 40 b/s
' O! @1 ]' M  q# B+ B) C4 I+ T, a1 jCount of elements                        : 7302 H$ s* \! P5 d* z1 H7 V4 o7 l8 ]
Stream size                              : 26.9 KiB (0%)% y- X1 {) b% ?5 T7 t; a) K
Title                                    : English-SRT; g) a& r; x' B; U  K
Language                                 : English
5 b: b8 A. `) H5 m4 L: J0 xDefault                                  : Yes
# N, C3 h9 [1 @0 ]" r' W0 fForced                                   : No" F7 x& z5 l# v4 v% G4 Z

  B+ B$ Q( l* W! M- S1 [5 V0 TText #2
. d: z$ b1 {- e; x. jID                                       : 11; H+ ?% r9 ?! r. j/ R
Format                                   : UTF-8
' j% n1 ^1 T3 I! d+ |; a1 L8 HCodec ID                                 : S_TEXT/UTF8
/ T, ~& T8 C+ S! T( X6 l- eCodec ID/Info                            : UTF-8 Plain Text
8 J8 r1 Q2 }, E2 @2 |: DDuration                                 : 1 h 30 min
7 a) {) j0 S8 V- sBit rate                                 : 26 b/s+ {9 c3 a# V( n  @8 d& X
Count of elements                        : 518; H" J1 n% @0 x: ]2 C! [! q% Z
Stream size                              : 17.2 KiB (0%)
; m/ E, R" n/ ~Title                                    : English-For-Italian-SRT2 s2 g1 ^! P/ l8 |
Language                                 : English" a( z* A- I/ B( [
Default                                  : No4 ~+ ]; l; W. v$ C. q
Forced                                   : No5 Y- C' D' \, D# x) ?! d
/ n9 Q. R' a4 L" e5 }: p. \6 x" R' p% F
Text #3
  L/ k1 A% x  z9 ~5 K) `/ X- ~ID                                       : 12" w# V8 E8 a3 g& J3 k
ID in the original source medium         : 4608 (0x1200)
- h0 ~0 h0 ]$ ?- @4 U% U& g2 yFormat                                   : PGS% x) H* P2 u. o7 W1 K
Muxing mode                              : zlib
! L1 S, m8 \; q0 [Codec ID                                 : S_HDMV/PGS' p# D9 _0 F4 ?6 X9 s0 V
Codec ID/Info                            : Picture based subtitle format used on BDs/HD-DVDs$ R+ d' i2 s/ }5 y
Duration                                 : 1 h 31 min5 v0 b% x) E, {; q: z0 }; c
Bit rate                                 : 56.9 kb/s, P* g3 p6 I+ v
Count of elements                        : 2138
6 _0 o7 V! [4 Z# dStream size                              : 37.1 MiB (0%)5 v8 _' z4 }1 _! ]; u
Title                                    : English-PGS
6 i* @5 y% y) p( B2 LLanguage                                 : English
! v9 m$ e0 {; X+ w( bDefault                                  : No# f3 z" G( E% N2 `
Forced                                   : No
: Q3 B9 Z- P8 ?Original source medium                   : Blu-ray
, l2 z$ f7 b" H. g" k7 @, k" _" r% Z6 T1 s% ^$ O
Text #4* x5 _7 x3 j! u% W2 A# @
ID                                       : 13
. h. ]8 a4 O. j  DID in the original source medium         : 4609 (0x1201)
- u8 J% X7 U1 ?' y- r! Y- cFormat                                   : PGS3 I; ~% J  S/ C
Muxing mode                              : zlib2 E  \$ v6 \- W, T9 B
Codec ID                                 : S_HDMV/PGS
: S$ ?+ Q. {0 F9 k7 J/ ^# r/ m& m8 vCodec ID/Info                            : Picture based subtitle format used on BDs/HD-DVDs- d8 t& V. k0 L
Duration                                 : 1 h 30 min
. g9 k- h! i5 f2 o' R) ?# b4 YBit rate                                 : 45.1 kb/s& b: V$ i2 r" g# L+ Q3 M' P
Count of elements                        : 1594
% }! Z- n: X; h) {( p. S# xStream size                              : 29.2 MiB (0%)! Z4 \1 ]8 M- b
Title                                    : French-PGS6 Y1 t0 o( V% j2 n, |+ k- D4 b
Language                                 : French
1 W* ^) w$ m  C/ r  m6 R' {Default                                  : No
  _( X' h; V8 w- B9 uForced                                   : No" Q/ R& ?. l9 u! T! O
Original source medium                   : Blu-ray* X" `3 j# |; u1 O2 {2 l& y  W, M
  D) }# k. W( b! r1 N
Text #5! Q* H9 \: o  L1 K. {
ID                                       : 14
2 {1 r% j* V" r; G2 J( Q# w! bID in the original source medium         : 4610 (0x1202), I: j& @$ [3 y8 x: a* W' G
Format                                   : PGS# [. I$ D8 x9 r+ Q9 r$ V3 K
Muxing mode                              : zlib: _6 X2 w6 I# B3 |4 ?9 n
Codec ID                                 : S_HDMV/PGS: I7 j# s! ^( b' W; F6 O3 K2 r
Codec ID/Info                            : Picture based subtitle format used on BDs/HD-DVDs
  {$ x. v) _' B+ k+ Q% zDuration                                 : 1 h 30 min
; l1 ?% F! ^1 J7 k6 j0 ?Bit rate                                 : 43.3 kb/s* d: P9 R: N8 S/ W% e
Count of elements                        : 1594, g$ E$ L: H3 }1 R! d( f9 T5 E
Stream size                              : 28.0 MiB (0%)$ I, H4 |; a6 r+ `
Title                                    : Spanish-PGS4 E3 \, |- Y5 }1 a* V2 T" e/ G( ~
Language                                 : Spanish' s! H# D) m) Y$ u& m8 v8 r0 D
Default                                  : No
* [8 y3 E- B' H) n3 RForced                                   : No1 ^" E) a' ]& M( J& {( u% c
Original source medium                   : Blu-ray
% R" M6 D2 G; x0 o  a$ R3 [
9 a' f, _7 H; P4 WText #6
$ a4 b- V% B0 f& L+ ~ID                                       : 15
% ^! W+ `/ v- I4 w4 ]7 rID in the original source medium         : 4611 (0x1203)
* ?) t2 n% l. KFormat                                   : PGS
5 @1 ?3 E; Y. jMuxing mode                              : zlib# B9 \! ]9 m7 A! d: |/ A
Codec ID                                 : S_HDMV/PGS* _/ }/ @) |4 i7 j% L. b& O: y5 F
Codec ID/Info                            : Picture based subtitle format used on BDs/HD-DVDs2 u1 O( w/ J. S  t7 s
Duration                                 : 1 h 30 min- i' P, B" a" g% s. o
Bit rate                                 : 31.2 kb/s8 `4 ?$ X  y( N% Q7 [
Count of elements                        : 1242# J4 V7 k$ ^/ m/ N, e  i7 S
Stream size                              : 20.1 MiB (0%)
1 x$ ~9 D' x, T3 o1 W* J; \Title                                    : English-For-Italian-PGS
8 D) B8 s, h; Z& X9 QLanguage                                 : English4 e# w) T) x: |0 U. b- L# ?2 C% [
Default                                  : No
* b6 k8 H2 ?; O4 b! y# u8 MForced                                   : No6 z1 _/ a/ y$ z; w+ l7 O
Original source medium                   : Blu-ray" U' h. G7 H' \- e, p* F' `

! q) y/ \4 c- TMenu  L: f$ X9 W% p  D# e
00:00:00.000                             : en:Chapter 01
4 q8 |" S/ p# Y; x% e; D1 r! S00:05:30.872                             : en:Chapter 02$ j# @6 m& u8 B9 X- x+ \3 V( d9 F
00:11:43.661                             : en:Chapter 037 S# j* \* _) j' A) E& m
00:18:20.099                             : en:Chapter 04
4 r. K9 M" V; q" c00:25:16.765                             : en:Chapter 05
2 c" R  {! }, W7 k  \- E  ]- |00:30:58.189                             : en:Chapter 06
7 B+ l4 C" |, W) o# o00:35:22.203                             : en:Chapter 071 Z3 f. h/ j1 k
00:40:38.018                             : en:Chapter 08/ ~* B) }; g$ v; k; `8 s
00:44:51.647                             : en:Chapter 09
2 r: d8 |) c1 F; @. B00:49:22.376                             : en:Chapter 10
% y* M3 k9 s; i) ?/ ~) R, A00:54:02.697                             : en:Chapter 11
" r4 o3 b) R: N& u: ~8 i. t01:02:29.328                             : en:Chapter 12' r/ N  _* K9 a! R
01:10:16.503                             : en:Chapter 130 l. a  _* }2 |# `6 j# _9 C
01:19:47.866                             : en:Chapter 14) Z) a" z$ M& Y) {6 J. C3 {
01:26:09.539                             : en:Chapter 15% v4 M9 q" c! l
01:31:40.870                             : en:Chapter 16
$ H% _1 v1 T$ k! L0 ^
游客,查看本帖隐藏内容请回复 | 加入VIP贵宾组可免积分免回复下载 了解详情 | 还不是会员:点击获取邀请码 Invitation Code

577

主题

1906

帖子

1万

积分

VIP advanced

金币
1631 枚
体力
4351 点

公主勋章卓越贡献勋章

21cn 发表于 2020-9-14 23:13:20 | 显示全部楼层
啥也不说了,楼主就是给力!
& O/ v% i5 l' r% M0 J" r. sBlu-ray Film Forum: I will always support you!
  ?6 w+ h5 q8 T: O1 X0 b

56

主题

1370

帖子

4931

积分

Sponsor

金币
224 枚
体力
1882 点
lanpanshuma 发表于 7 天前 | 显示全部楼层
啥也不说了,楼主就是给力!' X5 O( n/ \9 n
Blu-ray Film Forum: I will always support you!' m  u! ^4 f7 h. j1 r1 z
该会员没有 ...

0

主题

53

帖子

310

积分

Sponsor

金币
106 枚
体力
88 点
skyewan 发表于 7 天前 | 显示全部楼层
啥也不说了,楼主就是给力!& ~2 G) A! f4 j) A: c7 {* U. A
Bluraycd.com movie updates really fast, also did not release issued, whether you believe it or not, anyway, I believed!

本版积分规则

小黑屋|Archiver|蓝光电影资源网

GMT+8, 2020-9-22 03:39

快速回复 返回顶部 返回列表