BluRayCD Forum

 找回密码
 立即注册【分享大片】

QQ登录

只需一步,快速开始

查看: 19|回复: 1
收起左侧

[科幻恐怖] 纽约杀人狂 [重制版] The New York Ripper 1982 REMASTERED 1080p BluRaycd x264 DTS-HD MA 7.1 & TrueHD 7.1 Atmos-FGT 10.93GB & 11.23GB

[复制链接]

3897

主题

4271

帖子

3万

积分

Post Share

金币
7316 枚
体力
6584 点

卓越贡献勋章

mvods 发表于 2020-9-19 21:49:13 | 显示全部楼层 |阅读模式
4 {+ T) S1 I# j. J" b. v1 G: _5 t

) Z9 G- o" e5 y/ b. s3 u$ ?◎译  名 纽约杀人狂/纽约开膛手
$ r7 l: s: W' @◎片  名 Lo squartatore di New York / New York Ripper
; X( E0 A) d2 T◎年  代 1982
1 |; R9 Z; [/ ^8 L6 H& |4 _8 Z◎产  地 意大利7 r& b5 p9 \& n1 {' {1 ]6 @# D& {
◎类  别 悬疑/惊悚/恐怖/犯罪
3 Q6 w2 R6 ]! S8 A# G◎语  言 意大利语
- _: i3 t, X' ^5 Z◎上映日期 1982-03-04
5 k* E" k$ {' k% w◎IMDb评分  6.4/10 from 9,170 users# j2 B4 f9 k  z( c) @
◎IMDb链接  https://www.imdb.com/title/tt0084719/
$ O+ `0 L; t& ^7 M! {1 E+ I◎豆瓣评分 6.4/10 from 505 users
/ B0 [+ R# g  a) H/ c/ v◎豆瓣链接 https://movie.douban.com/subject/1438878/2 |1 t$ e7 T9 O
◎片  长 1 h 33 min
9 y9 b( X. R; o/ a  M+ x- Q4 H◎导  演 卢西奥·弗尔兹 Lucio Fulci$ Y/ C2 v8 i: u, F6 e% b
◎编  剧 卢西奥·弗尔兹 Lucio Fulci( c8 r0 U7 y4 s0 C5 `) g  E
       Gianfranco Clerici/ W7 d6 N8 t! R. p
◎主  演 佐乌拉·克丝罗娃 Zora Kerova' p& `* K% D9 g6 y& W2 B3 k
       Jack Hedley& P1 k! a+ s! i, d, O# X
       安东内拉·因泰伦吉 Antonella Interlenghi$ g: O8 P5 f# A( J/ H( g
       霍华德·罗斯 Howard Ross* @; i' d& [) j  @% y& @4 e! m
       安德烈亚·奥基平蒂 Andrea Occhipinti
' M; O" A) T' X. c9 l% c       亚历山德拉·蕾里·科利 Alexandra Delli Colli
. d% X$ N8 B! u  X; L5 @       保罗马 尔科夫 Paolo Malco
8 U7 u/ ~& ?/ b3 H7 Y( A1 @       辛姿娅·德·蓬蒂 Cinzia de Ponti+ O% S2 g6 e4 M. x7 L1 W' n2 @5 H
       科西莫·奇涅里 Cosimo Cinieri+ C9 M# Q$ w+ L; o2 Q: K* W
       达妮埃拉·多里亚 Daniela Doria
* r& O- m  s! s8 ^( F% `, j! v: a7 @9 ?; c# A
◎标  签 意大利 | 恐怖 | 惊悚 | 悬疑 | 犯罪 | 意大利电影 | 邪典 | Lucio_Fulci$ u  {9 o( y1 E+ _
7 n( x( ~) D# e5 ^. f  ?( U  b
◎简  介  
$ S  ^9 d/ C2 w: u' S; \" Z
& F- J9 u9 [: t2 m  ?  不夜城纽约,光怪陆离,夜夜笙歌,人们陶醉在美酒佳人的梦幻世界中,早已忘却躲在黑暗处的隐隐杀机。
8 b* A7 m8 @* s0 Z4 W+ s
: f/ h" |8 s5 [( K; w' w2 h  W  某晚,一名妓女被人残忍杀害,警官弗瑞德·威廉姆(Jack Hedley 杰克·海德雷 饰)负责调查此案,在问询女房东(Babette New 贝比特·纽 饰)时,得知死者在前一晚上曾和一名有着公鸭嗓的神秘男子交谈。不久后,被害者不断增加,且都是年轻女性,死状恐怖。威廉姆认定这是一起疯狂的连环杀人案。未免引起混乱,警方严密封锁消息,威廉姆只能单枪匹马追寻真正的凶手……
, j* V! I( c& w: i, I7 g' ~/ a( A) h/ D; A- I% |& F1 D4 _
  A burned-out New York police detective teams up with a college psychoanalyst to track down a vicious serial killer randomly stalking and killing various young women around the city.
' j9 W3 D1 C* `
Video
9 C( {- P& P( S1 M  s. {ID                                       : 1
8 u! n- [  _; |2 d0 b8 BFormat                                   : AVC, K# h3 g4 w% I7 [: [
Format/Info                              : Advanced Video Codec
, l0 w0 X6 Q3 e" ?5 ~: RFormat profile                           : High@L4.1
4 T* a( l. b7 W5 l- ~Format settings                          : CABAC / 5 Ref Frames( C% [  Q: r* ^! u: t. f# F
Format settings, CABAC                   : Yes% z4 F+ f/ A5 ^" N; [  b
Format settings, Reference frames        : 5 frames
2 ?9 L6 ?! L) U% C% y4 v( k+ ~Codec ID                                 : V_MPEG4/ISO/AVC2 I. ]$ J% [. A/ k7 w; I6 R
Duration                                 : 1 h 33 min
; _  {8 R" z! M6 k& e# E4 W1 H; |Bit rate                                 : 12.2 Mb/s1 J. E& v- ]8 g) i$ g3 T. V
Width                                    : 1 920 pixels. o9 p  F6 Q9 H' i& H
Height                                   : 800 pixels
; G+ I5 x$ I: o( u: SDisplay aspect ratio                     : 2.40:1
8 c( ~: z# G2 T, nFrame rate mode                          : Constant
+ P7 ^. B. W( RFrame rate                               : 23.976 (24000/1001/37687) FPS
7 h* {8 T. W+ zColor space                              : YUV
, N, J/ g* E. ~Chroma subsampling                       : 4:2:0
( X6 a" [* S0 p# ~: LBit depth                                : 8 bits, f% K9 |9 O8 ^: V: R
Scan type                                : Progressive. Y" {$ d' ]) s- C8 v1 Y' e% S
Bits/(Pixel*Frame)                       : 0.330
1 J4 ]% v" J; \Stream size                              : 7.90 GiB (72%)
& C! Y1 |' V9 _6 H9 U* z) c) P$ WTitle                                    : The.New.York.Ripper.1982.REMASTERED.1080p.BluRayCD.x264.DTS-HD.MA.7.1-FGT
$ [0 m, u' h# X3 Z/ F$ {, }Writing library                          : x264 core 157 r2969 d4099dd! m3 [' E+ E* Z
Encoding settings                        : cabac=1 / ref=5 / deblock=1:-2:-2 / analyse=0x3:0x133 / me=umh / subme=9 / psy=1 / psy_rd=1.00:0.00 / mixed_ref=1 / me_range=16 / chroma_me=1 / trellis=2 / 8x8dct=1 / cqm=0 / deadzone=21,11 / fast_pskip=0 / chroma_qp_offset=-2 / threads=12 / lookahead_threads=1 / sliced_threads=0 / nr=0 / decimate=1 / interlaced=0 / bluray_compat=0 / constrained_intra=0 / bframes=3 / b_pyramid=2 / b_adapt=2 / b_bias=0 / direct=3 / weightb=1 / open_gop=0 / weightp=2 / keyint=240 / keyint_min=23 / scenecut=40 / intra_refresh=0 / rc_lookahead=50 / rc=2pass / mbtree=1 / bitrate=12154 / ratetol=1.0 / qcomp=0.60 / qpmin=0 / qpmax=69 / qpstep=4 / cplxblur=20.0 / qblur=0.5 / vbv_maxrate=62500 / vbv_bufsize=78125 / nal_hrd=none / filler=0 / ip_ratio=1.40 / aq=1:0.70
  U/ v/ I# {2 x# f. E' BDefault                                  : Yes
; A+ s; L2 v$ D3 d( ?1 WForced                                   : No
( ]& ?, w& s/ X8 W" H6 {% {2 P* d5 q" ?' b; b
Audio #1, u. h% G, k, P  i, z6 i% [
ID                                       : 2
6 P9 L  d8 D( L; TID in the original source medium         : 4352 (0x1100)
7 {0 b% b: i. C6 D+ h0 |- n; k, M- {$ dFormat                                   : DTS XLL  M& @8 g1 y5 m; K; e) L! @
Format/Info                              : Digital Theater Systems7 z) {/ f2 `$ V% t) O3 U) U) E
Commercial name                          : DTS-HD Master Audio* e6 B& D9 ?$ d+ m9 J
Codec ID                                 : A_DTS! N3 |- N6 `/ L% f
Duration                                 : 1 h 33 min* S2 S% Q2 {  Q% [1 \- m- w
Bit rate mode                            : Variable0 Y# E0 U4 ~# P3 h0 T+ z5 J
Bit rate                                 : 3 822 kb/s
1 d' r) V& C/ D( F2 _' a- B+ XChannel(s)                               : 8 channels8 {9 b, i9 `) [3 |; ^5 a2 W
Channel layout                           : C L R LFE Lb Rb Lss Rss. R' E0 l5 S4 b
Sampling rate                            : 48.0 kHz
% }  k0 b! E% W* ?( f9 ?0 ^1 [Frame rate                               : 93.750 FPS (512 SPF)" }6 H1 e0 I& B* q0 k" c4 C9 ~: S
Bit depth                                : 24 bits! |5 u4 d/ l& v
Compression mode                         : Lossless) e) a- E: q! r/ L, I
Stream size                              : 2.49 GiB (23%)" z6 v9 T  |+ A: P4 G+ ~
Title                                    : The.New.York.Ripper.1982.REMASTERED.1080p.BluRaycd.x264.DTS-HD.MA.7.1-FGT2 ]# g7 `2 u: @  l' z7 r5 c5 ]% [" k
Language                                 : English+ B* N6 x5 ^! b+ ^! f
Default                                  : Yes6 r$ M5 D0 A7 a& K
Forced                                   : No7 w$ x% x8 J: ]$ \1 [* h3 s
Original source medium                   : Blu-ray" J2 H5 P* e( C& Q& {! x
# g/ G  J* B3 x0 @" b
Audio #2- p  D; s4 m9 x% Z% \. w
ID                                       : 3! K' O) L- W! [
ID in the original source medium         : 4354 (0x1102)% G4 W, k8 u4 g+ R
Format                                   : DTS XLL
, D* {' g, e4 D0 Y3 }: {$ pFormat/Info                              : Digital Theater Systems) M) t/ ]3 V5 z! u" B( q
Commercial name                          : DTS-HD Master Audio
$ s( X+ W3 _0 h; v; H9 dCodec ID                                 : A_DTS1 F5 Z/ L& M1 }7 {
Duration                                 : 1 h 33 min
. q% [7 t6 B, s3 u! U$ `+ d9 NBit rate mode                            : Variable& q& p9 z1 x8 r5 j7 V! b
Bit rate                                 : 756 kb/s
5 [* @0 x1 D3 V, t/ \! a7 u5 JChannel(s)                               : 1 channel
8 G, p% B$ ]6 _* x* e1 lChannel layout                           : C
0 P6 I+ ~% l7 a" V% Q2 RSampling rate                            : 48.0 kHz" {4 j- H8 H* W8 k: q% [+ H
Frame rate                               : 93.750 FPS (512 SPF)
! z3 ~$ a. H" a) D3 HBit depth                                : 24 bits& E8 }+ b( A0 v5 I$ w# X
Compression mode                         : Lossless' K. ?# R& ?( x& L1 V
Stream size                              : 504 MiB (4%)# p% i7 U0 q" W  {. w  L8 T
Title                                    : The.New.York.Ripper.1982.REMASTERED.1080p.BluRaycd.x264.DTS-HD.MA.7.1-FGT; K- U+ j' B/ o* }& c" U
Language                                 : Italian: }" g0 r6 @: ^2 z
Default                                  : No
+ V: b1 ]1 N$ P( T& V. q, F) JForced                                   : No5 u4 e' S/ o$ |5 r
Original source medium                   : Blu-ray
7 n5 P7 k9 Y) |- S6 F
$ ]/ R, b% X1 g3 s- oText #1
' x' |3 _2 ~" D0 a4 WID                                       : 4
" O$ A% Z& g& R6 e" n2 x- gFormat                                   : UTF-8
/ Q! v& E+ w. d) n2 B4 K: lCodec ID                                 : S_TEXT/UTF8
0 D* `5 `; J3 U$ @& P3 G8 E! yCodec ID/Info                            : UTF-8 Plain Text
) U+ l+ j- p5 ~% a9 {* u6 UDuration                                 : 1 h 30 min; h- ?/ t# A. q* u/ ^  \* g- x7 t
Bit rate                                 : 40 b/s7 P  |  z. r+ g2 z* J
Count of elements                        : 730/ t& P& m. G' H
Stream size                              : 26.9 KiB (0%)$ m' F( E8 K2 P) x: d" O
Title                                    : English-SRT
8 ^( L  A! C4 ELanguage                                 : English5 }  N0 j; `5 T8 s$ K
Default                                  : Yes. R8 g# A( A: M0 t
Forced                                   : No6 c1 k2 H4 p0 K& `# N& B

+ O% Y- U/ f. G$ MText #2
( X2 [6 I$ U6 G. F% Q4 PID                                       : 5. W$ I8 f$ z! O) C' Q! p1 c
Format                                   : UTF-8
/ q- d& k" [* ?+ R% K! K" F: tCodec ID                                 : S_TEXT/UTF86 E: w4 Q, B$ k6 x, C9 W) {3 e
Codec ID/Info                            : UTF-8 Plain Text+ ~' ^8 T8 H( q9 y) w; y, A
Duration                                 : 1 h 30 min
- e& d/ K2 X' t% R7 }& BBit rate                                 : 26 b/s" T5 l% j" e# L9 h& ?) B! m. P. G
Count of elements                        : 518
5 L( _) b, Z5 S: x" J- e5 r7 a( UStream size                              : 17.2 KiB (0%)' A2 o1 e1 ^! b' J4 @7 }
Title                                    : English-For-Italian-SRT
# M- E2 S+ X1 B; n4 x7 rLanguage                                 : English
3 p- w8 J5 B! j# ^Default                                  : No
! v* E5 I; B+ h3 \0 H! |$ {; A! vForced                                   : No! [1 _, ~" @6 \( M: r  g  s3 T! T

2 K: Z* S. Z0 @& S8 ?# |; DText #3
( Q9 d7 Y* |( OID                                       : 6
# g' D6 X  M& d* IID in the original source medium         : 4608 (0x1200)& y. C, E1 j' |8 s, z- s: H( v/ G
Format                                   : PGS1 Y# ^5 u7 a$ b8 z6 E# F( Z/ S
Muxing mode                              : zlib' g7 f* c, E, H1 w4 {; U8 G# Y& n& ~
Codec ID                                 : S_HDMV/PGS- Z. g% q7 [/ `
Codec ID/Info                            : Picture based subtitle format used on BDs/HD-DVDs
  c  N' i3 ]3 F! [, @# G" d/ GDuration                                 : 1 h 31 min2 k$ ^4 L- ~5 d& q0 p( d5 R6 A
Bit rate                                 : 56.9 kb/s
  K8 `1 @2 [/ }2 f7 S2 E% \$ DCount of elements                        : 2138
* t4 M; f9 M% d  j5 J, g9 L) e! LStream size                              : 37.1 MiB (0%)' q  r: S, e7 r/ I; w. U
Title                                    : English-PGS
4 C9 }+ H2 h* wLanguage                                 : English
- f( x% p- Y' k7 M) A$ ^* @9 EDefault                                  : No
+ B8 s% P+ W% T$ nForced                                   : No6 `& \  z5 p* q: _* |
Original source medium                   : Blu-ray1 Y$ v1 |# S' M! d# q
2 s) B$ i/ l( T; M
Text #4
# X' l/ E7 Y5 H5 d2 O. @: z1 tID                                       : 7
! u* e& c+ q" K7 xID in the original source medium         : 4609 (0x1201)& U2 B0 p; m# }0 e( f
Format                                   : PGS% m2 l! j8 A1 _! f: ]
Muxing mode                              : zlib7 H& t: b+ e! O7 x  o/ D
Codec ID                                 : S_HDMV/PGS; c, ~8 M% _  R4 c% o; t$ V9 B) P
Codec ID/Info                            : Picture based subtitle format used on BDs/HD-DVDs1 f# l8 H$ E% i! r
Duration                                 : 1 h 30 min# A+ |4 f% j) b% N) Q
Bit rate                                 : 45.1 kb/s6 Y) j/ ^; V- A: n" v5 T# Q
Count of elements                        : 1594
3 |, J0 q  D4 U" N  E3 FStream size                              : 29.2 MiB (0%)
. _/ K1 a$ h7 R( o/ V1 @$ g1 uTitle                                    : French-PGS
, F! U$ l# f$ ^" }1 J) z- rLanguage                                 : French% o7 I9 C7 b3 D/ u
Default                                  : No. ^4 N  J* `4 t* Z( \, Q
Forced                                   : No
/ p1 i# W  J& D" p+ K& SOriginal source medium                   : Blu-ray0 W# M/ T) m9 z* C" W% j
' B% {6 ^9 Z) D* y3 c7 t
Text #5( J- s+ D5 s; k; \/ [$ F
ID                                       : 8* A' v  w, M. T
ID in the original source medium         : 4610 (0x1202)2 q' }: A0 y) k4 q5 f+ h
Format                                   : PGS0 O# ?4 l1 e  L& `1 ?) G1 a
Muxing mode                              : zlib
3 c5 K' i' w& M8 F6 k7 T. X9 J" SCodec ID                                 : S_HDMV/PGS# E/ l$ G" T4 U' w
Codec ID/Info                            : Picture based subtitle format used on BDs/HD-DVDs
* i% j7 f5 f( x$ @Duration                                 : 1 h 30 min  i, P- L5 Y3 R( J8 b& E
Bit rate                                 : 43.3 kb/s. f# f# E' ^& @# Y$ U/ |9 F
Count of elements                        : 1594
' M* e: ^3 Q1 s9 c0 x# F4 m2 H4 _Stream size                              : 28.0 MiB (0%)% }2 S+ H) \: o6 ]+ p( h; K8 g# ^8 Y
Title                                    : Spanish-PGS/ m) r" `5 B& @% ^( u: `
Language                                 : Spanish: g: B# D7 [4 j% a9 D
Default                                  : No3 P6 S, X- i4 K" m7 }( E
Forced                                   : No0 ]* t3 c: V8 Q0 k: y, r
Original source medium                   : Blu-ray, W0 Q3 l- X$ H7 `
1 [4 B6 ~# H2 e" M7 b* T
Text #6
7 b/ C* T6 o1 c& ~: }: V0 VID                                       : 9/ ~4 @4 K- A  |. x$ @
ID in the original source medium         : 4611 (0x1203)
' _$ e$ Q7 f4 }; r) oFormat                                   : PGS
1 q% [! D1 |: G2 K! t& ~. iMuxing mode                              : zlib
+ C- B- z" ^& J. y: H2 ACodec ID                                 : S_HDMV/PGS
" I% }4 E: c1 Q( S$ l/ w* G8 FCodec ID/Info                            : Picture based subtitle format used on BDs/HD-DVDs" C) e& n) A$ i2 ~0 l9 M
Duration                                 : 1 h 30 min
! S2 t5 p9 E5 `7 |  A- L3 w/ ~Bit rate                                 : 31.2 kb/s0 `+ j! e7 F- r" h* {
Count of elements                        : 12422 i3 v8 r9 ^; ?7 F0 F6 ?$ Z
Stream size                              : 20.1 MiB (0%)2 p8 X/ b, i0 d7 z, [: R* n* r% Y
Title                                    : English-For-Italian-PGS3 w! p5 H) Q- i6 d. A
Language                                 : English: j/ `: e7 O/ `2 M( p/ Z0 e% F
Default                                  : No
2 T) g' U! K1 N% e* `; NForced                                   : No
% N& x8 u# D7 x1 D( TOriginal source medium                   : Blu-ray3 A3 \; Q& b9 o" m/ w
0 z& B/ h. ?8 n$ _0 ^" P
Menu: K) |4 U6 L+ p- F1 @0 q
00:00:00.000                             : en:Chapter 01
4 T6 V  U% l" t, d  O# p4 `00:05:30.872                             : en:Chapter 02
5 R9 O5 q) j# {. C4 V3 e- r00:11:43.661                             : en:Chapter 03
  y' @( K* }: X! c% m; b# e8 S00:18:20.099                             : en:Chapter 04" ]  m; L  \, C+ M2 j) W
00:25:16.765                             : en:Chapter 050 |: I9 S; K9 k: e7 W# `
00:30:58.189                             : en:Chapter 06
+ g/ E3 d$ S% f! K& _( V) H00:35:22.203                             : en:Chapter 07* g  L4 x& |. L0 d; M
00:40:38.018                             : en:Chapter 082 S+ r/ f5 i9 O$ @5 x" v2 \' [
00:44:51.647                             : en:Chapter 09# i# q* ^1 y! N8 d; ]- B* s
00:49:22.376                             : en:Chapter 104 k; ?; j4 O$ [* _- _
00:54:02.697                             : en:Chapter 11- @  H, r4 I: V- p0 Q, v3 l$ h% Q) i" I
01:02:29.328                             : en:Chapter 124 x- j/ Q$ F* I8 D' M
01:10:16.503                             : en:Chapter 13
& X) j: C3 E5 B01:19:47.866                             : en:Chapter 14
& |9 h2 s) F! `6 j01:26:09.539                             : en:Chapter 15
; y; d, V% T! ?6 n( y3 u0 g01:31:40.870                             : en:Chapter 16
Video) o5 a1 y/ v3 z8 B9 Z
ID                                       : 15 \4 }/ A6 b* S5 z
Format                                   : AVC( f" R0 C5 E. x, A3 G
Format/Info                              : Advanced Video Codec% W" o! X2 b1 L- s+ d
Format profile                           : High@L4.1
0 E" s/ w/ o5 Q! C8 UFormat settings                          : CABAC / 5 Ref Frames& P1 ?6 d" U7 f
Format settings, CABAC                   : Yes0 c; r6 e1 t$ r
Format settings, Reference frames        : 5 frames% R: v/ S, @# ~# D
Codec ID                                 : V_MPEG4/ISO/AVC
& U: f9 Q9 K: PDuration                                 : 1 h 33 min  s1 i) ~  M1 H. c0 u( g7 c/ E, }7 h
Bit rate                                 : 12.2 Mb/s
& v/ Z$ P+ c# t) s) q* j  n1 ?4 w5 UWidth                                    : 1 920 pixels5 M7 Z9 p  ?1 V; ], z, N
Height                                   : 800 pixels
( H$ I1 r( b9 g& r8 fDisplay aspect ratio                     : 2.40:1* {- R8 m( X5 M/ B$ L3 U$ `
Frame rate mode                          : Constant1 c0 m4 f3 ?& I+ u2 `* `
Frame rate                               : 23.976 (24000/1001/37687) FPS
' `+ U, v* W% J& k; B+ X; ?Color space                              : YUV
( @: P& o6 I: A: L1 BChroma subsampling                       : 4:2:07 e: |( O0 Z* P% E7 I
Bit depth                                : 8 bits
8 z; a) _4 C( }: iScan type                                : Progressive# X4 ~' ~! K4 y' `0 m
Bits/(Pixel*Frame)                       : 0.330( Z. `! W2 t$ I3 w$ Y6 w% ^( u2 Q
Stream size                              : 7.90 GiB (70%)
( E1 G" {3 _8 n" STitle                                    : The.New.York.Ripper.1982.REMASTERED.1080p.BluRaycd.x264.TrueHD.7.1.Atmos-FGT3 P. x; P9 R; o5 x
Writing library                          : x264 core 157 r2969 d4099dd$ M( h  m9 }! r# K4 ]
Encoding settings                        : cabac=1 / ref=5 / deblock=1:-2:-2 / analyse=0x3:0x133 / me=umh / subme=9 / psy=1 / psy_rd=1.00:0.00 / mixed_ref=1 / me_range=16 / chroma_me=1 / trellis=2 / 8x8dct=1 / cqm=0 / deadzone=21,11 / fast_pskip=0 / chroma_qp_offset=-2 / threads=12 / lookahead_threads=1 / sliced_threads=0 / nr=0 / decimate=1 / interlaced=0 / bluray_compat=0 / constrained_intra=0 / bframes=3 / b_pyramid=2 / b_adapt=2 / b_bias=0 / direct=3 / weightb=1 / open_gop=0 / weightp=2 / keyint=240 / keyint_min=23 / scenecut=40 / intra_refresh=0 / rc_lookahead=50 / rc=2pass / mbtree=1 / bitrate=12154 / ratetol=1.0 / qcomp=0.60 / qpmin=0 / qpmax=69 / qpstep=4 / cplxblur=20.0 / qblur=0.5 / vbv_maxrate=62500 / vbv_bufsize=78125 / nal_hrd=none / filler=0 / ip_ratio=1.40 / aq=1:0.70
9 F6 e/ C) Y: I2 U+ fDefault                                  : Yes
0 |3 j0 g8 z# E0 _  r# _' rForced                                   : No3 A" W" s4 I2 r4 j3 M) S9 _2 o: b8 N
! R; x1 a$ q1 U4 U% F
Audio #1& [- i! o0 E- C- ]6 P: Z0 ^$ ?6 j
ID                                       : 2" @* C) d6 R1 g+ b
ID in the original source medium         : 4352 (0x1100)
/ L0 g$ b& f" ?2 w+ TFormat                                   : MLP FBA 16-ch6 p/ Q  z: z3 F5 v
Format/Info                              : Meridian Lossless Packing FBA with 16-channel presentation
0 \3 J+ n; I3 d8 P5 ~1 {Commercial name                          : Dolby TrueHD with Dolby Atmos7 g- W  @; B" _; L& u
Codec ID                                 : A_TRUEHD
) \5 O" r" p" K3 }Duration                                 : 1 h 33 min8 q6 F. ]* |% Q# |( A" N5 O" D  N  _
Bit rate mode                            : Variable
: X9 ?% L0 v" Z, z! W  NBit rate                                 : 3 570 kb/s: u% \7 E& P$ U: j$ _, c
Maximum bit rate                         : 6 348 kb/s" F: d+ a+ ~: f' A. S. k% q9 y0 }
Channel(s)                               : 8 channels
  K4 E+ H* V2 |7 W% G5 dChannel layout                           : L R C LFE Ls Rs Lb Rb2 w" m" ]6 S4 a2 ~) M+ {  M
Sampling rate                            : 48.0 kHz' w2 I. _7 J0 R6 _
Frame rate                               : 1 200.000 FPS (40 SPF)0 D7 X. N% i/ J# |" @$ W! l- e) L7 {
Compression mode                         : Lossless3 J2 M  I& J7 K2 s% h. g4 z5 n: ^, L
Stream size                              : 2.32 GiB (21%)7 G5 z, c+ W7 b& S* e/ O# W
Title                                    : The.New.York.Ripper.1982.REMASTERED.1080p.BluRaycd.x264.TrueHD.7.1.Atmos-FGT' s% L: z. @  }& ~
Language                                 : English
  j( ~4 B: ?) g& W+ ]Default                                  : Yes  I% C2 S! {: P5 d
Forced                                   : No9 ?8 c+ u/ Q; C" ]
Original source medium                   : Blu-ray
8 S1 B4 D7 Z& ?7 C; GNumber of dynamic objects                : 11
; L* d" ]. x" ]4 JBed channel count                        : 1 channel
) h8 o0 g/ ~# YBed channel configuration                : LFE
% O7 o. `5 }* B3 e  Z7 ~/ [% F0 [* W4 `
Audio #2
6 f3 P! `1 F5 LID                                       : 3* a, k8 k; ^6 a! o% i' S% n# z' r" r) o
ID in the original source medium         : 4352 (0x1100)0 ?6 i7 M- M5 P! \) V) q8 A( T
Format                                   : AC-30 V8 N( W( D8 v2 B4 I
Format/Info                              : Audio Coding 32 h) E- h3 |6 Z# h$ g$ ^! F
Commercial name                          : Dolby Digital& z' x; W( j; D7 f3 F
Codec ID                                 : A_AC3
: `4 s" N5 o% a( hDuration                                 : 1 h 33 min0 _0 f* F# h$ D
Bit rate mode                            : Constant
" R. T" |/ `7 d  G% {, QBit rate                                 : 640 kb/s
8 ~9 ^! X4 c1 b" U$ E. \* UChannel(s)                               : 6 channels
7 v: p4 ]- j/ FChannel layout                           : L R C LFE Ls Rs# D+ m! Z/ f  U9 _! ^
Sampling rate                            : 48.0 kHz+ X/ F8 h9 A8 i# P0 o
Frame rate                               : 31.250 FPS (1536 SPF), Y; I# B7 H- T" ^$ @9 S
Compression mode                         : Lossy) @6 ~! ^# l  h  S  {9 @
Stream size                              : 426 MiB (4%)
% t: y7 F3 T" M7 b( t  [Title                                    : The.New.York.Ripper.1982.REMASTERED.1080p.BluRaycd.x264.TrueHD.7.1.Atmos-FGT  `. d  L+ T( ~) ]7 X5 m$ k
Language                                 : English6 p6 e- `  ~. T& d
Service kind                             : Complete Main
1 f: S; l% [& F) n6 ZDefault                                  : No+ }9 q1 m5 H' o8 a/ u
Forced                                   : No2 ~/ \7 M4 m7 E- |: Z
Original source medium                   : Blu-ray
! P3 K8 P. e+ \& q1 x0 _! a! F4 H6 J/ ]
Audio #3, w' H, [2 n; D* b( e! h
ID                                       : 4
" Y' \2 ?3 j7 o6 a, l0 E/ {ID in the original source medium         : 4354 (0x1102)3 T% A3 o9 `: D% K/ d
Format                                   : DTS XLL
: l2 U5 Z6 P+ H/ ^/ X2 [Format/Info                              : Digital Theater Systems
1 |: [' p2 F' D0 n- k) y% W% C$ ?: HCommercial name                          : DTS-HD Master Audio
/ ^; y4 D( ?) KCodec ID                                 : A_DTS
9 _5 }8 t# a, ODuration                                 : 1 h 33 min
7 B8 W' A( S: M3 n: `4 X9 VBit rate mode                            : Variable
  p6 \" l) P/ FBit rate                                 : 756 kb/s3 {- G. o; [" f) y- O
Channel(s)                               : 1 channel
5 v7 Y4 ~6 d" x8 j9 WChannel layout                           : C
0 i8 A! E2 ~" j/ a6 n7 YSampling rate                            : 48.0 kHz
( H' ^; U) o8 f3 F( R' @Frame rate                               : 93.750 FPS (512 SPF)7 V1 a3 D# D6 o" q8 _
Bit depth                                : 24 bits0 q. v) Z1 B. D/ v  F0 ^9 P
Compression mode                         : Lossless
; e6 v+ I$ N$ A1 vStream size                              : 504 MiB (4%)
4 `' J, i0 l5 M0 U  X* YTitle                                    : The.New.York.Ripper.1982.REMASTERED.1080p.BluRaycd.x264.TrueHD.7.1.Atmos-FGT' E+ i" b: S+ ~  c+ M
Language                                 : Italian
) m! A! \  C! H) V( [/ H5 gDefault                                  : No$ }9 ]' Z4 o+ P1 I. a
Forced                                   : No
, f0 t8 L% a7 W! D1 z) JOriginal source medium                   : Blu-ray
. E' h( b+ I5 j* i, c& a0 L7 j: T' d  G
Text #1
5 k9 h" R( ?+ c6 j. _6 i: gID                                       : 51 w& y. x4 d+ C. _8 D# U
Format                                   : UTF-8
. N: P4 p& w0 l& dCodec ID                                 : S_TEXT/UTF8- m/ C* _  u0 |" A
Codec ID/Info                            : UTF-8 Plain Text. g; L8 {1 p  n9 K0 s* T/ \
Duration                                 : 1 h 30 min
! x! [  J/ Z: p" kBit rate                                 : 40 b/s4 e4 O0 q. p, w3 P+ w2 |
Count of elements                        : 730/ s- p0 m0 `) B5 V6 S4 o
Stream size                              : 26.9 KiB (0%)1 l* r4 A0 C1 C, ~% \: A! q
Title                                    : English-SRT4 Q# c* E. @. }" f0 ~; F0 [
Language                                 : English
9 L1 o# |9 `! q# \+ k4 _Default                                  : Yes
8 H  O% U2 {& W2 y, L$ ^) V: RForced                                   : No
; W% f) g2 `- k+ G" ~: p0 p5 O
2 A& \; \+ A8 {& X1 LText #2# w" N! v4 v# e  g: }2 [$ W& Y
ID                                       : 6
$ m- F: T- u: ~  CFormat                                   : UTF-8- o9 B2 S+ U7 R; j: d7 i7 q
Codec ID                                 : S_TEXT/UTF8# t/ z) y# o: F" ^
Codec ID/Info                            : UTF-8 Plain Text3 ~2 l; C% Q3 h8 n. N2 j* S( Q3 u
Duration                                 : 1 h 30 min
+ q2 d' W+ ]& t% V+ KBit rate                                 : 26 b/s+ S: }: u+ o+ Z2 w: X/ \
Count of elements                        : 518
1 m9 k0 s3 S7 KStream size                              : 17.2 KiB (0%)
% m5 {- B8 ?  H  z/ r. hTitle                                    : English-For-Italian-SRT
3 W- ?7 A% R6 O  B# L2 g! I& kLanguage                                 : English3 Y7 ^" A0 ^4 k+ z+ ?) @0 b
Default                                  : No; c0 h" A( h( E4 J) r7 o3 I" b; o
Forced                                   : No
5 H' @! `) D; u7 I' d( G: {* J" c2 i  `4 A9 [3 j# @- y* Q: w& }
Text #3
4 e4 S3 J! S% w. }$ s) zID                                       : 7
# P: [# J7 M. kID in the original source medium         : 4608 (0x1200)3 \0 v& H( S/ D* i/ |2 \
Format                                   : PGS6 q! U. l" B6 n4 h0 ~5 y
Muxing mode                              : zlib2 \* j; ?3 }. h/ g4 `9 `- |
Codec ID                                 : S_HDMV/PGS* m1 n. e) e# u) e, X6 y2 N0 N
Codec ID/Info                            : Picture based subtitle format used on BDs/HD-DVDs
" F0 q: Q! |* @. n1 l8 T0 ]) tDuration                                 : 1 h 31 min! C3 f: D0 m# ^' o
Bit rate                                 : 56.9 kb/s
# l/ E# [! i: gCount of elements                        : 2138- _0 x( N9 I8 ?1 y/ x
Stream size                              : 37.1 MiB (0%)
- V( d! W( Z" b" z! \4 i" s0 j* U8 mTitle                                    : English-PGS) f- K3 d) `, R" U, M
Language                                 : English
: N3 ~& h4 T! k8 D) xDefault                                  : No9 Y# G# M. v8 @% T/ U' q
Forced                                   : No
) V( q2 y+ r! h- Y0 s4 W. t" }Original source medium                   : Blu-ray& a2 m% c$ _  c$ r
! C+ b  c7 P( G3 X: J/ r* r) D
Text #4
2 C8 r3 ]( ?) l5 i( OID                                       : 8  n" k; ^7 |5 `0 A- a5 |
ID in the original source medium         : 4609 (0x1201)
5 b5 |& ]/ K% x9 v2 N/ aFormat                                   : PGS) r+ g1 I8 F# Y6 C9 {' P% \
Muxing mode                              : zlib
# b! x8 a  p& D- h. WCodec ID                                 : S_HDMV/PGS! t. M- }$ e2 x( V
Codec ID/Info                            : Picture based subtitle format used on BDs/HD-DVDs
$ o: h# r" I9 EDuration                                 : 1 h 30 min
6 F% L+ u) B  D) b+ E! m7 F: p% BBit rate                                 : 45.1 kb/s+ Z. h- c8 x# X+ P' i1 A1 ]; S1 D% b
Count of elements                        : 1594
1 r& `. K& a7 Z* k8 O; XStream size                              : 29.2 MiB (0%)
2 q# h* b9 X  ?3 o$ }Title                                    : French-PGS
# a- y# C, x8 L% n1 [7 c: wLanguage                                 : French
' H* x7 g5 x8 zDefault                                  : No
# F* C/ O' }0 p, \' c. u7 HForced                                   : No
) R0 H, d: P, Q' y7 G- n  c0 ?: dOriginal source medium                   : Blu-ray4 G: C4 g! ]/ ~( s/ w
( v+ M+ o7 t0 z, l/ a3 D5 D
Text #5
# Y. U6 B; a# F* i( ]ID                                       : 9  R; j. u0 A8 J+ j- k/ h
ID in the original source medium         : 4610 (0x1202)3 I/ K7 `4 j5 k5 P
Format                                   : PGS& T8 ?7 y. {+ b# _4 v" @
Muxing mode                              : zlib
( t8 |; ?9 v) T& iCodec ID                                 : S_HDMV/PGS
! I# y" |' Q- G" F+ q9 jCodec ID/Info                            : Picture based subtitle format used on BDs/HD-DVDs
1 `( o2 Q" Z8 S: t6 K! ~Duration                                 : 1 h 30 min: x; R  C6 N" I8 n1 j! s( l- x' Y
Bit rate                                 : 43.3 kb/s
8 S" r+ W' n: @4 _% QCount of elements                        : 1594& p0 m: p" V6 x5 j% s
Stream size                              : 28.0 MiB (0%)* E7 r( I! m+ V) }  u" ]( u4 N5 i
Title                                    : Spanish-PGS
$ M2 i: B5 C) t: {. U6 E# TLanguage                                 : Spanish; w: Y- }/ H0 {! [, k* B* x5 |: _
Default                                  : No% }, V6 k. Y! @/ f, p& h
Forced                                   : No
" Z$ ?" R: x) I- B1 @7 @& g- b' {Original source medium                   : Blu-ray
5 E" J; {3 u0 s6 ~
* x" b0 G# f1 H- W3 x# eText #68 h$ [5 r! b/ B0 v
ID                                       : 10+ M( T4 a/ ?  v% i
ID in the original source medium         : 4611 (0x1203)
* t/ p+ @/ ^5 X  ]( Y) A( U. v4 @Format                                   : PGS( |5 M  g( H2 ?$ G3 I) ?* A
Muxing mode                              : zlib
; _- c- X9 Y- U: K2 s8 HCodec ID                                 : S_HDMV/PGS: d0 {+ A# K" N- f
Codec ID/Info                            : Picture based subtitle format used on BDs/HD-DVDs
3 X. D. u2 N+ a% o1 DDuration                                 : 1 h 30 min
. r& b8 M6 x/ {  oBit rate                                 : 31.2 kb/s
, N; \6 }  t" TCount of elements                        : 12423 G4 J6 V5 D0 K7 V* \# r/ C
Stream size                              : 20.1 MiB (0%)/ X! |7 e2 B# H% K
Title                                    : English-For-Italian-PGS
9 O  I3 |  L. y) E/ wLanguage                                 : English' m9 g( F1 A/ Y0 D, K
Default                                  : No- ~8 Q& Z) Z. D# d4 E3 m" u4 }
Forced                                   : No8 X. P+ l! L7 ]' Q0 G- c0 _# ]
Original source medium                   : Blu-ray
: J* N# B2 o/ V  `3 Q$ v5 _, X( N! B4 d
Menu& t; J2 X. j8 c  F4 n) t% Q: U
00:00:00.000                             : en:Chapter 01- o1 n& B* O7 p
00:05:30.872                             : en:Chapter 02+ J" w& q! C4 {/ X" g* J: e+ q8 x
00:11:43.661                             : en:Chapter 03" p8 r2 N1 ]+ G6 S
00:18:20.099                             : en:Chapter 04
, N; i' m+ ^/ W6 t8 b00:25:16.765                             : en:Chapter 058 l- V8 i2 s9 y$ ~! P. ?" Y+ Z
00:30:58.189                             : en:Chapter 06
: Y$ _9 [5 C6 A! E: Z, B00:35:22.203                             : en:Chapter 07
$ n5 M8 f6 m0 p& z  G00:40:38.018                             : en:Chapter 08! h9 {0 }6 m  Y7 }8 T5 I+ l
00:44:51.647                             : en:Chapter 09
0 }1 _7 p  Y2 f9 Y+ g* f. G" f00:49:22.376                             : en:Chapter 10
! N$ B9 |( C# h  k$ }1 L00:54:02.697                             : en:Chapter 11
1 g8 E3 a! A* P( c2 Y* {3 M% Q2 }01:02:29.328                             : en:Chapter 12
% A! ^$ ?& X1 ]( g! ~  t% Z% S01:10:16.503                             : en:Chapter 138 V: E$ B; ~7 i! g& k: l: q
01:19:47.866                             : en:Chapter 14- Y7 J2 }: r2 D' r7 d& z
01:26:09.539                             : en:Chapter 15  M) k/ \. ]" ~) z. j2 S, h2 r
01:31:40.870                             : en:Chapter 16
2 A+ d+ M. V; {
游客,查看本帖隐藏内容请回复 | 加入VIP贵宾组可免积分免回复下载 了解详情 | 还不是会员:点击获取邀请码 Invitation Code

14

主题

172

帖子

8747

积分

Sponsor

金币
2617 枚
体力
4898 点
QQ
aodailiheiben 发表于 2020-9-19 22:02:35 | 显示全部楼层
纽约杀人狂   1982  mkv
嬉笑怒骂, ...

本版积分规则

小黑屋|Archiver|蓝光电影资源网

GMT+8, 2020-10-25 18:28

快速回复 返回顶部 返回列表