BluRayCD Forum

 找回密码
 立即注册【分享大片】

QQ登录

只需一步,快速开始

查看: 22|回复: 3
收起左侧

[4K极清电影] 收税人/收账人 [4K REMUX无损版] The Tax Collector 2020 2160p BluRaycd REMUX SDR HEVC DTS-HD MA 5.1-FGT 40.45GB

[复制链接]

5411

主题

5765

帖子

6万

积分

Forum Moderator

金币
3859 枚
体力
25445 点

卓越贡献勋章VIP蓝光勋章

迅雷电影 发表于 2020-10-9 22:30:12 | 显示全部楼层 |阅读模式
A "tax collector" for a crime lord finds his family's safety compromised when his boss's old rival shows up in LA and upends his business.
; S/ Y( o' D2 r. k; e& V
9 H3 C4 p. N% X) r( N
! o# L. q) r$ o/ i
3 G% j+ D/ \# Z4 j◎译  名 收税人/收账人
$ Y' |" R: Y; y+ ?) I, d, M2 \◎片  名 The Tax Collector / Tax Collector
- e8 p1 X/ U% h/ t◎年  代 2020
+ \" ^1 y- e4 z8 i◎产  地 美国& V+ J1 w+ F: O+ c
◎类  别 剧情/惊悚/犯罪( G" z+ b4 o7 p0 p+ U" o7 v; l
◎语  言 英语) I2 ]! O. V7 s6 Z& _
◎上映日期 2020-08-07(美国)
& E# Y, ]- @/ G◎IMDb评分  4.7/10 from 6,013 users; s$ Y0 `( W+ }4 K+ T6 m
◎IMDb链接  https://www.imdb.com/title/tt8461224/
. ~& o) n- O# r: i7 m4 @◎豆瓣评分 4.7/10 from 281 users
0 u3 x. }: r+ ?. G: W9 ^7 y◎豆瓣链接 https://movie.douban.com/subject/30254296/- Y% L/ n" h/ b( p$ m# w( H8 g
◎文件格式 x265 + DTS! y8 R: k6 |4 p# D+ F* y: n/ [. x+ J, P
◎视频尺寸 3840 x 21603 y  X) d4 r% Z; Y* f/ ~
◎文件大小 1DVD 40.45 GiB
4 m8 S3 s; X! q- ~◎片  长 1 h 35 min% {1 ?' R6 v. `0 @8 p" E
◎导  演 大卫·阿耶 David Ayer3 D) r# H/ G* w! {7 U% o$ D
◎编  剧 大卫·阿耶 David Ayer+ J+ [& S; m* ]2 k0 N
◎主  演 希亚·拉博夫 Shia LaBeouf
" j: R4 Z& b5 g& F* N4 |- \& |       拉娜·帕瑞娅 Lana Parrilla
0 l+ n5 `1 i+ v" z: [0 p       辛西娅·卡蒙娜 Cinthya Carmona
$ `! W8 e6 f5 S! p  ^5 c7 u       艾尔皮迪娅·卡里洛 Elpidia Carrillo% q/ s* z( U3 \0 s+ }
       乔治·洛佩兹 George Lopez
! }2 A6 v3 f- X7 b       切尔茜·兰顿 Chelsea Rendon
/ x3 d$ V+ S) y0 u( e- M0 ^% y       诺埃米·冈萨雷斯 Noemi Gonzalez# R! C' F$ m& H, f: x
       布兰登·舒博 Brendan Schaub
9 n; l. i$ P" D+ g  k: ^       雷内‧莫兰 Rene Moran8 z/ O8 a, o- q. [2 ^# H" [; G+ J
       胡安·卡洛斯·坎图 Juan Carlos Cantu
1 g1 \0 o  @; O' K       鲍比·索托 Bobby Soto
( f$ y4 u0 f4 p" v# M       兰迪·冈萨雷斯 Randy Gonzalez
$ K& ^' o" ~; X5 S$ p$ H       Michelle Jubilee Gonzalez; o6 T3 s3 v9 b6 s  {2 J
       Jay Reeves
9 b/ X% S) I% Z1 }) C$ H       Gabriela Flores
- e$ a& @* q. k9 x2 [7 t- A       Nayeli Esparza$ Y& T9 _6 D5 |# K# H
       Lee Coc
& i% [, _1 Z! V- S4 s1 R' a       Valentina Latyna Plascencia2 J/ c7 k' B2 Y6 v+ R4 D* y! }
       奎因·厄利 Quinn Early
/ i5 N) [! P8 ^
: A9 p; b" P8 f* F◎标  签 黑帮 | 犯罪 | 希亚·拉博夫 | 美国 | 大卫·阿耶 | 2020 | 美国电影 | 剧情
, {# l) Q$ {% H" y" E& _; A, t( p% k. ?% `, @+ o
◎简  介  6 S) C, b" X4 F* f" f+ M
9 C. ^7 a: |( ^. w' u. |
  Shia LaBeouf将与David Ayer再度合作《收税人》。
3 e; _3 e1 r5 ~4 u7 z
$ q" Y# _2 V& P& l1 p! C4 i8 P  电影讲述男主角大卫·奎瓦斯(David Cuevas),他是一个看重家庭的男人,但工作却是为洛城黑帮高层收税的收账人。他与搭档Creeper穿梭于城市之间收账,用各种方法逼人们掏钱,而欠账的则会受到残忍的报复。然而,一位旧日敌人的归来让奎瓦斯所爱的一切都陷入危险之中。' V: M8 L9 E4 l
& ^+ Q% F# k* i" Q5 w' w9 s
  A "tax collector" working for a local crime lord finds his family's safety compromised when the rival of his boss shows up in L.A. and upends the business.7 E) V  Q* I6 d7 V. R2 I$ o
Video
4 d: v  T% b5 @: R2 k0 H3 y2 yID                                       : 19 g' D& G. H; {& i4 W
ID in the original source medium         : 4113 (0x1011)
6 M# w7 E6 f- ?Format                                   : HEVC
- U6 n$ Y5 e4 Q% Z. @Format/Info                              : High Efficiency Video Coding
  i8 T% t. w: e# ?. ?& W! h' qFormat profile                           : Main 10@L5.1@High
& ~, U- c. w$ }) }4 P' u: ]( x) _) I& oCodec ID                                 : V_MPEGH/ISO/HEVC
4 {: I% T& p  s) \" tDuration                                 : 1 h 35 min$ d4 ]3 Q5 A/ |: y/ s- o* y
Bit rate                                 : 57.4 Mb/s
5 j7 n7 h8 p! s: a/ zWidth                                    : 3 840 pixels
6 b6 Y' w( d, q6 _+ i! o; PHeight                                   : 2 160 pixels
& q* ]  b4 r. S. tDisplay aspect ratio                     : 16:9* X9 {% A& N* o% a8 S9 M( K7 j$ Q
Frame rate mode                          : Constant
* N$ u9 H% ~, c. n' |Frame rate                               : 24.000 FPS
, _, u, e& c1 D: Y. C0 M7 K4 O- ^Color space                              : YUV
, y3 N5 B4 `& u$ ]! V$ o% \+ gChroma subsampling                       : 4:2:0" S1 b, i- R( P
Bit depth                                : 10 bits# O- h7 j8 }' j, f- m3 \! d' n
Bits/(Pixel*Frame)                       : 0.288
/ J* M8 C4 W1 D3 DStream size                              : 38.2 GiB (94%)5 c  {. d. `, b+ F" j2 b" a' x
Title                                    : The.Tax.Collector.2020.2160p.BluRayCD.REMUX.SDR.HEVC.DTS-HD.MA.5.1-FGT$ L' y" g; s' B% C+ k4 @9 }* G8 u
Language                                 : English8 _- Z; ~& v1 S+ ^
Default                                  : No
  P& O5 M4 o2 l2 A/ s8 ~Forced                                   : No$ j2 F6 m  b/ h8 D- B) \
Color range                              : Limited0 }$ B# c/ {6 [- Q4 C7 S
Color primaries                          : BT.709
" `7 o9 y2 _( F1 C, A: CTransfer characteristics                 : BT.709, X6 _/ J/ A! u" g  [% x
Matrix coefficients                      : BT.7092 Z4 ~2 @! o) k3 c2 A" L/ }$ s8 `1 t
Original source medium                   : Blu-ray
$ P/ ?1 ?9 s  z" ~( Y$ q' o, U: l  ?! N' B' H9 [; W
Audio
( P$ B% T2 Z: b7 h5 _0 n( ~ID                                       : 2
/ b" R  d: F) w/ j- LID in the original source medium         : 4352 (0x1100)1 w9 n( C, O% V6 K3 T
Format                                   : DTS XLL
9 s/ x. {$ k: e1 G0 w# ^* dFormat/Info                              : Digital Theater Systems
, [' ]4 z( O9 h; R+ PCommercial name                          : DTS-HD Master Audio2 C- q$ H- \" @
Codec ID                                 : A_DTS" B6 P, E# i, P8 p2 p
Duration                                 : 1 h 35 min% R) ~- T2 g- C* A/ k: V' X7 ~
Bit rate mode                            : Variable3 f, q" Q4 e3 y5 A" a
Bit rate                                 : 3 427 kb/s
7 l9 `  [2 S. f( }7 ?Channel(s)                               : 6 channels
' V3 e; N; d( w6 @1 ]# d6 wChannel layout                           : C L R Ls Rs LFE6 B. @3 b* L; e
Sampling rate                            : 48.0 kHz: M. h- {( b6 b( x0 J1 N
Frame rate                               : 93.750 FPS (512 SPF); o. J6 i3 F5 y
Bit depth                                : 24 bits
1 _4 g$ v( k6 j6 y) zCompression mode                         : Lossless
0 ^! G4 p. p6 Y4 i  d2 r& N4 O( ^3 HStream size                              : 2.28 GiB (6%)
5 A$ _# R: p+ }; W3 ?; WTitle                                    : The.Tax.Collector.2020.2160p.BluRaycd.REMUX.SDR.HEVC.DTS-HD.MA.5.1-FGT
) a. _# U& z; ^& o9 A7 PLanguage                                 : English' V: [' [+ B0 Z( ?/ a! X
Default                                  : Yes
, H8 v. S+ T/ k1 ~* j1 F. ^Forced                                   : No- Y6 I' b6 u; s" P+ T. J
Original source medium                   : Blu-ray) _2 x8 n5 T8 G  v& T. Y+ o" S
+ ]$ D1 i$ u/ [) z! V. D
Text #1" o% o; t' Z2 J7 l" @$ u6 k; k' b  t! o
ID                                       : 3! P# I6 O! m0 ~! z1 T' u8 i* Z
Format                                   : UTF-83 Y+ U- H2 x7 A
Codec ID                                 : S_TEXT/UTF8( Q9 o8 g3 H# Q" J' k+ v
Codec ID/Info                            : UTF-8 Plain Text5 F" c3 t9 Z7 @0 ?- G, j$ D0 {
Duration                                 : 1 h 14 min- w( Y3 R9 k$ i" ^# P
Bit rate                                 : 4 b/s
+ r' h% Y3 r0 U* s$ S7 FCount of elements                        : 81- \7 A  m! g/ F7 H' u1 O2 d% ?# F
Stream size                              : 2.21 KiB (0%)3 @2 s) D. |* L0 I0 O- Y' R
Title                                    : English-FORCED-SRT) p+ H* Y; c, a8 U) Q
Language                                 : English  T7 ~6 T$ _  B
Default                                  : Yes  d7 P6 u. |# P0 h2 ^
Forced                                   : Yes9 Q+ [# J8 ]2 `9 ?

8 g2 q: z3 T1 qText #2; Z6 d9 U+ t' e. ^. a
ID                                       : 4
$ w7 v* }& m: Z$ u( W6 N: B" OFormat                                   : UTF-8
& m. Z! Z4 u+ i( Y- E; ^3 x0 ]Codec ID                                 : S_TEXT/UTF8
" U3 Z/ Q3 p1 A: ?% g: QCodec ID/Info                            : UTF-8 Plain Text
0 D9 J$ J5 {) r. [Duration                                 : 1 h 28 min
0 D% A" g! D: \9 hBit rate                                 : 60 b/s
( w& [3 Q! S# h( dCount of elements                        : 1278# O: [8 R* ?2 B8 R* i0 r
Stream size                              : 39.1 KiB (0%)
# A+ {) F( ]6 I& x9 m' pTitle                                    : English-SRT0 G6 n1 a+ Z' _' Q* u
Language                                 : English
# r$ M8 c4 \  C  UDefault                                  : No& s% f/ F/ r9 J9 i: j& `
Forced                                   : No
5 i' |/ N4 o* D/ }$ R
2 N4 Z% \: y4 b; h" G8 SText #3) s( j& a* b5 u. }, E' ^$ I
ID                                       : 5: q8 s# J) }6 f: \1 l* U  v" R* J
ID in the original source medium         : 4608 (0x1200). V4 z& m0 ~  X! H& t# M! U
Format                                   : PGS
9 g7 y- K2 E( \+ K9 T) pMuxing mode                              : zlib* ]% u% A* r" h: B! \
Codec ID                                 : S_HDMV/PGS
1 \7 k6 l5 c+ V& wCodec ID/Info                            : Picture based subtitle format used on BDs/HD-DVDs- G( V- ^$ J$ u  y9 M8 G- x
Duration                                 : 1 h 14 min5 y% x, I; ^, t. S# c7 o- S. I
Bit rate                                 : 1 745 b/s! g6 N0 H2 m# Z5 n; H: U) O
Count of elements                        : 162
1 S( q8 v% B$ V; r* FStream size                              : 951 KiB (0%)2 O9 x% O* t. K+ ]& s; Q
Title                                    : English-FORCED-PGS
  y8 R! p" `( J/ l5 ZLanguage                                 : English
! X4 u7 p/ b- W( w0 Y1 N% TDefault                                  : No
4 S( ~7 h. U; y8 F" WForced                                   : No
0 l% t& {2 i9 VOriginal source medium                   : Blu-ray
9 }% v$ D; z: i1 W" [- Y: i4 G. t& m4 `7 s) x! [1 Q
Text #4
8 {# r0 O0 W9 D5 j" k3 jID                                       : 68 L. Y1 U" {: v2 K9 x" z& F  v0 f" q- h% d
ID in the original source medium         : 4609 (0x1201); _; l$ I+ v: G5 `9 _% s
Format                                   : PGS
% K! w4 q; ]# l! D- r' N# xMuxing mode                              : zlib, i3 g/ R# n/ ~7 i( A
Codec ID                                 : S_HDMV/PGS3 ]/ N8 v( X; Q- L
Codec ID/Info                            : Picture based subtitle format used on BDs/HD-DVDs
% F& A' Z! n# _  b. NDuration                                 : 1 h 28 min
$ i. u- n/ T& T/ }3 i# D1 O1 `Bit rate                                 : 26.7 kb/s) U+ `) @& p5 |0 U
Count of elements                        : 2692
$ \5 d7 }5 d* @- m5 CStream size                              : 16.9 MiB (0%)
* i" s0 [, |+ `+ J; `Title                                    : English-PGS/ B$ u8 o* q" ?% u, I& E, G- I" s
Language                                 : English" O2 g1 V7 ~. }( J* U6 l
Default                                  : No
7 l$ r+ h2 @! IForced                                   : No
& c; d( A; b' [6 o1 z8 S! LOriginal source medium                   : Blu-ray
3 k9 m$ V5 d$ S6 @2 }# c" i' K; i6 F* \, Z
Text #5+ v4 a; C9 a- U. I. O
ID                                       : 7
! h4 c5 u! n- v0 A8 mID in the original source medium         : 4610 (0x1202)
0 \1 l4 I, c% ]4 UFormat                                   : PGS
. d9 a, d4 i% C6 E9 K# J( l: ?& jMuxing mode                              : zlib
9 T9 N9 ]" @! M$ R! I3 t3 W3 ZCodec ID                                 : S_HDMV/PGS
/ x& ~# f3 D3 R$ Y+ {Codec ID/Info                            : Picture based subtitle format used on BDs/HD-DVDs: d5 D4 `, K/ q) f' P1 L+ `# L4 G
Duration                                 : 1 h 28 min7 V! }# }0 n0 Z* Y/ Y  s* g
Bit rate                                 : 20.8 kb/s! _5 ?8 `$ a6 ?% n
Count of elements                        : 2264
) G0 v# \. L4 I1 S: N' e" ^Stream size                              : 13.1 MiB (0%)
, P& a+ f7 D7 p6 y$ [Title                                    : Spanish-PGS) i2 ~" [# D; F1 G; k+ ]' c
Language                                 : Spanish* @- B: R) D! F
Default                                  : No0 F/ w6 U8 c( k
Forced                                   : No' G/ G* t. ?4 o2 Z& z
Original source medium                   : Blu-ray
. c  o( t; @3 |. @# i' G/ e9 c' @9 k6 w) ^
Menu/ H$ p) b1 J, Z
00:00:00.000                             : en:Chapter 01
( w6 F$ c! e) Y00:12:39.625                             : en:Chapter 02
" o+ B/ ?7 {- r' i00:25:28.041                             : en:Chapter 03& B" z7 [1 b5 j: T
00:36:20.541                             : en:Chapter 04- L/ q! k( S  |( t) u; P; ~' P
00:48:56.083                             : en:Chapter 05, H- U8 J0 N# i7 g
01:00:03.041                             : en:Chapter 06" a+ O8 G* v6 q6 a
01:15:27.833                             : en:Chapter 07+ h0 p! f4 N. z( W( d' t
01:30:18.750                             : en:Chapter 08
6 ~: O/ {2 E7 @' ^4 }- s0 H9 t
游客,查看本帖隐藏内容请回复 | 加入VIP贵宾组可免积分免回复下载 了解详情 | 还不是会员:点击获取邀请码 Invitation Code

618

主题

2086

帖子

1万

积分

VIP advanced

金币
1848 枚
体力
4752 点

公主勋章卓越贡献勋章

21cn 发表于 2020-10-10 03:08:18 | 显示全部楼层
Bluraycd又有新电影发布了,激动中……!
: P: p. p; X. c$ }要想蓝光电影论坛发展好,资源多,就靠你我他!To the development of Blu-ray movies forum, resources and more depend on you and me!
5 ]  k* F2 M1 j0 n

67

主题

1707

帖子

6362

积分

Sponsor

金币
506 枚
体力
2349 点
lanpanshuma 发表于 2020-10-10 06:07:52 | 显示全部楼层
看了LZ的帖子,我只想说一句很好很强大!""
! V7 x/ G6 [5 [& {" [" e! Z至少是现在,我一天没有访问蓝光电影论坛就不爽!At least now, my day did not visit the Blu-ray Film Forum on unhappy!6 _- _% i0 K8 T- _; M1 A: K
该会员没有 ...

0

主题

91

帖子

1126

积分

Sponsor

金币
68 枚
体力
873 点
mycjk 发表于 2020-10-10 19:47:01 | 显示全部楼层
谢谢分享。下来看看

本版积分规则

小黑屋|Archiver|蓝光电影资源网

GMT+8, 2020-12-2 04:58

快速回复 返回顶部 返回列表