BluRayCD Forum

 找回密码
 立即注册【分享大片】

QQ登录

只需一步,快速开始

查看: 20|回复: 1
收起左侧

[蓝光原盘] 收税人/收账人 [REMUX无损版] The Tax Collector 2020 1080p BluRaycd REMUX AVC DTS-HD MA 5.1-FGT 16.18GB

[复制链接]

7777

主题

7971

帖子

6万

积分

Forum Moderator

金币
10555 枚
体力
9607 点

卓越贡献勋章

24小时 发表于 2020-10-15 01:29:46 | 显示全部楼层 |阅读模式
01.jpg
  g6 v8 H3 T1 L4 c9 r5 W6 k# f( P( _  O& ~6 B8 q: O
◎译  名 收税人/收账人8 Q$ n! x" K* \: B4 f0 _
◎片  名 The Tax Collector / Tax Collector9 e& m) |. z) Y# ^5 ?- ?" L& Y
◎年  代 20204 C& v, y8 k. t5 g* C% b
◎产  地 美国
7 c# T& @$ B2 E' ?  Z& I9 v◎类  别 剧情/惊悚/犯罪
/ C9 M- R, B4 r; @$ B' Z) L7 y5 D◎语  言 英语9 W/ i0 d* I/ t: u& t
◎上映日期 2020-08-07(美国)
0 c+ X+ m% b4 p' e4 Q◎IMDb评分  4.7/10 from 6,199 users
9 p1 d+ G. b3 s# Q◎IMDb链接  https://www.imdb.com/title/tt8461224/2 K6 l1 J7 v+ t% |* z3 v6 e
◎豆瓣评分 4.6/10 from 301 users  d( b  m9 Y; V/ ^/ n
◎豆瓣链接 https://movie.douban.com/subject/30254296/  O1 p' X3 n4 P0 v$ q% y
◎文件格式 x264 + DTS
/ L8 n* {6 `) {3 j6 R◎视频尺寸 1920 x 1080
$ a0 Q/ r4 X+ G& p6 h◎文件大小 1DVD 16.18 GiB
- ^" K; p4 f& ?5 n4 P0 W◎片  长 1 h 35 min! h2 U5 q9 x/ {% J8 U1 g
◎导  演 大卫·阿耶 David Ayer/ f1 n) X9 i6 m- f7 ]  Q
◎编  剧 大卫·阿耶 David Ayer& F  {* h. J+ W3 R3 U
◎主  演 希亚·拉博夫 Shia LaBeouf
9 m: X9 U3 M8 M# _7 D       拉娜·帕瑞娅 Lana Parrilla* w* d0 k. _( \- e' M
       辛西娅·卡蒙娜 Cinthya Carmona  h3 b/ `- C0 \  {3 C; ^) `, j
       艾尔皮迪娅·卡里洛 Elpidia Carrillo
' R/ j" P6 O) _- w       乔治·洛佩兹 George Lopez( z& i, ?  D* {7 k9 b* x4 k. R
       切尔茜·兰顿 Chelsea Rendon
& T; C" q9 s4 X6 t1 \9 l- n       诺埃米·冈萨雷斯 Noemi Gonzalez
6 b  g7 q$ y; m3 b, B# E       布兰登·舒博 Brendan Schaub
; C! ?9 y& Q) X: L: w3 J       雷内‧莫兰 Rene Moran8 Y2 u* t4 n2 C: K; [
       胡安·卡洛斯·坎图 Juan Carlos Cantu, p9 l; z8 [9 h9 m9 T; E; V3 S
       鲍比·索托 Bobby Soto
: s7 N, [; C8 X3 w- v( B       兰迪·冈萨雷斯 Randy Gonzalez
. I: @0 \  t- O& M       Michelle Jubilee Gonzalez
* b: J2 m) X0 ^/ c; M) q; W) q( M3 D       Jay Reeves  s5 r! e, o6 U3 p) r/ x7 p' C( [& D
       Gabriela Flores
1 L- Q( f0 t4 d+ C# ?$ Y" u       Nayeli Esparza6 ~  S# ]/ A6 g' J; V4 R5 [3 x
       Lee Coc% p% d: ~% o; Q3 A6 V
       Valentina Latyna Plascencia
( v8 d" C: Y- n6 w0 c       奎因·厄利 Quinn Early
. H$ y$ G! h& @: V( ?3 Y
% W, F2 r; b5 W" E. _$ D◎简  介  4 D6 Z5 d( a/ Q2 {2 t
; I" x, C3 Y& m/ ~2 M
  A "tax collector" for a crime lord finds his family's safety compromised when his boss's old rival shows up in LA and upends his business.
) P. K& [' o, l3 B6 \
- ^+ p6 J7 s% _) `  }  Shia LaBeouf将与David Ayer再度合作《收税人》。3 O) J6 i( E5 H% j& E! M

# v7 N. K8 U! l/ y1 s  电影讲述男主角大卫·奎瓦斯(David Cuevas),他是一个看重家庭的男人,但工作却是为洛城黑帮高层收税的收账人。他与搭档Creeper穿梭于城市之间收账,用各种方法逼人们掏钱,而欠账的则会受到残忍的报复。然而,一位旧日敌人的归来让奎瓦斯所爱的一切都陷入危险之中。
; W0 t% E/ N7 s4 _  Z% l9 C
# S7 g4 `0 ?) ~4 ?1 S  A "tax collector" working for a local crime lord finds his family's safety compromised when the rival of his boss shows up in L.A. and upends the business.
! a8 f! I* k, W; ^. X% J! K
Video
7 e" R' X9 V( R5 q: g4 CID                                       : 1
* `; h& y# |' ?$ |) c( P1 sID in the original source medium         : 4113 (0x1011)
% a8 V! y# e5 W$ xFormat                                   : AVC2 w4 D1 o, T+ Z, F/ i" Y0 k# A
Format/Info                              : Advanced Video Codec
, F/ z  v5 u0 j! r( rFormat profile                           : High@L4.1
3 q. I5 j$ S/ k9 T2 y! m$ o# t& lFormat settings                          : CABAC / 4 Ref Frames
5 P  S/ ~/ C& L0 O& B7 B( d% AFormat settings, CABAC                   : Yes4 N/ k& x4 D9 j; u: O) u# p
Format settings, Reference frames        : 4 frames0 \. J* [/ v- f
Codec ID                                 : V_MPEG4/ISO/AVC4 D6 {, o! f* i1 x" z
Duration                                 : 1 h 35 min
, t; R: L- `& S0 p$ p5 |Bit rate mode                            : Variable
8 A) m6 i1 ?3 vBit rate                                 : 20.9 Mb/s
0 Z' ~) l9 ~* J; c; f+ J3 _+ FMaximum bit rate                         : 36.0 Mb/s" o8 @. e  s2 P: {+ Z9 Y
Width                                    : 1 920 pixels
$ F) k. x; f0 GHeight                                   : 1 080 pixels/ f; e" P) E1 T7 H% `3 O
Display aspect ratio                     : 16:9
' s3 e5 C: O9 c8 r4 t2 ]Frame rate mode                          : Constant
! [; y1 F/ f5 H) R! y8 p* J* d  PFrame rate                               : 24.000 FPS3 ]1 W1 G" c7 W8 [
Color space                              : YUV+ l% x) m0 `/ M! }0 L
Chroma subsampling                       : 4:2:08 ~5 k: X  Z2 @  u! _& H8 S9 S) t
Bit depth                                : 8 bits( P6 X% n% a, z7 z6 {7 T% x
Scan type                                : Progressive; ?/ o! J4 F+ e4 T% Z
Bits/(Pixel*Frame)                       : 0.420$ b2 v0 j% }3 Z* W( r0 G) |
Stream size                              : 13.9 GiB (86%)
: V! ~' m6 C8 E1 a: @8 T. cTitle                                    : The.Tax.Collector.2020.1080p.BluRayCD.REMUX.AVC.DTS-HD.MA5.1-FGT
2 o* i0 Y% b1 B& s# }, x' B2 DLanguage                                 : English6 m- }' S' O0 r
Default                                  : No
5 I) z5 o! }* u. Y- r% S4 N8 xForced                                   : No
7 p6 J2 Q- P+ B: V* POriginal source medium                   : Blu-ray
9 i' n1 \: f& H# u+ i% v! j! b7 b$ M; H" x9 y1 e
Audio
) s0 X& G, m. _2 V& KID                                       : 2
8 n! }4 q1 F8 M8 g1 AID in the original source medium         : 4352 (0x1100)
' a1 j- A0 F& e4 n. p* c- `Format                                   : DTS XLL
7 K- R# E  b0 V2 M' qFormat/Info                              : Digital Theater Systems: |! c) t7 q% c
Commercial name                          : DTS-HD Master Audio; y9 A: ?* M0 Z* ]
Codec ID                                 : A_DTS! D- [# ]3 R2 G$ ?! h. O7 t
Duration                                 : 1 h 35 min8 }" s$ [. b7 d7 b: s
Bit rate mode                            : Variable' }+ l5 f4 \5 m9 p; g5 j, ~
Bit rate                                 : 3 426 kb/s
- e$ x" ^. S; ~3 o& KChannel(s)                               : 6 channels2 G/ I' x. `# q2 L* R! ]
Channel layout                           : C L R Ls Rs LFE
) W$ b  L' }  _4 e4 j# TSampling rate                            : 48.0 kHz
1 V& g& H2 ]+ Z  E& m  zFrame rate                               : 93.750 FPS (512 SPF)* v+ b! r2 X7 L; H
Bit depth                                : 24 bits
, W  `# n+ [+ c3 f/ k+ A% GCompression mode                         : Lossless( r! Q" Z+ N  r" x
Stream size                              : 2.28 GiB (14%)
) C7 {* G' R1 V9 }Title                                    : The.Tax.Collector.2020.1080p.BluRaycd.REMUX.AVC.DTS-HD.MA5.1-FGT
# o! Q1 ^. F  ~( l" nLanguage                                 : English6 H2 _& q- _7 c4 o8 X# y
Default                                  : Yes$ l: r) `& Y9 [8 t8 e, c
Forced                                   : No
/ b4 h- T# ^3 W6 s0 b' [5 GOriginal source medium                   : Blu-ray
$ L/ u: p- ]( m3 V% v% n6 b. z# @
: e% S$ U+ ^- W( C4 N. t, L2 h" bText #1
/ {( N6 `6 w, Z' V6 kID                                       : 30 X# y/ }. w0 }( A* O! B) U
Format                                   : UTF-8+ }, p* R+ n" A0 |
Codec ID                                 : S_TEXT/UTF8; j, b: T9 f; Z: {. z4 A3 A
Codec ID/Info                            : UTF-8 Plain Text
+ h  c; q; W! N" S/ e% {Duration                                 : 1 h 14 min- K/ S+ Z, x* ]" B
Bit rate                                 : 4 b/s
5 _5 ^9 O* Z% G9 x' K! c# \% yCount of elements                        : 81. p0 o0 e$ l" Z
Stream size                              : 2.21 KiB (0%)
- O+ x( e) E9 U3 R6 XTitle                                    : English-FORCED-SRT
  d4 f5 z' Z2 N" {+ B8 fLanguage                                 : English
4 B  a: M, R3 ZDefault                                  : Yes
9 _; C- c& S; Z8 @7 vForced                                   : Yes: [  f3 w1 x) t1 L
- d) N8 G- |; h
Text #2
; E. f' W3 e. G. A% eID                                       : 4- B0 |9 k( G0 M$ n. D
Format                                   : UTF-8: L. C- j( N9 z* s, h
Codec ID                                 : S_TEXT/UTF8
; }5 S( v7 |$ bCodec ID/Info                            : UTF-8 Plain Text
" \9 L& }0 [; S# a) eDuration                                 : 1 h 28 min% j! a- o* t: V6 M8 T! x
Bit rate                                 : 60 b/s: ^4 c7 k* K/ Y
Count of elements                        : 1278
# m0 F1 s, _/ [2 u/ tStream size                              : 39.1 KiB (0%)  v9 X+ Q! S" I" O! ]. K
Title                                    : English-SRT* ~( A2 h4 A& R# E4 a" G
Language                                 : English
- y! ]1 a! f* oDefault                                  : No
) r0 ^- W; X5 }; {Forced                                   : No1 @2 A0 v, Q3 \# F; `3 g& P' t

7 L) a  G+ O3 r, N) bText #3
  K6 Z+ }2 C( p4 ZID                                       : 5
! H/ f8 U2 C3 H* h  Y! K% uID in the original source medium         : 4608 (0x1200)
. m0 f( G, s' k5 AFormat                                   : PGS
) H" h  h7 v( ?" lMuxing mode                              : zlib, Q% X5 M% b5 q6 F! ~( L# y. n
Codec ID                                 : S_HDMV/PGS
% L7 }6 v4 ?4 w: x5 [Codec ID/Info                            : Picture based subtitle format used on BDs/HD-DVDs9 M+ p  ~# N5 n8 D6 t
Duration                                 : 1 h 14 min6 k9 H2 l) s9 T$ E' x1 z" A
Bit rate                                 : 1 744 b/s
9 P5 T' F5 ~% z7 m  XCount of elements                        : 162
: B6 @- S1 n4 k; H- s4 }  }2 nStream size                              : 950 KiB (0%)0 f0 l1 W) \+ H: A: r, g3 Z: [
Title                                    : English-FORCED-PGS
3 R1 z* P: a( c3 e1 QLanguage                                 : English
' N5 m# z# ^- FDefault                                  : No
; ?% m" S3 ^% LForced                                   : No
5 J, ^% ]# L( S3 aOriginal source medium                   : Blu-ray
* F1 I& J: t0 w+ B1 y& o& Y5 _, \) U* L* c; H* p. e
Text #4
- h' i3 a. f+ J1 }( K$ fID                                       : 66 @+ M. c, \5 n0 F& ~
ID in the original source medium         : 4609 (0x1201); r$ p% \3 O, C, M
Format                                   : PGS4 n/ z9 n7 {$ h! ?" l! y3 V' w+ [
Muxing mode                              : zlib
9 F7 T# a7 L  y0 A) n' V9 f; E. DCodec ID                                 : S_HDMV/PGS
; L/ C# Z, i. q( ?8 W9 `2 ICodec ID/Info                            : Picture based subtitle format used on BDs/HD-DVDs
/ r( _/ g! P1 M* l, w6 GDuration                                 : 1 h 28 min  @$ B' [  j$ H
Bit rate                                 : 26.5 kb/s3 R9 B  f+ ^$ {+ z' \& q) c$ b
Count of elements                        : 2670* s7 H9 `7 `* I9 y: |. ^3 {
Stream size                              : 16.8 MiB (0%)
& _1 ]8 g" f. u( UTitle                                    : English-PGS
3 {* _- q0 @; }. l7 P; d5 u; `Language                                 : English
3 |  [8 E9 S/ V5 Q: v4 RDefault                                  : No1 S  D) c1 r" U. l; Z
Forced                                   : No( a% Y9 _4 K! {1 t' S
Original source medium                   : Blu-ray% X9 K$ f) N! _* P, A8 U$ C6 z
- @8 F" A- f7 M+ {3 t2 Y$ G
Text #5+ T6 p: ^7 u, H1 C9 S
ID                                       : 7$ x( ?' _4 `2 Y6 P7 l
ID in the original source medium         : 4610 (0x1202)6 w# i8 [8 B0 \. C# s/ J0 E8 I
Format                                   : PGS2 s; x3 c- D) h) v3 @  \
Muxing mode                              : zlib
# _! ~; d5 G6 [1 j! s- YCodec ID                                 : S_HDMV/PGS
  o6 S% y  e) PCodec ID/Info                            : Picture based subtitle format used on BDs/HD-DVDs
5 }- A/ S% \4 h9 H8 O8 V" i! u2 zDuration                                 : 1 h 28 min
: T, E1 R7 ^. y2 }  bBit rate                                 : 20.6 kb/s
# G6 v2 g2 I) W" `Count of elements                        : 2240
. o2 d3 `7 s$ G9 Q  GStream size                              : 13.0 MiB (0%)
$ ]) u/ l2 R0 v* X' VTitle                                    : Spanish-PGS
1 i( r1 j  [0 N$ C+ B8 ]8 y' @) pLanguage                                 : Spanish0 c# i) U+ e9 [/ o2 T4 A' F
Default                                  : No" w: [6 |+ Y; e5 s
Forced                                   : No& j6 p/ A2 J% W1 y' D) W+ l
Original source medium                   : Blu-ray
1 H8 s2 u6 C  i7 v9 I( }
/ n( R  W6 B7 q. RMenu  R4 _( F* Y6 J/ F+ o8 j
00:00:00.000                             : en:Chapter 01
: }7 P/ l1 l. V. o3 B- {00:12:39.625                             : en:Chapter 02
. s+ n. u  H1 T+ L00:25:28.041                             : en:Chapter 03
/ t: q; [3 V, _3 g; @00:36:20.541                             : en:Chapter 040 v# ~) `& y  l, w% c
00:48:56.083                             : en:Chapter 05
1 u6 R8 B/ Z( m+ W0 O' ?+ w( r1 Y3 t01:00:03.041                             : en:Chapter 06# L  i6 y# K$ E$ X! `
01:15:27.833                             : en:Chapter 073 z9 y+ E- _, N. D+ O
01:30:18.791                             : en:Chapter 08
4 s  R' [, X; T/ {5 ?+ {6 M
游客,查看本帖隐藏内容请回复 | 加入VIP贵宾组可免积分免回复下载 了解详情 | 还不是会员:点击获取邀请码 Invitation Code

600

主题

1989

帖子

1万

积分

VIP advanced

金币
1737 枚
体力
4529 点

公主勋章卓越贡献勋章

21cn 发表于 前天 00:23 | 显示全部楼层
啥也不说了,楼主就是给力!
& N9 ?6 ]# E% Y) yAfter reading the posts have nothing to do I Amoy posts!
) F' j9 ?+ @: G! ?: O3 Z

本版积分规则

小黑屋|Archiver|蓝光电影资源网

GMT+8, 2020-10-23 04:19

快速回复 返回顶部 返回列表