BluRayCD Forum

 找回密码
 立即注册【分享大片】

QQ登录

只需一步,快速开始

查看: 27|回复: 3
收起左侧

[蓝光原盘] 十三号星期五5:新的开始 [REMUX无损版] Friday The 13th A New Beginning 1985 SHOUT 1080p BluRaycd REMUX AVC DTS-HD MA 5.1-FGT 25.33GB

[复制链接]

4774

主题

4947

帖子

6万

积分

Post Share

金币
9410 枚
体力
17321 点

卓越贡献勋章

黄金嫖客 发表于 2020-10-22 20:19:24 | 显示全部楼层 |阅读模式
Still haunted by his past, Tommy Jarvis - who, as a child, killed Jason Voorhees - wonders if the serial killer is connected to a series of brutal murders occurring in and around the secluded halfway house where he now lives.
- H$ m2 J7 }/ L, ?& |! N- h7 i. J
! r9 v# n) M. q. m 01.jpg # [; L1 ?+ M) O0 p

! [, z7 u/ r: Y2 v1 {6 V. E! ]◎译  名 十三号星期五5/十三号星期五:新的开始: v3 \) U; p- {; X
◎片  名 Friday the 13th: Part V - A New Beginning / Friday the 13th Part 5
+ M& s& N9 y  `" A4 D& Z◎年  代 1985  ]; B% [; R8 q$ T' r/ u( k
◎产  地 美国
2 y2 L: s) U9 y7 M5 @% y◎类  别 剧情/悬疑/惊悚/恐怖
; ]* {8 N1 _" z◎语  言 英语
: ], w2 i2 C( s◎上映日期 1985-03-220 w2 @+ K! K3 T( o& N/ u
◎IMDb评分  4.8/10 from 33,150 users$ _8 P* K1 P- q3 q* s# Y8 d2 L
◎IMDb链接  https://www.imdb.com/title/tt0089173/6 I( S. U' s) f
◎豆瓣评分 5.8/10 from 949 users
6 {5 ]) P$ J; g5 j( y# A◎豆瓣链接 https://movie.douban.com/subject/1295694/
( b$ ?4 p( H9 u2 S+ T◎文件格式 x264 + DTS2 @1 Z7 v! b: B% M
◎视频尺寸 1920 x 1080
4 j& O( @% s& G- J9 D* n* C( M/ B◎文件大小 1DVD 25.33 GiB! |. h6 c6 }3 f6 T" Z
◎片  长 1 h 32 min
* x" W* B$ t) \◎导  演 丹尼·斯坦曼 Danny Steinmann
+ i  i. U, y, }$ h% l8 j- M3 [' U0 U◎编  剧 丹尼·斯坦曼 Danny Steinmann
9 q) R/ [6 j0 q" ^       David Cohen
" t5 @9 c" j. I" L; w0 V+ Y8 o- c       John Shepherd
3 f* U! C  I4 z9 w6 k/ K; P◎主  演 John Shepherd) p4 q' {8 `$ s* f
       Richard Young
+ f8 H: Z. v% Y, b# C       科里·帕克 Corey Parker
# K. u) N3 p# x  @       科里·费尔德曼 Corey Feldman% v( `- P$ Y1 t$ |) k
       卡罗尔·罗卡泰利 Carol Locatell* F. j4 a$ T# F! C. s# k  B

. ?# l7 \! W3 ?, ^; n1 K◎标  签 恐怖 | 惊悚 | 美国 | 血腥 | 黑色星期五 | 1985 | 美国电影 | 恐怖电影( N4 W' d1 b; t; `
! W$ `# P- U" ~* n5 N- s+ e
◎简  介  
: S- S% N# r- E6 |3 e( _% o5 \: z- |; b: F9 m
  上一集中大难不死的Tommy,由于严重的刺激,患上了精神疾病,因为被送到疗养村进行康复治疗。刚入住不久的Tommy就目睹了病人的惨死,而Jason也仿佛又回到了人间,开始了一场血腥的杀戮……. j! L9 I5 q$ I
' V3 E: b8 Q* m$ ], T7 h5 |1 i
  Young Tommy Jarvis may have escaped from Crystal Lake, but he's still haunted by the gruesome events that happened there. When gory murders start happening at the secluded halfway house for troubled teens where he now lives, it seems like his nightmarish nemesis, Jason Voorhees, is back for more sadistic slaughters.
% P5 x- b5 h, E. I2 a2 U" R+ a
. S, o- R$ R# V6 L
Video' s4 `) T. G, G1 X. d
ID                                       : 1: K; w2 ~4 M" {% `2 k
ID in the original source medium         : 4113 (0x1011)* p5 p0 q5 p7 J! B3 b- M' A0 t
Format                                   : AVC
5 H  k+ O5 D2 p5 }- |Format/Info                              : Advanced Video Codec
& p6 }% E; @3 I. u% G8 kFormat profile                           : High@L4.1
+ v4 O3 }& ~% KFormat settings                          : CABAC / 4 Ref Frames6 r) c! L/ C" s/ \
Format settings, CABAC                   : Yes
" @8 X5 |: P3 w" C& L9 eFormat settings, Reference frames        : 4 frames( f; `2 Z) a6 d2 [; C4 ]0 o. s
Codec ID                                 : V_MPEG4/ISO/AVC- m& K  K& G4 s; J. n
Duration                                 : 1 h 32 min( b- H3 b) ~; @5 K7 L: [
Bit rate mode                            : Constant
2 w5 L- _: f$ A) ]6 N  }( W& W' JBit rate                                 : 36.0 Mb/s3 A: V$ y* f) j  E$ _( D6 E
Width                                    : 1 920 pixels
8 W  [4 Q7 y. A. k& m9 xHeight                                   : 1 080 pixels
9 u7 _$ E0 P9 @5 O$ x: p* N5 b6 BDisplay aspect ratio                     : 16:92 ^3 \' u$ U9 |5 ]2 d
Frame rate mode                          : Constant, G& H4 l. K8 U( u+ Y
Frame rate                               : 23.976 (24000/1001/37687) FPS; d# D" J4 _' y( q2 i  u! q
Color space                              : YUV/ p- }: l0 {) q. t6 o
Chroma subsampling                       : 4:2:0
4 l4 }0 w5 a7 M( |Bit depth                                : 8 bits" Y' o: i5 @# w- Z
Scan type                                : Progressive7 {' K. r6 a! f* n  @
Bits/(Pixel*Frame)                       : 0.724
- K: c) W' m9 N$ z7 c. r+ }, bStream size                              : 22.1 GiB (87%)
* \9 e8 f: h) @Title                                    : Friday.The.13th.A.New.Beginning.1985.SHOUT.1080p.BluRayCD.REMUX.AVC.DTS-HD.MA.5.1-FGT2 g. i0 X) h: G3 o
Language                                 : English
+ C9 o; P" e% V4 s" dDefault                                  : No0 g( M( d5 L$ a: r6 t* E
Forced                                   : No/ v3 B* h/ d9 i6 o) T" v
Original source medium                   : Blu-ray4 n+ h% F( ]* v% h

" A/ }! \0 q. e& G1 g  T; EAudio #1
% {4 Z& S; R8 }% U5 D* @$ @/ eID                                       : 2; h7 u& @6 ~" B6 D. O
ID in the original source medium         : 4353 (0x1101)9 P2 v6 M7 {4 g8 k: q
Format                                   : DTS XLL8 i& d" S4 X! z) H4 x
Format/Info                              : Digital Theater Systems
: J& `- n- w2 |5 W0 TCommercial name                          : DTS-HD Master Audio
' n4 z; W+ C, }  e6 J; o3 I4 Y: s* |) SCodec ID                                 : A_DTS* m8 ]2 f- o4 [8 g
Duration                                 : 1 h 32 min: D  X9 k. K2 o) f, O9 r
Bit rate mode                            : Variable  Q5 M3 e5 k1 v; k) k! n6 Z6 j9 u
Bit rate                                 : 2 835 kb/s; r; [% D& w+ J+ W9 D
Channel(s)                               : 6 channels6 r0 _+ S- p% S: |3 x6 O: K5 R
Channel layout                           : C L R Ls Rs LFE
+ |$ ]  v+ R% oSampling rate                            : 48.0 kHz
& s- ]' I/ @. S- _Frame rate                               : 93.750 FPS (512 SPF)
% T# k. L' x# i0 E$ UBit depth                                : 24 bits7 Z, k. C6 b  @7 v1 |
Compression mode                         : Lossless
: ~: u% O8 C! T+ g# M1 R& K# R) VStream size                              : 1.83 GiB (7%)! h1 E6 P( O! O- S4 W
Title                                    : Friday.The.13th.A.New.Beginning.1985.SHOUT.1080p.BluRaycd.REMUX.AVC.DTS-HD.MA.5.1-FGT# ]5 I) Q! ~" A4 B2 V0 w& C
Language                                 : English
7 x$ i6 B5 C( b+ rDefault                                  : Yes) N1 K# H, E* K* H1 J% B! r6 x4 P
Forced                                   : No
5 J( a; i6 ~: iOriginal source medium                   : Blu-ray
/ z3 ^( R- }) M* o, `+ c: q; ?0 d: J8 K/ [3 R2 X2 r
Audio #2, W( P6 \) h6 B1 l' k4 v
ID                                       : 3# L* R% p' c2 e% h3 U
ID in the original source medium         : 4352 (0x1100)
& v& F# h  k2 Y+ y+ E- `  [# h1 hFormat                                   : DTS XLL( h  V; p  z. K; o) x0 x0 o
Format/Info                              : Digital Theater Systems
8 ~" @7 x1 ^. q: V  Z+ WCommercial name                          : DTS-HD Master Audio
) }  ]4 X& g9 R' x2 }  E! R. iCodec ID                                 : A_DTS, q! h* u; ^1 [" @* H
Duration                                 : 1 h 32 min
1 z0 B! `9 r. D7 A9 F' WBit rate mode                            : Variable
3 K! J5 F* P5 j" R: _& K, _Bit rate                                 : 1 572 kb/s
) A7 J& W/ z3 D2 e' F, fChannel(s)                               : 2 channels
$ F7 Q; z& A9 M8 @) Z, HChannel layout                           : L R
- g, t# _9 B' tSampling rate                            : 48.0 kHz
% m8 T# [3 {. w4 _" sFrame rate                               : 93.750 FPS (512 SPF)- U( |0 Q; |: l$ h! E
Bit depth                                : 24 bits
1 l9 V. z- j* m, dCompression mode                         : Lossless3 s3 k9 T- {$ y9 J2 j. [0 g5 _
Stream size                              : 1.01 GiB (4%)
) `% h6 `9 S% ~6 L9 C" l7 NTitle                                    : Friday.The.13th.A.New.Beginning.1985.SHOUT.1080p.BluRaycd.REMUX.AVC.DTS-HD.MA.5.1-FGT
- N( x) Z' B1 @, \& B. VLanguage                                 : English
5 [  R( _# b+ M. n- Y5 YDefault                                  : No
1 ~! W; H2 j. PForced                                   : No
8 P7 V' Q5 A9 n, |9 dOriginal source medium                   : Blu-ray1 G( C$ @" ~- O6 |8 d5 J: r

3 ]: y" T5 o9 IAudio #3
, Q7 u: |# u) p* D3 f& e4 W  fID                                       : 40 V8 R' {/ j5 M7 g, d6 a( v
ID in the original source medium         : 4354 (0x1102)
  {6 a# P6 f3 pFormat                                   : AC-3
9 N% v$ G9 W) h' v# S$ {Format/Info                              : Audio Coding 3' N$ ~' R! u- N# f  A$ [
Commercial name                          : Dolby Digital
. V6 ?$ k6 r- ?3 A$ wCodec ID                                 : A_AC3
% F& L7 v% i: N4 R: L# N" WDuration                                 : 1 h 32 min+ g+ P/ X8 ?7 m! w" ]
Bit rate mode                            : Constant
* K- Q# d  R4 XBit rate                                 : 192 kb/s
3 U5 z8 P$ t2 m' SChannel(s)                               : 2 channels- e3 ?$ \# \+ l) g7 W
Channel layout                           : L R, v, e1 x2 |4 z* U& E2 f  l( A: K
Sampling rate                            : 48.0 kHz# ~; c! Z8 ^7 p$ t! A# X
Frame rate                               : 31.250 FPS (1536 SPF)/ t/ S' e1 f4 ~8 l4 y4 w; l
Compression mode                         : Lossy) v8 j  ~+ K2 m# R) E6 h3 l1 R- @7 F
Stream size                              : 127 MiB (0%)
% v$ O( G4 p$ M2 Y& w1 LTitle                                    : Friday.The.13th.A.New.Beginning.1985.SHOUT.1080p.BluRaycd.REMUX.AVC.DTS-HD.MA.5.1-FGT
2 I8 j% I1 f3 m. wLanguage                                 : English8 ]: H3 J3 R. Y$ ~2 i
Service kind                             : Complete Main
' p8 M+ n# E9 ]4 X$ oDefault                                  : No
! m2 G( ^) d9 b0 q: P; UForced                                   : No
; R' x! l( [" {$ rOriginal source medium                   : Blu-ray- r2 l/ k, Z# `0 |
; n6 a, P! g% Y7 _
Audio #46 b. I1 _% D1 C7 z' l) X. }) A
ID                                       : 5
" k1 G  G% J6 S4 d5 AID in the original source medium         : 4355 (0x1103)
3 F; P) N; x7 kFormat                                   : AC-35 ^" r$ F, I' k5 t: a2 B$ U& Y
Format/Info                              : Audio Coding 3
: w! G  }9 T9 v8 B& b# NCommercial name                          : Dolby Digital# l/ m$ U" e1 U- \8 D, Z4 P) S
Codec ID                                 : A_AC3  X3 O) J, ?2 ~
Duration                                 : 1 h 32 min
1 M# S: d, |1 o7 @, j7 g4 ?. B1 Z- lBit rate mode                            : Constant! P+ c. s- `! b4 h1 n- a& v1 H/ {
Bit rate                                 : 192 kb/s- t' W9 x0 l2 L4 T* u5 ~
Channel(s)                               : 2 channels' f) ]! @3 o( Z
Channel layout                           : L R
3 J' X* h) v9 U6 {- a! rSampling rate                            : 48.0 kHz" w/ h2 |7 r' m. ?" n0 {
Frame rate                               : 31.250 FPS (1536 SPF)
% L8 L* F6 J2 J/ A0 S4 T2 HCompression mode                         : Lossy7 I& E! d; w& n% W$ E2 m0 @+ O
Stream size                              : 127 MiB (0%)
  `( N' b6 y( Y+ o, WTitle                                    : Friday.The.13th.A.New.Beginning.1985.SHOUT.1080p.BluRaycd.REMUX.AVC.DTS-HD.MA.5.1-FGT1 Y4 `& z+ y) l- s/ c4 ]% \
Language                                 : English
; ?# A1 h4 N! u4 E$ [Service kind                             : Complete Main
& I' h" @( K, _, o# `/ ], vDefault                                  : No& z  V6 ~! {2 N- L7 M
Forced                                   : No
- d1 P+ j, Y% G1 y. h8 \. G8 d) {Original source medium                   : Blu-ray9 A- l# u* A! `# b) C: \% }
, n# L$ B: x8 L* C
Audio #5$ d3 Q% U6 X, q& k* J' |  W  @
ID                                       : 61 X3 Z7 O( u% ]. G9 B7 C  h
ID in the original source medium         : 4356 (0x1104)( R( }% x; A' M# d$ r
Format                                   : AC-3
0 `) f$ e# Y4 Q$ l: yFormat/Info                              : Audio Coding 3
  R2 X- R3 a7 F& h( x" tCommercial name                          : Dolby Digital
1 D( B! A2 C9 v* G, ]* c4 d8 \Codec ID                                 : A_AC3* j8 S( z2 C* R8 u% k5 i( t
Duration                                 : 1 h 32 min. \; f4 X0 P4 W% h2 q
Bit rate mode                            : Constant
( h; Y3 I7 z7 O, pBit rate                                 : 192 kb/s
& |( P0 X, K8 X7 ]8 `) tChannel(s)                               : 2 channels4 d" ?! Y8 c# [; k
Channel layout                           : L R& ]( T6 Q) g; m$ v0 e( Z
Sampling rate                            : 48.0 kHz
( T9 q, _0 l- PFrame rate                               : 31.250 FPS (1536 SPF)
& d" \! d' C5 W" d3 ]8 s4 Z8 wCompression mode                         : Lossy
" ~' q0 Z: n' x( z& TStream size                              : 127 MiB (0%)
2 Q* R" m' k- uTitle                                    : Friday.The.13th.A.New.Beginning.1985.SHOUT.1080p.BluRaycd.REMUX.AVC.DTS-HD.MA.5.1-FGT! f' N% O+ S$ r- q
Language                                 : English
' _- q$ c& R3 }1 P: aService kind                             : Complete Main
$ _7 \" L6 u. J1 q# d6 E1 \& mDefault                                  : No% S! _7 A8 G* K6 M
Forced                                   : No
- I0 r; w( t# LOriginal source medium                   : Blu-ray
0 A3 i  w2 A1 }. M' M
& ^/ `% f  W& d1 q+ f5 r' [Text #1
0 a. L! E9 s6 c$ H8 x$ qID                                       : 7
/ ]0 r; Y; h7 ?6 ~; Y; [8 S  WFormat                                   : UTF-89 a, ]$ G" z6 |- w2 d1 `+ Z: M1 F
Codec ID                                 : S_TEXT/UTF8; k- ^% g! G# C; r1 D3 n2 V1 |) J. g
Codec ID/Info                            : UTF-8 Plain Text
1 K" d1 c6 F, i2 y' }0 _Duration                                 : 1 h 27 min
1 v0 G/ K! o! t: ]4 O2 R- FBit rate                                 : 30 b/s: p  m  c* _; v
Count of elements                        : 892
0 {' G% N) Y) n, x- u! MStream size                              : 19.5 KiB (0%)
8 g- j8 T; W6 w* O- }6 x$ [; p; BTitle                                    : English-SRT
- v" K) i1 w. W5 i# B) D. ~" X& SLanguage                                 : English+ {) i! b% t2 c0 J  {  {5 e% Y
Default                                  : Yes
" l+ y$ P0 @; z/ n  _% h  I  @Forced                                   : No
( U/ h' O7 z8 W: e' _( d
7 T2 p8 O5 T3 }2 l' cText #2
( Z  Y2 r+ {, `: _: c6 I2 UID                                       : 8* n: X( u! ^( S- C6 b8 \7 I! n
ID in the original source medium         : 4608 (0x1200)& ?" P" X& P( ]" l; S; t
Format                                   : PGS
# ^* H$ k. {) U4 J+ {2 _Muxing mode                              : zlib3 S" @! a5 b! ?$ A" Q% a4 Y
Codec ID                                 : S_HDMV/PGS* E3 P( R+ w4 q! \
Codec ID/Info                            : Picture based subtitle format used on BDs/HD-DVDs
& w: G% E" z, e6 L% @2 i, IDuration                                 : 1 h 28 min
( N  |- r$ f$ _. t  R5 qBit rate                                 : 24.0 kb/s0 k  A' [) ]# R( d
Count of elements                        : 1804
" N7 c  R$ K4 }( l  `# ]6 u) vStream size                              : 15.3 MiB (0%)
) A1 [& k2 \5 U% T% @2 L+ wTitle                                    : English-PGS) R) s# z, }( A# j- M
Language                                 : English
9 \2 O( m! d0 ~Default                                  : No
" C! I: x9 ^3 u1 y9 }Forced                                   : No
( w$ k: j( \; P5 b8 F9 {# e6 r4 h( sOriginal source medium                   : Blu-ray
" m. g: O* j% y1 y8 Q
) g9 B. Y* _  ]7 s: ~% ?/ S& MMenu
# u: Z1 ?+ h* f5 H" e6 x00:00:00.000                             : en:Chapter 01& j5 ?; S9 \: t1 `9 T
00:07:38.166                             : en:Chapter 02
. u3 C- O$ h2 w: `" q: h. |00:17:48.859                             : en:Chapter 03* d( R( ~4 p, v4 D* y0 c
00:26:40.974                             : en:Chapter 04! D8 \  K( I8 s- i1 {. v! `! N
00:33:50.528                             : en:Chapter 05
( D1 W, Z$ ^2 F8 E0 E  g00:41:26.901                             : en:Chapter 062 O/ F1 g: a7 H6 C/ h6 q
00:50:46.626                             : en:Chapter 07
3 J; v; n. |2 s2 O+ W5 k' p00:59:12.799                             : en:Chapter 08
/ M+ M3 i$ Q; X5 x/ P01:06:29.360                             : en:Chapter 097 S  T1 A0 ]: g7 S
01:13:17.810                             : en:Chapter 10
' f, s+ P, ^3 @6 U" Z& Q" G7 H  c. ?01:23:15.657                             : en:Chapter 11
- p( e2 B8 ~# d4 h/ J01:29:07.258                             : en:Chapter 12; o: R+ ~, l- P5 G2 o/ A
01:32:12.902                             : en:Chapter 13
Friday the 13th: Part V - A New Beginning Blu-ray, Video Quality   
: R- @( v  L) v6 z  T2 ?7 v- K/ V
; S- |$ h- I" z# i
2 }! b3 S1 c) w( F0 NA New Beginning's cinematographer Stephen L. Posey was a horror veteran who would later graduate to directing TV shows like Buffy the Vampire Slayer and Star Trek: Deep Space Nine. By this point in the series, the aesthetic of Friday the 13th was sufficiently established that any capable DP could replicate it, and Posey's work fits comfortably with the look of prior entries in the series.
3 |5 v3 E$ L) r# O9 Y8 e/ b6 r1 {3 w; o2 ]$ X, M- p, b$ O5 l
Warner/Paramount's 1080p, AVC-encoded Blu-ray of A New Beginning is on a par with its presentation of The Final Chapter , and indeed somewhat better. There are almost no scenes where the film's grain becomes exaggerated to the point where grainophobes are likely to complain; whether that is a function of superior lighting, better film stock or just good fortune, I cannot say. Colors are distinct but not oversaturated, black levels and contrast are appropriately set, and detail is very good without the overly sharp edges that betray digital enhancement. The grain patterns appear natural and undisturbed, and the source material is in excellent condition.
7 x- l6 }+ Z- l
, C" a0 O* l: R, H; a" w2 jA New Beginning is the first entry in The Complete Collection to share a disc with another film (Jason Lives). Both films have fewer extras than the first four entries, but I was alert for signs of compression artifacts resulting from squeezing these two films (totaling just under three hours) onto a single BD-50. I didn't see any. The average bitrate for A New Beginning is 22.35 Mbps; while not overly generous, this is well within an acceptable range.1 P4 e) v- n# U2 T" V2 W5 B9 k
6 @& y0 v3 c/ h, y. W" x2 o, ]
Friday the 13th: Part V - A New Beginning Blu-ray, Audio Quality   
1 w% M( a$ e4 G, ]7 A# O/ s3 A. ?7 Y( @# R& Z

  O8 b+ _( i1 qOnce again, an original mono mix has been given a conservative 5.1 remix and presented as lossless DTS-HD MA 5.1. The sound remains almost entirely in front, even during such likely candidates as the opening downpour. Henry Manfredini's score benefits from the enhanced stereo separation and extended dynamic range, while the dialogue remains clear and the screams are piercing.
; T4 T; D* a; J, Z: f" E3 P
游客,查看本帖隐藏内容请回复 | 加入VIP贵宾组可免积分免回复下载 了解详情 | 还不是会员:点击获取邀请码 Invitation Code

618

主题

2087

帖子

1万

积分

VIP advanced

金币
1849 枚
体力
4756 点

公主勋章卓越贡献勋章

21cn 发表于 2020-10-22 22:41:49 | 显示全部楼层
楼主发贴辛苦了,I*老*虎*U!
4 f% l2 y, g/ M3 T) y/ B* BThank you for sharing such a good resource polite reply, very sorry for myself!. L% D1 E1 f2 a1 B

67

主题

1708

帖子

6370

积分

Sponsor

金币
508 枚
体力
2353 点
lanpanshuma 发表于 2020-10-24 16:02:54 | 显示全部楼层
每天都来蓝光论坛看看,我爱蓝光电影。* j1 D% j; |5 v0 P0 _/ `& {
至少是现在,我一天没有访问蓝光电影论坛就不爽!At least now, my day did not visit the Blu-ray Film Forum on unhappy!% _( A# u/ O; p. q$ g- U
该会员没有 ...

0

主题

587

帖子

2614

积分

Sponsor

金币
17 枚
体力
1455 点
QQ
七喜 发表于 2020-10-27 13:36:53 | 显示全部楼层
这么好的帖子不回对不起自己!0 @5 q5 C8 u" s: M
至少是现在,我一天没有访问蓝光电影论坛就不爽!At least now, my day did not visit the Blu-ray Film Forum on unhappy!3 ]% l5 J: _' b9 M% z$ d5 N+ P

本版积分规则

小黑屋|Archiver|蓝光电影资源网

GMT+8, 2020-12-3 02:49

快速回复 返回顶部 返回列表