BluRayCD Forum

 找回密码
 立即注册【分享大片】
查看: 34|回复: 3
收起左侧

[蓝光原盘] 十三号星期五5:新的开始 [REMUX无损版] Friday The 13th A New Beginning 1985 SHOUT 1080p BluRaycd REMUX AVC DTS-HD MA 5.1-FGT 25.33GB

[复制链接]

5779

主题

5953

帖子

7万

积分

Post Share

金币
13284 枚
体力
19677 点

卓越贡献勋章

黄金嫖客 发表于 2020-10-22 20:19:24 | 显示全部楼层 |阅读模式
Still haunted by his past, Tommy Jarvis - who, as a child, killed Jason Voorhees - wonders if the serial killer is connected to a series of brutal murders occurring in and around the secluded halfway house where he now lives.
3 h) u- J. A4 _  \- V
2 p' t; j8 ]( e 01.jpg + Y3 I4 P% n8 O

( x- k, c9 ?: C% e: E4 `7 O◎译  名 十三号星期五5/十三号星期五:新的开始
% ]8 ~* b& j4 D+ v. f+ z* p◎片  名 Friday the 13th: Part V - A New Beginning / Friday the 13th Part 5
9 {& W( M8 E% ^9 u5 W  b◎年  代 19856 {3 U! Q1 L; z$ R( n' F
◎产  地 美国. z0 @* f+ k3 l( G) ~: {
◎类  别 剧情/悬疑/惊悚/恐怖% d* n) z$ J9 b" c
◎语  言 英语5 G' J. l% a5 R0 T; q& ?+ B
◎上映日期 1985-03-22) p! A# ]% ~6 Q, P! T9 S8 H0 y
◎IMDb评分  4.8/10 from 33,150 users4 D9 d$ N# r6 [, P6 Y6 l
◎IMDb链接  https://www.imdb.com/title/tt0089173/
; I+ W0 ]% [! V& P◎豆瓣评分 5.8/10 from 949 users
: D- C, v( t% \◎豆瓣链接 https://movie.douban.com/subject/1295694/
7 b) `$ Y+ r" Y' t: o◎文件格式 x264 + DTS
* z0 C& O! Y. s; }) T◎视频尺寸 1920 x 10807 {4 o4 @7 U7 ?+ a
◎文件大小 1DVD 25.33 GiB  j$ p0 V+ |/ w5 z0 C! c% ^
◎片  长 1 h 32 min' z' ]2 |  M" M7 \" Q8 B
◎导  演 丹尼·斯坦曼 Danny Steinmann4 z1 G! M% B+ J8 c# m8 \3 |- W
◎编  剧 丹尼·斯坦曼 Danny Steinmann! k& R. l+ o/ |5 C5 L
       David Cohen
7 L# g. P: D' L/ _; d. X4 G       John Shepherd
4 z( t+ m- R9 G1 O3 G2 f◎主  演 John Shepherd
+ O6 \: D0 h/ g1 J, K/ U       Richard Young5 J' W( Q) a& U$ R
       科里·帕克 Corey Parker
  Y% p0 o4 d' x3 R2 ]       科里·费尔德曼 Corey Feldman
* Y- P/ l: d. W       卡罗尔·罗卡泰利 Carol Locatell. X4 H5 V7 z- |
' H$ y% t+ i8 X( T6 O1 W
◎标  签 恐怖 | 惊悚 | 美国 | 血腥 | 黑色星期五 | 1985 | 美国电影 | 恐怖电影
' ]* X. X: ]- X% O8 L# D, `! I6 s/ C3 W
◎简  介  $ U$ r3 B0 o: @. P) j9 ?. f
  v2 M+ O- w# `' F; {+ l) R. n
  上一集中大难不死的Tommy,由于严重的刺激,患上了精神疾病,因为被送到疗养村进行康复治疗。刚入住不久的Tommy就目睹了病人的惨死,而Jason也仿佛又回到了人间,开始了一场血腥的杀戮……+ i9 b# `( [: G6 V" E

; ^2 K* j+ a. i0 S" A' A* _  Young Tommy Jarvis may have escaped from Crystal Lake, but he's still haunted by the gruesome events that happened there. When gory murders start happening at the secluded halfway house for troubled teens where he now lives, it seems like his nightmarish nemesis, Jason Voorhees, is back for more sadistic slaughters.
3 Y) r" ?' J; d8 _! @) _! N
. y; j: p* S, |. N2 N
Video
2 E$ g, ^; l6 D$ T1 ]ID                                       : 1' Q& w2 @( g& p: f, z
ID in the original source medium         : 4113 (0x1011)- s# S0 b4 \+ v+ F; Y
Format                                   : AVC
$ f3 U! ^! `2 n) A3 s  jFormat/Info                              : Advanced Video Codec
) O0 Q( G  I- v+ C- C. {Format profile                           : High@L4.13 j* j0 U0 U- X- S1 _8 l, }3 U
Format settings                          : CABAC / 4 Ref Frames9 |( ]' i/ T9 M1 C7 F" |1 x7 s
Format settings, CABAC                   : Yes
$ q. {5 c0 P8 q' _. S: m, vFormat settings, Reference frames        : 4 frames5 R/ [( x! g' T- ^: L, B
Codec ID                                 : V_MPEG4/ISO/AVC
* ~  v9 T0 Y9 t: Z/ ~, Y/ WDuration                                 : 1 h 32 min
2 ?4 z; _- z# {+ p) u7 EBit rate mode                            : Constant2 s) e/ \0 W1 M
Bit rate                                 : 36.0 Mb/s
" u/ H7 U1 a! l. }Width                                    : 1 920 pixels2 N$ w0 i6 _9 G! U% u3 `# _
Height                                   : 1 080 pixels
+ V' K% @* i- a& S( `9 O4 tDisplay aspect ratio                     : 16:97 V6 e# _# l( P6 ~  ?/ O2 y
Frame rate mode                          : Constant
3 F+ f; t9 Q. ]0 Y. tFrame rate                               : 23.976 (24000/1001/37687) FPS- `7 i3 J- y) c1 a* I' R
Color space                              : YUV
# }. P# c( i/ l, h9 `( jChroma subsampling                       : 4:2:06 Z( b5 ~( v- ~9 |& |- Y+ ^/ P3 B  n
Bit depth                                : 8 bits
' n4 w( `, i# X. C% E! l/ v$ KScan type                                : Progressive
4 o6 d) L& r" p8 G/ p- X: t2 e$ iBits/(Pixel*Frame)                       : 0.724
* p0 W6 n1 y3 ^Stream size                              : 22.1 GiB (87%); \! D' Z( [7 O3 E
Title                                    : Friday.The.13th.A.New.Beginning.1985.SHOUT.1080p.BluRayCD.REMUX.AVC.DTS-HD.MA.5.1-FGT
3 I/ ]% a( @1 {; RLanguage                                 : English
5 @! _& J( f: g- QDefault                                  : No8 U$ T' C, L8 M3 z) P, |
Forced                                   : No
4 `$ p  @, I% V7 f8 s/ ~) ^0 fOriginal source medium                   : Blu-ray, z3 r2 O/ O. F* b

9 Q+ E$ e( O& tAudio #13 b0 F' \$ R+ x  z( M! l
ID                                       : 20 p" M* U# R8 k7 U9 _
ID in the original source medium         : 4353 (0x1101)
& S+ p( H0 b* D0 C4 V+ IFormat                                   : DTS XLL) a- k: F0 X( I# W  Y
Format/Info                              : Digital Theater Systems" @) w. G% l; Q; `
Commercial name                          : DTS-HD Master Audio- }- F5 u( X# z/ d) w  e. ~
Codec ID                                 : A_DTS+ F9 u$ |% I; f& f; C3 h
Duration                                 : 1 h 32 min
' c. f- C: L, \5 c- L+ }Bit rate mode                            : Variable
( |! J. N" I5 z$ n9 L  G. @Bit rate                                 : 2 835 kb/s5 o" g0 t4 Z% F. f
Channel(s)                               : 6 channels$ }6 K7 _, S! j4 `
Channel layout                           : C L R Ls Rs LFE4 A/ j, \/ |, y% v, w# l
Sampling rate                            : 48.0 kHz
( ^. d9 n$ d/ Y- }" l* P+ ?Frame rate                               : 93.750 FPS (512 SPF)
- Q: j4 V* l# @. v4 [Bit depth                                : 24 bits: F9 t. p( U& e* ?( g1 R+ G
Compression mode                         : Lossless
/ q3 l; \7 v( {Stream size                              : 1.83 GiB (7%)
7 `7 L* M2 W9 n) OTitle                                    : Friday.The.13th.A.New.Beginning.1985.SHOUT.1080p.BluRaycd.REMUX.AVC.DTS-HD.MA.5.1-FGT$ c6 b4 n, V. X0 Z$ I
Language                                 : English9 t  s4 H  I; e0 z) T/ r! J+ I
Default                                  : Yes
/ Z# H2 h6 D$ r" |6 bForced                                   : No3 i( n* U$ C1 B* c
Original source medium                   : Blu-ray3 c9 }' ^+ x& y! E

2 }6 ?  b; D: U- I- m. F" B, bAudio #25 r* j' J! ?4 T
ID                                       : 32 E8 f* y/ ?% H4 }' ~% z
ID in the original source medium         : 4352 (0x1100)$ M) n* m* m$ h% D1 I$ E
Format                                   : DTS XLL
( s5 F5 E4 h. M0 @) VFormat/Info                              : Digital Theater Systems% G9 [3 h: C' x  h6 R: u* X1 N
Commercial name                          : DTS-HD Master Audio  e+ \4 g  _& k
Codec ID                                 : A_DTS( T8 a+ V6 q. {, I8 w
Duration                                 : 1 h 32 min  I" m; l: B* Y
Bit rate mode                            : Variable
( d; C2 D5 N3 d6 e$ c4 j4 K& x1 wBit rate                                 : 1 572 kb/s% x6 O' M1 e) r. B5 b5 q" d! B
Channel(s)                               : 2 channels1 L7 V' p" ~! X4 G, O# ~
Channel layout                           : L R; {/ f2 ?/ Q& ]) M: V
Sampling rate                            : 48.0 kHz1 b2 q7 P1 B8 `7 a- p2 s, ]
Frame rate                               : 93.750 FPS (512 SPF)1 ]5 V  y; L' V: ~% K5 h
Bit depth                                : 24 bits& }+ s7 _- I# y  R/ A+ Z% g
Compression mode                         : Lossless
2 u) U9 Y+ I/ g4 C# j& BStream size                              : 1.01 GiB (4%), |6 o2 b+ z8 |& E
Title                                    : Friday.The.13th.A.New.Beginning.1985.SHOUT.1080p.BluRaycd.REMUX.AVC.DTS-HD.MA.5.1-FGT
% h9 J0 u6 l0 P+ TLanguage                                 : English  @7 y* s, K6 q) r% k  `8 \7 X4 Q  R
Default                                  : No0 ?  }9 j9 B1 H  q% K- N( Y: @
Forced                                   : No0 r, m8 E( B% `2 G1 s
Original source medium                   : Blu-ray% h0 T" s8 ~- G4 |$ b* b. P

7 A1 K3 f3 w5 U) BAudio #3
. ?, S: B" R2 [$ M- M) F2 K7 z, qID                                       : 4/ }( @* s6 D+ ~$ G$ V4 ~1 }) e
ID in the original source medium         : 4354 (0x1102)
; Z) S8 l5 T' R* k" d# lFormat                                   : AC-3
1 {- o% N2 }# v0 S5 gFormat/Info                              : Audio Coding 3: I  l- n. q4 i  S7 \0 f& b
Commercial name                          : Dolby Digital
" C* s5 F1 I  M; j* X7 {8 m, M: qCodec ID                                 : A_AC3
$ J! C0 z) ?  d9 ^/ @* wDuration                                 : 1 h 32 min
  \! K4 n6 a9 R, _' cBit rate mode                            : Constant
, C- ?' N( h  Y% T! IBit rate                                 : 192 kb/s
- p; N# u4 F: V& I# w3 o7 C* a6 w, M8 eChannel(s)                               : 2 channels
; f$ M: K$ c4 x0 `/ e' PChannel layout                           : L R5 t' r8 d' A: ~2 g' d
Sampling rate                            : 48.0 kHz) x# J) x* Z/ X* A" Q9 `
Frame rate                               : 31.250 FPS (1536 SPF)8 }& c& h/ [/ n- t5 K" C  g7 h3 V
Compression mode                         : Lossy1 b  l4 j7 U6 ^- M8 K
Stream size                              : 127 MiB (0%)/ ~2 ~. g- w$ x
Title                                    : Friday.The.13th.A.New.Beginning.1985.SHOUT.1080p.BluRaycd.REMUX.AVC.DTS-HD.MA.5.1-FGT
% f% t( t- z) w$ i4 v! XLanguage                                 : English( E, f7 G6 v  P8 I
Service kind                             : Complete Main2 w4 m& ~- e- X% l8 i: ]
Default                                  : No
0 {- s& D; C& ^) p% l, zForced                                   : No
8 F2 j( ^( M# p& nOriginal source medium                   : Blu-ray
, m: @/ U5 Y& `  ]0 K0 b9 r- L4 }. r! R
Audio #4
: X. Y6 m; N( i& r9 s6 QID                                       : 5
* h# e( w6 M# N7 t0 CID in the original source medium         : 4355 (0x1103), w: s# j6 p' h" p
Format                                   : AC-3  G1 f8 x1 Y7 x( X' H* x1 r
Format/Info                              : Audio Coding 3
" ]1 u: |* b7 H  W% f, iCommercial name                          : Dolby Digital2 _  V2 [2 {) x* O9 |: w) N% M( C
Codec ID                                 : A_AC3
- ~9 y/ P- d4 R/ l% {8 N& n: hDuration                                 : 1 h 32 min" Q3 ]  N% L& r9 H# S5 Z8 ~( _* e. x( O
Bit rate mode                            : Constant0 g) Z6 p* [- Q7 c' [' K3 Z8 J0 q/ _
Bit rate                                 : 192 kb/s& g- m+ }& b$ R$ E% U9 W$ B! B
Channel(s)                               : 2 channels
" p$ {* U. D$ X" E3 FChannel layout                           : L R( i2 o. b; T! X/ g" q! k% t
Sampling rate                            : 48.0 kHz
8 o0 d! t4 H- T3 [Frame rate                               : 31.250 FPS (1536 SPF)
+ Y/ u! s& J6 ACompression mode                         : Lossy
  M7 |, `! ^7 O% HStream size                              : 127 MiB (0%): h- E  t0 p5 y1 a
Title                                    : Friday.The.13th.A.New.Beginning.1985.SHOUT.1080p.BluRaycd.REMUX.AVC.DTS-HD.MA.5.1-FGT
5 ~3 @+ M+ `! y- _0 E  I- k- KLanguage                                 : English; v6 }' c+ [) B0 w6 q+ |$ L
Service kind                             : Complete Main+ b) U$ f% [( c8 A
Default                                  : No
) b% k9 L% Y  \6 GForced                                   : No
& g5 C2 O0 X1 \Original source medium                   : Blu-ray
9 A8 w, L) s! T$ |6 d3 ^
0 ]) V& H! }  J  F9 rAudio #5
; L) h! A+ N* T5 ], A; e# kID                                       : 6
8 y. r2 b- ?; \/ VID in the original source medium         : 4356 (0x1104)3 z8 c/ z2 D# r5 A
Format                                   : AC-36 r& g; L8 v* C
Format/Info                              : Audio Coding 3
$ q( C  T/ C; V; O( i: WCommercial name                          : Dolby Digital- B' K! ^! o' v
Codec ID                                 : A_AC3& s( E" B9 y- X2 H5 I
Duration                                 : 1 h 32 min' Y% D" H9 w7 p  Y* A
Bit rate mode                            : Constant
4 n' \$ T$ x+ [- mBit rate                                 : 192 kb/s/ z. J& |( u" U2 }! [/ p$ g, ^  I
Channel(s)                               : 2 channels
) `- M1 u5 }. Q2 t& x8 WChannel layout                           : L R+ h6 K9 m  k- J' N" N0 m* d
Sampling rate                            : 48.0 kHz
" c4 n6 [% h5 QFrame rate                               : 31.250 FPS (1536 SPF)
% F% A+ B$ w2 UCompression mode                         : Lossy. V9 W0 T! y) i. M$ U4 d# k- e5 b- Y
Stream size                              : 127 MiB (0%); L* Q) X$ u& Q5 v5 X- ]& i4 R
Title                                    : Friday.The.13th.A.New.Beginning.1985.SHOUT.1080p.BluRaycd.REMUX.AVC.DTS-HD.MA.5.1-FGT  Z5 m6 v& W# B8 Q
Language                                 : English
# y; V, ~$ P' i; AService kind                             : Complete Main
: o, k) M4 A5 ~- \$ m0 vDefault                                  : No3 s5 \' F% D0 W$ `: h! C
Forced                                   : No
! k: a8 y1 m! A) |. FOriginal source medium                   : Blu-ray" d: C  W( q5 e2 i" d' u
# E$ W4 |+ B0 k$ x
Text #19 y, T# x& B# ^7 q; |3 d
ID                                       : 7
, p% _# K% U# t5 @: r8 H6 {Format                                   : UTF-8
& K  R( j3 ]4 rCodec ID                                 : S_TEXT/UTF8+ _! o7 W0 G' z% a/ g/ D
Codec ID/Info                            : UTF-8 Plain Text
* X) g, O9 Q% gDuration                                 : 1 h 27 min
, @/ b& |, N& K! u5 Y( h& j1 dBit rate                                 : 30 b/s
% @! X2 Q8 }: dCount of elements                        : 892% }5 E- r+ q2 a0 w- {" h
Stream size                              : 19.5 KiB (0%)
& A6 G0 g5 t6 V7 M' _7 STitle                                    : English-SRT9 v- X/ e8 J- Z
Language                                 : English
) z1 O4 a+ ]+ D7 c; w3 iDefault                                  : Yes1 k3 ^! j8 E: ?% z4 n
Forced                                   : No
4 ?7 J) @5 g7 \0 Y6 E, Z; o" @/ j6 \. s# A8 I! f( u
Text #2
0 |- e. U& n8 h: e/ h: ?1 pID                                       : 8
8 H( i* k" x6 RID in the original source medium         : 4608 (0x1200)
6 W. n& E3 i  q& e. XFormat                                   : PGS
- q# n* f" M  q' I' FMuxing mode                              : zlib4 _) X: |, L2 N5 R3 T, N
Codec ID                                 : S_HDMV/PGS
- [5 `1 `7 H7 n, e' r4 D* f% }Codec ID/Info                            : Picture based subtitle format used on BDs/HD-DVDs- ~- D7 D: H2 k  F7 M! u* }
Duration                                 : 1 h 28 min, e( ?# h. \' w- k
Bit rate                                 : 24.0 kb/s
1 _  k# J$ G. G: i1 A) XCount of elements                        : 1804
" ]! _% Z$ e, o$ V6 oStream size                              : 15.3 MiB (0%): h% k4 Y9 \6 L
Title                                    : English-PGS5 l7 l* o) _: n& [2 B! }
Language                                 : English
  V! Y8 s7 o* wDefault                                  : No
3 M8 J* n5 i) b% w" wForced                                   : No
" x7 ^3 m0 P# v, H& {Original source medium                   : Blu-ray/ A8 ?0 m4 z9 s6 D' v8 B4 I
) }+ P7 V' I# G) |; v' X. c) O
Menu% |; n: v0 s  o$ E" X; S) @# F' L
00:00:00.000                             : en:Chapter 01
% L+ Q8 A5 a2 G; R! i! Z00:07:38.166                             : en:Chapter 02. {+ _  K/ p( ]7 L7 y9 b
00:17:48.859                             : en:Chapter 03
4 b! v9 o" |! v  f; X3 H: Y1 |! o00:26:40.974                             : en:Chapter 04; ^, X" [% C/ Y1 d
00:33:50.528                             : en:Chapter 05
! J. h4 W$ ?8 @4 x+ p00:41:26.901                             : en:Chapter 06
- I! B9 T) ~& P( [00:50:46.626                             : en:Chapter 07- W& r/ X% e! u: ~. L, J# Z1 F; S
00:59:12.799                             : en:Chapter 08
8 }" a$ H9 O9 X  a01:06:29.360                             : en:Chapter 09- }6 ~+ T/ V+ u% X
01:13:17.810                             : en:Chapter 108 N& D4 O9 s1 N1 q5 x& ?
01:23:15.657                             : en:Chapter 11
5 s2 v4 H' e; p" t4 f% S. p01:29:07.258                             : en:Chapter 12
! {1 C2 q7 i8 f( {# C7 V01:32:12.902                             : en:Chapter 13
Friday the 13th: Part V - A New Beginning Blu-ray, Video Quality   
2 g$ Z- J7 t2 B4 Q3 [
+ i$ W. j$ V% v" l. R& x" s8 c4 N  Y( e& m9 B( N7 z
A New Beginning's cinematographer Stephen L. Posey was a horror veteran who would later graduate to directing TV shows like Buffy the Vampire Slayer and Star Trek: Deep Space Nine. By this point in the series, the aesthetic of Friday the 13th was sufficiently established that any capable DP could replicate it, and Posey's work fits comfortably with the look of prior entries in the series.
' l2 b! p4 x( |; B' B' [' z& \
, V( o) B- ~0 ]$ |4 R; O, x8 OWarner/Paramount's 1080p, AVC-encoded Blu-ray of A New Beginning is on a par with its presentation of The Final Chapter , and indeed somewhat better. There are almost no scenes where the film's grain becomes exaggerated to the point where grainophobes are likely to complain; whether that is a function of superior lighting, better film stock or just good fortune, I cannot say. Colors are distinct but not oversaturated, black levels and contrast are appropriately set, and detail is very good without the overly sharp edges that betray digital enhancement. The grain patterns appear natural and undisturbed, and the source material is in excellent condition.+ V: q8 ~5 W) F  ]+ s

9 J0 s) w. w. C# p& ]A New Beginning is the first entry in The Complete Collection to share a disc with another film (Jason Lives). Both films have fewer extras than the first four entries, but I was alert for signs of compression artifacts resulting from squeezing these two films (totaling just under three hours) onto a single BD-50. I didn't see any. The average bitrate for A New Beginning is 22.35 Mbps; while not overly generous, this is well within an acceptable range.
& a$ l# ]: }* w; ^) h+ @5 b6 n
2 s, n0 T6 @, _Friday the 13th: Part V - A New Beginning Blu-ray, Audio Quality   
; ?0 r* e6 w( O
4 \1 b% Y% ^, o: I
7 u* {3 _, o- Y! ]  _Once again, an original mono mix has been given a conservative 5.1 remix and presented as lossless DTS-HD MA 5.1. The sound remains almost entirely in front, even during such likely candidates as the opening downpour. Henry Manfredini's score benefits from the enhanced stereo separation and extended dynamic range, while the dialogue remains clear and the screams are piercing." \; t/ ~9 N6 {2 p$ v5 V- l+ G
游客,查看本帖隐藏内容请回复 | 加入VIP贵宾可免积分免回复 了解详情 | 还不是会员:点击获取邀请码 Invitation Code

728

主题

2403

帖子

1万

积分

VIP advanced

金币
2445 枚
体力
5496 点

公主勋章卓越贡献勋章

21cn 发表于 2020-10-22 22:41:49 | 显示全部楼层
楼主发贴辛苦了,I*老*虎*U!
! Y$ x* c- `# o6 h: DThank you for sharing such a good resource polite reply, very sorry for myself!
9 y# F4 S+ l6 t0 c; G' I) m% ]

76

主题

2973

帖子

1万

积分

Sponsor

金币
1428 枚
体力
4178 点
lanpanshuma 发表于 2020-10-24 16:02:54 | 显示全部楼层
每天都来蓝光论坛看看,我爱蓝光电影。/ s" A% o5 I1 ]0 T5 Q
至少是现在,我一天没有访问蓝光电影论坛就不爽!At least now, my day did not visit the Blu-ray Film Forum on unhappy!- I2 ]3 J+ G  z, w! t7 ]

0

主题

647

帖子

2857

积分

Sponsor

金币
5 枚
体力
1590 点
QQ
七喜 发表于 2020-10-27 13:36:53 | 显示全部楼层
这么好的帖子不回对不起自己!0 n/ e+ ]9 m$ v2 g7 J
至少是现在,我一天没有访问蓝光电影论坛就不爽!At least now, my day did not visit the Blu-ray Film Forum on unhappy!
% S( j" F; {. W: B# m! Y! j

本版积分规则

小黑屋|Archiver|蓝光电影资源网

GMT+8, 2021-7-26 06:22

快速回复 返回顶部 返回列表