BluRayCD Forum

 找回密码
 立即注册【分享大片】

QQ登录

只需一步,快速开始

查看: 10|回复: 0
收起左侧

[科幻恐怖] 十三号星期五5/13号星期五5 Friday The 13th A New Beginning 1985 SHOUT 1080p BluRaycd x264 DTS-FGT 8.38GB & 7.64GB

[复制链接]

4187

主题

4562

帖子

4万

积分

Post Share

金币
8181 枚
体力
7292 点

卓越贡献勋章

mvods 发表于 2020-11-3 12:56:36 | 显示全部楼层 |阅读模式
% i! N8 F5 o4 U/ k! `, r

% Q) b8 D9 p4 Z◎译  名 十三号星期五5/十三号星期五:新的开始2 E( E3 z" z3 X: ]$ D0 Z' g" g
◎片  名 Friday the 13th: Part V - A New Beginning / Friday the 13th Part 5
4 j, Y$ Q* g  B+ h6 ?' m- Y7 f/ q( a◎年  代 1985! L4 |/ w. C1 n9 E
◎产  地 美国+ ~$ s' B( G2 P5 j+ `
◎类  别 剧情/悬疑/惊悚/恐怖: l) @0 l5 T6 A1 N
◎语  言 英语6 w' a6 s8 c# U& Z0 [
◎上映日期 1985-03-22
( r. e  H$ b) D$ s4 _# U% Q8 r◎IMDb评分  4.8/10 from 33,400 users
+ ?, R+ f1 v, I& M◎IMDb链接  https://www.imdb.com/title/tt0089173/7 n# y1 l; I" J6 ~6 K  H
◎豆瓣评分 5.8/10 from 971 users
$ ?' }1 Q- A1 j1 Q4 t. ?6 x+ P◎豆瓣链接 https://movie.douban.com/subject/1295694/( ~2 `8 X9 Z+ u! @& q
◎片  长 1 h 32 min
/ ^5 X3 H$ t: Y! z$ ?◎导  演 丹尼·斯坦曼 Danny Steinmann
% L% [( O3 `) J7 s5 a0 V; Z1 b. ?◎编  剧 丹尼·斯坦曼 Danny Steinmann
2 S& \" `0 Q; A9 ^" J       David Cohen
0 v$ G8 @5 F' u! ~* ?       John Shepherd. a0 b. F# z( T6 M9 w
◎主  演 John Shepherd. p( ~2 j$ T( Y3 n3 ?0 {3 i4 r
       Richard Young4 \' e0 _; S* j3 d
       科里·帕克 Corey Parker. T& g$ m: Z& P' w. h
       科里·费尔德曼 Corey Feldman
5 O, t# [. ^  b1 y) F/ h5 D  R       卡罗尔·罗卡泰利 Carol Locatell2 ~% r5 y3 }$ W! w/ s

- x, @2 V& J: W; Y◎标  签 恐怖 | 惊悚 | 美国 | 血腥 | 黑色星期五 | 1985 | 美国电影 | 恐怖电影
% }: M+ k2 U8 w( M
) \# X0 P8 v1 ]◎简  介  
. _# P$ r* B' M8 \: i0 u2 L0 K8 z- t
  上一集中大难不死的Tommy,由于严重的刺激,患上了精神疾病,因为被送到疗养村进行康复治疗。刚入住不久的Tommy就目睹了病人的惨死,而Jason也仿佛又回到了人间,开始了一场血腥的杀戮……( @; h0 A; R2 r$ B" d/ n
; i& Z7 d1 Q# p7 q+ o2 N/ v
  Still haunted by his past, Tommy Jarvis - who, as a child, killed Jason Voorhees - wonders if the serial killer is connected to a series of brutal murders occurring in and around the secluded halfway house where he now lives.
6 q+ N- @4 O  z. i; f+ k
Video
+ w9 R( k: N+ E0 A7 lID                                       : 13 ?0 X8 t6 c5 X5 |( c
Format                                   : AVC
. T" c  k) |2 `% @Format/Info                              : Advanced Video Codec" Z' F3 C% |5 }5 M- O1 d
Format profile                           : High@L4.16 C' Q# K% S9 Y! H. B- P5 M4 q, r
Format settings, CABAC                   : Yes/ s; j1 c) [- q6 c1 g: W
Format settings, ReFrames                : 3 frames) F8 a6 L9 P; i  l
Codec ID                                 : V_MPEG4/ISO/AVC0 T* S' f$ u( n( o
Duration                                 : 1h 32mn5 _  C) r$ F. u1 E2 \! M: e$ f+ {
Bit rate                                 : 14.0 Mbps4 v1 X) g9 P( U0 [
Width                                    : 1 920 pixels
9 _0 l' y2 F. T0 O  X" A* t0 |Height                                   : 1 080 pixels
" h. M: d0 t* `9 T" j3 HDisplay aspect ratio                     : 16:9
9 I$ R% P. X1 C3 j0 ~8 P0 e+ jFrame rate mode                          : Constant8 ~: \' w# x: M8 v; Z' \
Frame rate                               : 23.976 fps
# T+ O2 s5 \8 L& I: E2 c# S$ C% pColor space                              : YUV) ~1 I2 I" e- R6 G/ @# K# G
Chroma subsampling                       : 4:2:07 s/ o! R% g& D$ n) F5 Z
Bit depth                                : 8 bits. u* j; Y0 _) n  u! X6 c8 G
Scan type                                : Progressive0 F) d9 o+ w7 u
Bits/(Pixel*Frame)                       : 0.282
) [% U! I; i6 vStream size                              : 8.83 GiB (88%). t1 B! F) g: h5 s4 p7 X
Writing library                          : x264 core 125 r2208 d9d2288
- D$ C+ c6 |1 PEncoding settings                        : cabac=1 / ref=4 / deblock=1:-1:-1 / analyse=0x3:0x133 / me=umh / subme=11 / psy=1 / psy_rd=1.15:0.25 / mixed_ref=1 / me_range=24 / chroma_me=1 / trellis=2 / 8x8dct=1 / cqm=0 / deadzone=21,11 / fast_pskip=0 / chroma_qp_offset=-4 / threads=12 / lookahead_threads=2 / sliced_threads=0 / nr=0 / decimate=1 / interlaced=0 / bluray_compat=0 / constrained_intra=0 / bframes=6 / b_pyramid=1 / b_adapt=2 / b_bias=0 / direct=3 / weightb=1 / open_gop=0 / weightp=2 / keyint=250 / keyint_min=23 / scenecut=40 / intra_refresh=0 / rc_lookahead=50 / rc=2pass / mbtree=1 / bitrate=14000 / ratetol=1.0 / qcomp=0.60 / qpmin=0 / qpmax=69 / qpstep=4 / cplxblur=20.0 / qblur=0.5 / ip_ratio=1.40 / aq=1:1.00
9 P( A. F" ^/ V* @, t/ kLanguage                                 : English
) c4 O7 r% d: S0 f; H. }$ kDefault                                  : Yes3 `( ^6 q% L% L4 v
Forced                                   : No
4 I& [& ?2 a, p" m
% u. M7 F. i1 e3 {$ ~% LAudio( J5 ^( W' \; t, o2 i4 ?  A
ID                                       : 2
: C! a5 N( H; n; @9 ~8 TFormat                                   : DTS8 Y. Z* t2 v1 e% {1 n
Format/Info                              : Digital Theater Systems  ]: d, Y1 n9 M" C5 F- G
Mode                                     : 166 `: ]- e! U# m
Format settings, Endianness              : Big
9 a. f$ l5 y& N4 b+ x& ?3 ]Codec ID                                 : A_DTS  Z4 f! K4 R& t( e9 T
Duration                                 : 1h 32mn* O! ^" G' v8 X; w7 O: ]
Bit rate mode                            : Constant
$ t  v2 \1 @7 t2 J. F2 o, t' r3 rBit rate                                 : 1 509 Kbps
; Y; i; s4 j- rChannel(s)                               : 6 channels
5 |+ b& v& P# K5 D9 l3 @9 HChannel positions                        : Front: L C R, Side: L R, LFE
  k2 u4 G0 I0 F- b. F- y; D5 iSampling rate                            : 48.0 KHz% }+ I0 j( W/ i2 V, ]& o! W! ~
Bit depth                                : 24 bits- ?- T* |7 G9 i: T( |& h
Compression mode                         : Lossy1 {& y, q# V6 ~2 ^. x3 e/ {" M
Stream size                              : 996 MiB (10%)/ A% U' k; ?( w) z' E" @5 D
Language                                 : English, ?  q5 y4 \' W$ g( J% F2 O" H
Default                                  : Yes
; x! C- \0 B! F! XForced                                   : No1 k: w- r8 Q/ o7 J
3 p+ r2 ]  x' p2 N
Text
* w$ F8 u1 {0 \5 x3 S( k' K3 nID                                       : 3* l, ]1 g* Y3 a+ L5 P: \6 u% [
Format                                   : UTF-81 Q3 x0 @( e  B6 J: L) H% V: p
Codec ID                                 : S_TEXT/UTF8# K" j- W, V5 x' o1 V
Codec ID/Info                            : UTF-8 Plain Text
: f* P. ^8 [& kLanguage                                 : English
' o# h# Y6 B& Q& o9 ]Default                                  : Yes: I3 S: z1 p& s5 [! H
Forced                                   : No7 L/ r! w* D2 |" ^. o- {

$ Y# O) U% f, C& N  k" ^& h1 B- lMenu- E" A3 `" d. i3 K
00:00:00.000                             : en:Chapter 01
' N# M. w! n  V) q' J00:05:46.512                             : en:Chapter 024 x7 N$ K/ O3 }  H
00:11:51.711                             : en:Chapter 03
9 `) a: w7 K* A' o00:17:51.028                             : en:Chapter 04
4 ?  H/ F! x  K3 U- P: m2 R00:23:05.967                             : en:Chapter 05
$ Z& `: q: T3 {7 S" `' e0 f00:27:47.957                             : en:Chapter 06
0 Q+ \6 H2 E& X0 \: M. Y00:31:18.334                             : en:Chapter 072 C& o1 L* T6 S8 f5 D, f' h/ T8 U
00:39:04.675                             : en:Chapter 08
. \5 K$ [$ [- b; Z00:46:29.286                             : en:Chapter 092 }7 V" U! l8 j
00:56:10.116                             : en:Chapter 100 {( j( x  C! T' [$ r4 ~
01:00:16.487                             : en:Chapter 117 o% ?/ j1 `' x3 n2 N, k
01:08:06.540                             : en:Chapter 12% f, X8 s- I; ]4 F1 q
01:16:05.435                             : en:Chapter 131 G, s0 a( Z9 y) ]/ v
01:23:17.826                             : en:Chapter 14
Friday.The.13th.A.New.Beginning.1985.1080p.BluRayCD.x264-PHOBOS5 @, F, i! D" g  M  m9 Z& y$ }, X5 s
6 h% v; J$ ]6 \4 I: @9 i% w! I
http://www.imdb.com/title/tt0089173/9 Y1 o& e  G& t% ?
6 c8 ~; g. t2 m
Length..............: 1h 32mn; ^) E8 I0 u: ^+ `, S0 ?
Video...............: 1920x1080 (X264 @ 23.976fps)
6 B7 e8 @4 U* [/ Q6 a* mBitrate.............: 11.9Mbps
! r* D0 ^) _( ~  lAudio...............: DTS 1509 Kbps8 a/ z: Q1 E3 a; e3 s
Language............: English* `2 t$ A, u  T5 }& j) B
Subtitles...........: English: K0 r& B3 T$ w4 r
Genre ..............: Horror | Mystery
3 O" y: G0 e$ ~6 z! E  r0 W
游客,查看本帖隐藏内容请回复 | 加入VIP贵宾组可免积分免回复下载 了解详情 | 还不是会员:点击获取邀请码 Invitation Code

本版积分规则

小黑屋|Archiver|蓝光电影资源网

GMT+8, 2021-1-24 19:41

快速回复 返回顶部 返回列表