BluRayCD Forum

 找回密码
 立即注册【分享大片】

QQ登录

只需一步,快速开始

查看: 9|回复: 0
收起左侧

[喜剧爱情] 敢梦有爱/秘密:梦想的力量 The Secret Dare to Dream 2020 1080p BluRaycd x264 DTS-HD MA 5.1-NOGRP 13.15GB & 14.59GB

[复制链接]

4016

主题

4391

帖子

3万

积分

Post Share

金币
7658 枚
体力
6878 点

卓越贡献勋章

mvods 发表于 2020-10-24 21:46:59 | 显示全部楼层 |阅读模式
01.jpg
7 S  e" h6 h1 t* U* d8 \5 g
. S7 D! d) l; _' o0 i4 _◎译  名 敢梦有爱/秘密:梦想的力量(台)/秘密:敢于梦想/敢爱有梦) j, L" V  t* g- z7 ?
◎片  名 The Secret: Dare to Dream+ I' n1 K( B7 d9 J% P  h+ L; G: _
◎年  代 2020
4 Z4 ]5 |7 x& `% a◎产  地 美国
* J- b8 U! a8 F8 N◎类  别 剧情/爱情& m( K) W# [/ a1 J4 \, [
◎语  言 英语9 _, M# v+ ^  D! u! T
◎上映日期 2020-04-17(美国)
# [; C( C1 A* I" t- x  O- N◎IMDb评分  6.4/10 from 2,595 users
- T6 p; Q0 f6 H. U0 k" n( b◎IMDb链接  https://www.imdb.com/title/tt4411584/  ~  L: ?7 c' k$ X
◎豆瓣评分 0/10 from 0 users
/ C( S, _* g7 C2 x/ C◎豆瓣链接 https://movie.douban.com/subject/27153409/
4 _6 m' O7 V9 T& `3 e◎片  长 1 h 47 min. {3 p% ]1 U" n% _/ N0 N  \
◎导  演 安迪·坦纳特 Andy Tennant
. Y$ k0 b: @5 h; s1 v1 Y◎编  剧 丽贝卡·布鲁斯特 Rebecca Brunstetter
9 ?3 L% a/ n( F( `       安迪·坦纳特 Andy Tennant! Y9 ~; ~5 I, |4 t9 c0 t" J4 `
       Rhonda Byrne: ?' |+ {2 i: }- o0 i6 E3 p" q$ C
       Rick Parks& Q7 K! m4 z  w/ ]  h7 n4 d
◎主  演 凯蒂·霍尔姆斯 Katie Holmes3 C0 ^3 ?9 r4 p
       乔什·卢卡斯 Josh Lucas* ^. w  f, ^& x& C: J+ K* v
       杰瑞·奥康奈尔 Jerry O'Connell
( X/ P+ O8 L. l9 m       西利亚·维斯顿 Celia Weston
5 F& i! b- v8 s! H* t# g       Aidan Pierce Brennan
2 g! }* f2 |3 T  ]       Katrina Begin  q7 h( R6 w  y7 H! w  q+ ?
       萨曼莎·博利厄 Samantha Beaulieu
0 j4 A* f2 W  Z( E, e       约翰斯·迈尔斯 Yohance Myles7 u) f- |' J3 l1 i
       Rosemberg Salgado+ e' Z5 h3 O9 F$ w# F1 e/ b5 p
       Jessie Terrebonne. j  W7 F! f2 b
       瓦妮塔·沃姆斯利 Wanetah Walmsley
/ k- T  D, d; y/ [$ X' S       科里·斯科特·艾伦 Cory Scott Allen6 q9 V; q5 B9 a3 f! ]7 ]' f
       杰西卡·哈特科克 Jessica Harthcock' g  \: Y; M  X- K" u$ K1 L/ f( h7 r
       Betsy Borrego+ _* a$ l' @8 ]- Z. Q" p6 O
       Sydney Tennant
% B. r* ]9 E$ C( B, m3 J: U4 ?; Q       Chloe Lee3 u9 O2 n) Z2 H
       Sarah Hoffmeister9 [" @. S% d3 `1 Q! Y6 W
  B, b  g( S# a3 H8 T
◎标  签 鸡汤 | 心理 | 美国 | Cinema_2020 | 20203 W+ E% l2 ?- A9 ~+ y
6 g3 _0 k# v  H3 N3 Y7 F/ Y
◎简  介   4 ^- A, {, H3 p+ U# Z5 k) e; O: X
/ a% s( E( E0 {1 i% @
  改编自全球畅销励志作品《秘密》。故事描述独自扶养三个孩子的寡妇米兰达(凯蒂荷姆丝 饰)在一场风暴过后,雇用了一名水电工布雷(乔许卢卡斯 饰)修缮受损的住家。 在闲暇之余,布雷会与米兰达分享他的人生哲学“吸引力法则”,布雷相信只要打从心底渴望某件事物,宇宙自然会有力量助你心想事成、梦想成真……
0 ~# A3 Q9 M- e6 @$ z4 d: \( x. @+ x. M" K2 ^$ P% A
  A widow struggling to get by meets a stranger who subscribes to a philosophy of positive thinking.
3 u1 {  V1 b. _! n
Video% G7 W2 e* ~; n
ID                                       : 14 y& s3 ^, v. t& y
Format                                   : AVC9 Z/ u: z( r, q0 q* D% s
Format/Info                              : Advanced Video Codec3 H3 N3 ?+ w, q- `
Format profile                           : High@L4.1
2 ]9 ]6 l! @9 _5 j1 L5 bFormat settings                          : CABAC / 5 Ref Frames
6 k2 o; i6 R! }9 @! ?) g1 tFormat settings, CABAC                   : Yes, @/ L' K# Y3 }+ z( n9 }2 }; u
Format settings, Reference frames        : 5 frames$ V0 A* B  T6 L: N9 W2 a
Codec ID                                 : V_MPEG4/ISO/AVC
1 D) V& D) t7 dDuration                                 : 1 h 47 min
. k6 Q  X0 \! b# D0 `6 K8 cBit rate                                 : 13.8 Mb/s
% d1 R( ~. `( q, cWidth                                    : 1 920 pixels  z' k+ P0 M! ~- s5 l  z) Z
Height                                   : 804 pixels& o) W1 U, c" u, q7 Q
Display aspect ratio                     : 2.40:11 E! T/ l- H* ~5 @8 `/ L- |0 c
Frame rate mode                          : Constant' r! P% I( R! j7 `3 v+ H* x
Frame rate                               : 23.976 (24000/1001/37687) FPS
) r# U& y) a" t1 G7 ]/ F' p6 Z9 b- JColor space                              : YUV  R% ?$ Y6 v1 a
Chroma subsampling                       : 4:2:0* Y# N, L2 x7 l( j/ E& W+ S' j
Bit depth                                : 8 bits2 \2 u# K, v! p$ {; v
Scan type                                : Progressive2 ?- e, `/ x" `0 ^: \4 f% x
Bits/(Pixel*Frame)                       : 0.3748 @* _% P$ K: @. X8 b
Stream size                              : 10.4 GiB (79%), i$ K, Y6 F. T$ w% z( j5 P$ d
Writing library                          : x264 core 161 r3018+53 ~ Encoded by Mocunaman in Portugal
- m5 _+ b, W1 K9 Q+ r1 o% d3 OEncoding settings                        : cabac=1 / ref=5 / deblock=1:-3:-3 / analyse=0x3:0x113 / me=umh / subme=11 / psy=1 / fade_compensate=0.00 / psy_rd=1.00:0.00 / mixed_ref=1 / me_range=32 / chroma_me=1 / trellis=2 / 8x8dct=1 / cqm=0 / deadzone=21,11 / fast_pskip=0 / chroma_qp_offset=-2 / threads=25 / lookahead_threads=4 / sliced_threads=0 / nr=0 / decimate=0 / interlaced=0 / bluray_compat=0 / constrained_intra=0 / fgo=0 / bframes=9 / b_pyramid=2 / b_adapt=2 / b_bias=0 / direct=3 / weightb=1 / open_gop=0 / weightp=2 / keyint=250 / keyint_min=23 / scenecut=40 / intra_refresh=0 / rc_lookahead=60 / rc=crf / mbtree=0 / crf=17.0000 / qcomp=0.65 / qpmin=0:0:0 / qpmax=69:69:69 / qpstep=4 / vbv_maxrate=62500 / vbv_bufsize=78125 / crf_max=0.0 / nal_hrd=none / filler=0 / ip_ratio=1.30 / pb_ratio=1.20 / aq=3:0.80 / aq-sensitivity=10.00 / aq-factor=1.00:1.00:1.00 / aq2=0 / aq3=0 / zones=35784,39472,crf=16/71008,73155,crf=16/74907,76515,crf=16/83715,87482,crf=16.5/115586,117098,crf=16.5/124208,129200,crf=16.5/135848,144056,crf=16.50 F/ a: U: ]; S, ]  L
Language                                 : English6 G; b9 n* l0 q* u
Default                                  : Yes5 p$ D) J+ ?( I0 m
Forced                                   : No
& V, F9 B. U# w0 MColor range                              : Limited
; L6 T5 Y5 K$ M6 Y$ Y3 `Color primaries                          : BT.709
2 V! J) J, |. y9 J, i+ h  ]Transfer characteristics                 : BT.709
2 n. `( O6 z0 O( q- gMatrix coefficients                      : BT.709
' P7 z8 `( `  @/ E: S! K
7 r# Y8 q' B+ v! C( }2 m0 QAudio. A& Y( h" q, M7 A) i6 C
ID                                       : 28 M) j; M2 \# T; F4 f; N+ S
Format                                   : DTS XLL/ m8 s8 {% e* b; _  x9 K
Format/Info                              : Digital Theater Systems
, ^7 `/ j% C" [! E6 rCommercial name                          : DTS-HD Master Audio
/ _7 \: }4 F( b4 x3 {0 ~+ a& @, HCodec ID                                 : A_DTS' P# w; X8 {8 B: F# j2 d
Duration                                 : 1 h 47 min
( s$ {4 o! h: z( `* kBit rate mode                            : Variable% ~- q# n& o. g7 J9 N
Bit rate                                 : 3 603 kb/s
- [; e. z" ?# A: {2 t' G: K8 xChannel(s)                               : 6 channels/ a+ m7 J8 {' L+ X
Channel layout                           : C L R Ls Rs LFE! |8 T* M  u" N
Sampling rate                            : 48.0 kHz1 a$ u% U4 F: j1 i0 v* T5 o1 e( @
Frame rate                               : 93.750 FPS (512 SPF)
( l* y" ?# k7 Z" H+ x+ bBit depth                                : 24 bits- @+ T) o! \; ?( f, p  x
Compression mode                         : Lossless" v& |4 F0 [$ p0 D+ V' T  [$ v
Stream size                              : 2.71 GiB (21%)
$ B* H- ^/ P  |$ T* wLanguage                                 : English
; G0 X/ D, B+ {% r! sDefault                                  : Yes
% \8 U5 G0 z- V7 h# n% mForced                                   : No, P' \- I4 M8 ~; e) w
5 b6 B% O8 u$ r
Text #15 u: P9 s% `; J1 Y" R# {/ Y4 N* d
ID                                       : 3# W# V+ T2 |3 J( Y. v! [5 |1 c4 Q  B
Format                                   : UTF-8
7 x2 [6 }0 j& }5 cCodec ID                                 : S_TEXT/UTF85 y+ S2 u4 Q! j  z  v: ^
Codec ID/Info                            : UTF-8 Plain Text! E4 L" Y- v* Z5 ]( s
Duration                                 : 1 h 39 min  n0 q# ^% a7 D9 y! ]% f6 t
Bit rate                                 : 66 b/s
& ~* O8 Y  U/ T+ N" r7 d; ^1 ACount of elements                        : 1549
# ^2 T" e( D% z0 w5 YStream size                              : 48.3 KiB (0%)3 w' i3 D& N* s* w7 _8 d
Title                                    : English-SRT' s( O8 ]& q$ K. L9 w
Language                                 : English
: ~% \# ~6 }# b4 T7 a* MDefault                                  : Yes& J7 r& J' P4 a3 e* P6 Z
Forced                                   : No" P  y8 e' r. }& L8 O% z

2 P1 b. t9 y( c. @( dText #2
0 L- D( Z3 a' YID                                       : 4
* A( y% ?: q7 {/ @/ |& EFormat                                   : PGS' o' Y  E% L* \$ U" U
Muxing mode                              : zlib# i* H! y  a9 X! G5 G0 ]) u* e
Codec ID                                 : S_HDMV/PGS( l6 ~7 F; T; Z! I* f
Codec ID/Info                            : Picture based subtitle format used on BDs/HD-DVDs0 W2 W  w' F7 V# e0 a* t7 d/ i( ]
Duration                                 : 1 h 40 min
$ d. c5 ^7 \6 W( D1 tBit rate                                 : 42.5 kb/s
/ k1 P% O+ V, f7 i* e4 _6 h; V8 ZCount of elements                        : 3042
% V, t7 v. m# B2 `9 I, A- l, WStream size                              : 30.5 MiB (0%)
  O% o5 c1 k! Y3 g2 O- X) g5 dTitle                                    : English-PGS
. t2 N6 |3 Z5 @/ E4 Z+ R; KLanguage                                 : English; F8 p# s( f8 w2 E
Default                                  : No
) w3 U, z) Z. O" xForced                                   : No
' S6 q# ^# A1 t: y0 X4 B/ _; W
Text #3
: h  `' u/ r; _; j/ v, [. fID                                       : 51 H' V& w3 }) `% [8 }' B
Format                                   : PGS6 Z$ j( G, q' f- g/ H0 Y0 w
Muxing mode                              : zlib
0 h* H7 z. g/ T! g4 DCodec ID                                 : S_HDMV/PGS2 {, X9 c* D. D1 o* B) O0 V' d" y
Codec ID/Info                            : Picture based subtitle format used on BDs/HD-DVDs' n- q2 B7 x! c8 V
Duration                                 : 1 h 45 min
4 _4 x/ B5 q5 U9 LBit rate                                 : 35.2 kb/s
" x6 l0 y6 U; E- Z4 K8 ^Count of elements                        : 26966 G: p# B- }) c+ l
Stream size                              : 26.6 MiB (0%). s6 i- s+ O& d
Title                                    : French-PGS3 l! r$ g  X( [4 k, T* d% v) w/ [
Language                                 : French
4 q  T! l$ C; ^2 cDefault                                  : No
; q, A, e. a  KForced                                   : No6 A' i! J- f% A  ?. Q

! {+ v! S1 ~8 I) fText #4, K# U& F: D+ U# T, F7 D/ s
ID                                       : 6
' K1 C% e& f: o/ q3 d$ hFormat                                   : PGS1 ]& S- O' X0 @& q# @
Muxing mode                              : zlib
  S$ @3 l. U: p6 k: V+ UCodec ID                                 : S_HDMV/PGS
; L2 @) r; X7 |. D( lCodec ID/Info                            : Picture based subtitle format used on BDs/HD-DVDs
! r/ l1 f: w! e* a* RDuration                                 : 1 h 45 min- {0 ~/ o5 c( e, u
Bit rate                                 : 37.0 kb/s; S  G& z6 a+ n9 H7 ~
Count of elements                        : 2800$ C& q, I  @( O1 d$ y0 |+ k/ q- u
Stream size                              : 28.0 MiB (0%)6 M4 W- j( k+ d  v4 t
Title                                    : Spanish-PGS. |% u( u1 f9 p1 u+ Y; k
Language                                 : Spanish
+ g6 P/ M& ~; d- v" S: T. c% CDefault                                  : No
& D5 X4 V9 v+ n1 Y3 h* qForced                                   : No3 i3 L/ [, H: A% o& o

  \9 P" W. r9 v* ~' b9 y& i0 D5 ~! ZMenu6 I% o% i6 G# d' v4 t5 [
00:00:00.000                             : en:Chapter 1
/ F/ z8 U  [% ]; {/ ~00:04:28.893                             : en:Chapter 20 }$ p# o! t1 c8 m. l2 l: F
00:09:33.656                             : en:Chapter 3
/ H( n0 x; P! g' _- j$ r8 B: O7 N00:16:22.189                             : en:Chapter 4+ S% h) y/ s8 [0 b* }) u
00:24:55.202                             : en:Chapter 59 f" X% G5 g, G% G
00:32:44.837                             : en:Chapter 6
. c- S1 i3 Y( Y9 W4 h00:37:57.984                             : en:Chapter 7
5 ~% g9 I% [/ K$ o00:45:51.165                             : en:Chapter 8' F8 ~# Z" d+ q* p0 i9 v. w
00:50:51.214                             : en:Chapter 9
7 N8 j0 I  `, N2 R00:56:12.118                             : en:Chapter 10" Y# X' Z% O: O0 Z
01:02:20.987                             : en:Chapter 11; w, ?) N! H3 m% j( D6 F) y
01:11:14.853                             : en:Chapter 12
+ N# S: H$ a0 y: d  X% b4 N01:20:20.440                             : en:Chapter 13
8 {4 e8 q  v- P5 |3 p01:25:20.782                             : en:Chapter 14
- s. a2 @) P& b& G" i0 r/ H4 K01:30:56.451                             : en:Chapter 15! W% g/ O) M4 O& G% b! Y1 _
01:36:50.888                             : en:Chapter 16
Video% K. I. ~& ^1 Q+ U
ID                                       : 1
. `1 W2 y+ b$ R: JFormat                                   : AVC
1 G- Q& I3 L' w6 Q) h8 pFormat/Info                              : Advanced Video Codec! b; L" c- n- f0 K
Format profile                           : High@L4.1$ A. D: V& G, a
Format settings                          : CABAC / 5 Ref Frames; K& K9 ^$ q& G( H0 j. X/ `
Format settings, CABAC                   : Yes
3 B9 w/ A& r& @- u7 QFormat settings, Reference frames        : 5 frames: I5 ]. v% e( ?
Codec ID                                 : V_MPEG4/ISO/AVC: x8 X/ n( W; u! H+ I, o
Duration                                 : 1 h 47 min' W3 v( V- w/ z5 _" R
Bit rate                                 : 15.8 Mb/s
% ~/ V+ u1 G5 R4 a& HWidth                                    : 1 920 pixels, G% [. v- w, d
Height                                   : 804 pixels. v8 X! C6 a/ P! F2 u% S% v, F- l
Display aspect ratio                     : 2.40:14 o' _4 c4 U/ D# k0 S0 Z
Frame rate mode                          : Constant8 c, J$ ^& R: [& p; u
Frame rate                               : 23.976 (24000/1001/37687) FPS7 m" O$ S, D, G6 Y7 W6 N
Color space                              : YUV
6 ^0 q' F; g2 a( G8 |% |" xChroma subsampling                       : 4:2:0% x" t& b$ Z) e6 |
Bit depth                                : 8 bits1 a3 a  N( R5 N1 U! k5 u7 {
Scan type                                : Progressive- Q' |! B, @, Q. L
Bits/(Pixel*Frame)                       : 0.4266 E  c& b! X7 D1 y0 A- `6 j0 d% ], L
Stream size                              : 11.8 GiB (81%)$ T0 Q- e3 H& i9 P$ o
Writing library                          : x264 core 161 r3018 db0d417
* K  I' Z- I' S/ I. l& vEncoding settings                        : cabac=1 / ref=5 / deblock=1:-3:-3 / analyse=0x3:0x133 / me=umh / subme=10 / psy=1 / psy_rd=1.20:0.00 / mixed_ref=1 / me_range=24 / chroma_me=1 / trellis=2 / 8x8dct=1 / cqm=0 / deadzone=21,11 / fast_pskip=0 / chroma_qp_offset=-2 / threads=6 / lookahead_threads=1 / sliced_threads=0 / nr=0 / decimate=0 / interlaced=0 / bluray_compat=0 / constrained_intra=0 / bframes=8 / b_pyramid=2 / b_adapt=2 / b_bias=0 / direct=3 / weightb=1 / open_gop=0 / weightp=2 / keyint=250 / keyint_min=23 / scenecut=40 / intra_refresh=0 / rc=crf / mbtree=0 / crf=16.0 / qcomp=0.60 / qpmin=0 / qpmax=69 / qpstep=4 / ip_ratio=1.40 / pb_ratio=1.30 / aq=3:0.90
) `9 P) _8 m* |% q* _2 x4 ?Default                                  : Yes
; O6 I- F" a- ?9 ?2 oForced                                   : No$ F3 D6 l" l& |5 i( N
Color range                              : Limited. [; u8 G6 A, Z; Y; Z: Q8 i& T
Matrix coefficients                      : BT.709$ Q6 ]7 W+ l' @* R1 h
Audio
0 B4 s- T6 G$ XID                                       : 2. K/ i$ G. y* n
Format                                   : DTS XLL
& F- u0 [2 n. v0 d; y2 SFormat/Info                              : Digital Theater Systems& ^3 T) B7 ^" n, {% @  w
Commercial name                          : DTS-HD Master Audio
3 c0 N, z& {3 g9 u; c3 [0 RCodec ID                                 : A_DTS' _# D# K6 ?+ e  U% U
Duration                                 : 1 h 47 min" I( @5 j* i* j9 m" L2 ~! j
Bit rate mode                            : Variable! h; @# h! W& C" W. U
Bit rate                                 : 3 603 kb/s$ G# g. Y9 v% G6 B
Channel(s)                               : 6 channels( j9 o! I; j/ i/ [0 w; M; [, o  C
Channel layout                           : C L R Ls Rs LFE
6 y3 U* P0 U( X  K; W; K) TSampling rate                            : 48.0 kHz
9 m' X1 c. C/ `' d9 dFrame rate                               : 93.750 FPS (512 SPF)! V8 ^# {& m6 H; m7 H+ i
Bit depth                                : 24 bits
* E' g* T, h. x: u0 }1 b  }1 oCompression mode                         : Lossless5 d2 e: `7 @- {
Stream size                              : 2.71 GiB (19%); _7 j3 H1 T$ B6 K
Language                                 : English
5 c& }  r$ y6 D1 ADefault                                  : Yes
; L2 g  C4 B1 `/ j4 m) U. SForced                                   : No
9 ^, ~/ F- R  @, C  I; `Text #11 ^( b' v3 }* q$ F: t4 W' {# W; T+ ?* q
ID                                       : 3- s! N6 c! f- y  W! W
Format                                   : PGS& M  I( J6 M4 g9 H  d
Muxing mode                              : zlib( \! H: W7 p1 D/ ~1 G6 a
Codec ID                                 : S_HDMV/PGS+ L! q( L# a7 w  j
Codec ID/Info                            : Picture based subtitle format used on BDs/HD-DVDs3 r) a& O8 T( [+ s5 c1 r
Duration                                 : 1 h 40 min
4 {5 U. |$ X3 |+ E% R3 _Bit rate                                 : 42.5 kb/s
8 E/ A9 e+ ~! H. MCount of elements                        : 3042) X8 g) o1 Y: j+ c2 @- r
Stream size                              : 30.5 MiB (0%)  t% H6 C3 D3 d/ [1 f7 p
Title                                    : SDH
5 D! }% [) ^8 S/ y$ O4 U! cLanguage                                 : English
! K7 Y# f: s$ F' F: U" K2 tDefault                                  : No
6 I( v; K( a/ m3 Z4 V/ SForced                                   : No
! ^' {  U* H6 R& BText #23 x7 r3 G9 i8 E  }. ~% g, M* X7 w
ID                                       : 49 Y( }8 }! r: f5 {2 d
Format                                   : PGS
0 k* h. O; G% I/ v4 d7 iMuxing mode                              : zlib
& c- B* j& j7 k: [2 J8 l% lCodec ID                                 : S_HDMV/PGS( n0 K. V& `8 r& j; y
Codec ID/Info                            : Picture based subtitle format used on BDs/HD-DVDs3 a9 K6 Y: F6 F# T9 R! J
Duration                                 : 1 h 45 min
5 p% u' S1 z% k# bBit rate                                 : 35.2 kb/s1 @' N% o4 ~) i
Count of elements                        : 26969 l, z7 \! n, K, Z( ?  v! z% _
Stream size                              : 26.6 MiB (0%)
2 \2 |3 C9 p2 \Language                                 : French. _3 _2 H2 b4 B- p! d( l
Default                                  : No
7 b& K) v* |# eForced                                   : No
" q! g  \+ Q5 E2 L- `Text #3' c' `8 y0 f4 ?. x( e
ID                                       : 5; M) r9 J3 f1 x9 g* U5 m6 a
Format                                   : PGS
9 P% f* V& d: [0 z  T$ n8 z$ _/ k. lMuxing mode                              : zlib
$ T% j2 J4 ?8 V5 a, j/ NCodec ID                                 : S_HDMV/PGS4 v9 W' q- }! c
Codec ID/Info                            : Picture based subtitle format used on BDs/HD-DVDs" V9 s6 Z, K$ R/ A
Duration                                 : 1 h 45 min
, M5 ^1 Y1 A5 ^Bit rate                                 : 37.0 kb/s
3 ?6 ^8 x# U2 {Count of elements                        : 2800
; H( q/ Y  ?! r$ k# [) S2 p8 |6 RStream size                              : 28.0 MiB (0%)
  R% p7 u" H& @; X9 B; }Language                                 : Spanish" s( }9 I9 ]+ [- t) E! Q; k
Default                                  : No& i% t2 H: C6 R8 P) d' Q
Forced                                   : No2 H' A% W; D0 j, [
Menu
* [- ~5 U; b9 |4 u/ ]7 _4 z% t6 }00:00:00.000                             : en:Chapter 01
  J, o( w7 T1 j# l6 G% e; ~/ m7 I: b00:04:28.894                             : en:Chapter 02; v8 Y% k+ a4 i8 q7 V+ m! R8 g
00:09:33.656                             : en:Chapter 03; B" H5 t6 y+ ?) u/ A
00:16:22.190                             : en:Chapter 041 @* f! v% U- W5 M) }$ _' Y: w4 J
00:24:55.202                             : en:Chapter 05
9 L; {) C5 u# S5 H: B00:32:44.838                             : en:Chapter 064 d% V& l! \; v) f' m# E* h- W
00:37:57.984                             : en:Chapter 07: |/ H* ?4 G/ G: f
00:45:51.165                             : en:Chapter 08
8 \2 l( f' a7 l0 Z& z1 _00:50:51.215                             : en:Chapter 09% F( Z) R/ h" {9 H" c/ n' r: _
00:56:12.119                             : en:Chapter 101 ?) L: s9 L& O. f
01:02:20.987                             : en:Chapter 11- L! l2 @# [: d( h
01:11:14.854                             : en:Chapter 12
' x+ m, ?' h9 b! a  k01:20:20.441                             : en:Chapter 13: L; U2 H2 W- C+ j- i
01:25:20.782                             : en:Chapter 14" g2 V3 ~; k3 @9 E( f! x+ R0 Z
01:30:56.451                             : en:Chapter 15* o% ^9 D- S8 e+ v: j) G. g( [
01:36:50.888                             : en:Chapter 167 D( n+ _& E7 y% s* n# ^

- C( Q4 f: Z! ]( u* \7 f1 VThe.Secret.Dare.to.Dream.2020.1080p.BluRayCD.x264-SOIGNEUR
( S& C& p6 s2 }, ~3 L
( ]1 ?, o; J! z( _6 F% Y2 W$ KLenght.....: 1h47min
; L' r" F/ i/ N' O1 [  [& s, eVideo......: 15.751Kb/s (1920x804 / 23.976fps / CRF 16.0): l1 C% r- m, z3 M; x1 @* t) f
Source.....: 35.312Kb/s
, R* H; E$ O( S! ^7 ZAudio......: English DTS-HD MA 5.1& G6 [  [+ v5 `; x; {, ?; a4 b
Subtitles..: English SDH SDH / French / Spanish" e, r5 Q. `! a$ P0 u/ K
IMDB.......: https://www.imdb.com/title/tt4411584

, l# P, G6 i% [2 e7 [
游客,查看本帖隐藏内容请回复 | 加入VIP贵宾组可免积分免回复下载 了解详情 | 还不是会员:点击获取邀请码 Invitation Code

本版积分规则

小黑屋|Archiver|蓝光电影资源网

GMT+8, 2020-12-2 13:36

快速回复 返回顶部 返回列表