BluRayCD Forum

 找回密码
 立即注册【分享大片】

QQ登录

只需一步,快速开始

查看: 71|回复: 9
收起左侧

[动作战争] 急先锋电影版 Vanguard 2020 CHINESE 1080p BluRaycd x264 DTS-HD MA 5.1 & TrueHD 5.1-FGT 10.37GB & 11.01GB

[复制链接]

4218

主题

4593

帖子

4万

积分

Post Share

金币
8307 枚
体力
7360 点

卓越贡献勋章

mvods 发表于 2020-12-21 00:32:21 | 显示全部楼层 |阅读模式

' F7 H6 j! L1 h5 R. E" t, D5 K1 I; @4 x" G7 x0 P
◎译  名 急先锋/急先锋电影版0 U# F; ^+ z0 l1 G7 m- T
◎片  名 Vanguard
+ |) Z: D+ B) ?4 D/ U) E/ f" B  I◎年  代 2020
( I9 T1 P# f; K0 K! w) V◎产  地 中国大陆
  ~! x: C6 Z$ r1 i- E/ _3 n◎类  别 动作* b: N( i0 z& s7 G& J
◎语  言 汉语普通话9 N8 t* j' @; @, M
◎上映日期 2020-09-30(中国大陆)
# A: h6 @; E% S6 C◎IMDb评分  4.6/10 from 1,837 users1 D- ]! S* n, Z5 _) Z6 i" z$ h+ a$ }
◎IMDb链接  https://www.imdb.com/title/tt9695722/
6 I7 l) ~7 S) ?/ G◎豆瓣评分 4.6/10 from 57,797 users
8 ^3 U7 s4 r- a3 W9 `) W8 v) E2 o* G$ r◎豆瓣链接 https://movie.douban.com/subject/27195078/; Y: l/ J4 |  X0 w2 ~* i0 D' H9 m
◎片  长 1 h 47 min
1 [; n5 f# P$ {! {" |◎导  演 唐季礼 Stanley Tong
9 E: U2 H6 E& J5 d3 d◎编  剧 唐季礼 Stanley Tong
- y1 `3 L/ P6 B4 ?4 @◎主  演 成龙 Jackie Chan7 \+ k4 A# l8 P. b
       杨洋 Yang Yang2 Z# A) @' Y- f
       艾伦 Allen
5 z4 n/ {$ E2 Q8 e- h0 M       徐若晗 Ruohan Xu
8 o9 r2 r$ d5 F6 l5 ^. m       母其弥雅 Miya Muqi
( K7 K8 Y! ^3 k# T/ q       朱正廷 Zhengting Zhu8 ]% ]0 r: O* ?* f, x' p1 p
       楼学贤 Jackson Lau Hok-Yin
) z0 h: L. V* A- |2 R" x       郭芷妍 Nikita
5 a  M, F* {! d8 F; _. K  q       埃亚德·胡拉尼 Eyad Hourani0 [7 D0 z% Z; }3 Q) `: ^; a) M" X
       杨建平 Jianping Yang& [* N$ w: |* ?5 P: w% ~) l1 j
       周斌 Bin Zhou
; c$ \0 u9 Q0 |0 \( s) V, C  a. P       王延龙 Yanlong Wang
9 o3 P% u, M# G% r9 t& w$ }% X       王驹: a1 w) K$ B! }5 g1 b. q, G: F4 U
       唐季礼 Stanley Tong
: j7 J$ e2 m% t  B$ B" k  p       杰古 Diego Dati) n) u# c  e5 P8 R0 _$ D, u* a- L: x

, `/ p+ r# x) @) g1 M◎标  签 动作 | 喜剧 | 2020 | 冒险 | 中国大陆 | 军事 | 3D | 成长, H4 U* n" X# }; }

: n" ?, R% L* u7 O  D% u◎简  介  
# V6 I7 `. m- z3 j6 {( ]1 j. _) v. n: O1 E
  中国商人秦国立在英国惨遭雇佣兵组织“北极狼”绑架,秦的女儿Fareeda(徐若晗 饰)也卷入其中,遭到追杀。千钧一发之际,急先锋国际安保团队成为他们唯一的希望,由总指挥唐焕庭(成龙饰)带领雷震宇(杨洋饰)、张凯旋(艾伦饰)、弥雅(母其弥雅饰)、神雕(朱正廷饰)等组成的急先锋行动小组,上天入地,辗转全球各地施展惊险营救。解救人质的过程中,竟发现“北极狼”背后的犯罪集团还策划了一场惊天密谋……; h8 t. s5 s3 c9 q
! e& E: ]4 s0 v
  Covert security company Vanguard is the last hope of survival for an accountant after he is targeted by the world's deadliest mercenary organization.
! e% d; s7 A! r/ ^7 Y& k, B
Video
( D2 A5 u; u! s$ M6 b! z1 jID                                       : 1
% n$ C/ L: F7 K0 m- O( X0 L- pFormat                                   : AVC! y/ Q8 Z& z% T- d/ b" ]
Format/Info                              : Advanced Video Codec: x' s3 B. G' P5 g, R
Format profile                           : High@L4.1  R# `. f$ G( x
Format settings                          : CABAC / 4 Ref Frames
* H6 D" X$ e! ~: r  g% tFormat settings, CABAC                   : Yes
3 h9 z" h5 }3 EFormat settings, Reference frames        : 4 frames
* e# |  ~+ {6 A5 G! QCodec ID                                 : V_MPEG4/ISO/AVC9 `, O/ j0 s* |$ I9 d
Duration                                 : 1 h 47 min
( G) p0 @1 a+ ~% J- o$ u/ `8 eBit rate                                 : 11.5 Mb/s; J  l6 F9 [9 a
Width                                    : 1 920 pixels: S0 i* w! N3 Q, X4 v
Height                                   : 804 pixels
" d: N) e( e* {Display aspect ratio                     : 2.40:1  [& @4 M. I9 v; W; }- X, E9 V
Frame rate mode                          : Constant
: M: ~. N0 }+ F4 TFrame rate                               : 24.000 FPS
6 h! T' S$ ?/ U% GColor space                              : YUV7 U3 k/ N4 F) l4 _3 `
Chroma subsampling                       : 4:2:0
# w7 p! N8 k7 }+ |/ P% Z3 RBit depth                                : 8 bits' K. N3 ?6 B: X+ }2 ~
Scan type                                : Progressive
/ n) V2 |/ C# \/ I& _; M: @1 XBits/(Pixel*Frame)                       : 0.310
, r6 \/ M* U# G$ b; q/ l& |Stream size                              : 8.61 GiB (83%)
! e4 `, C% s& FWriting library                          : x264 core 148 r2748 97eaef2
( f2 o* s# r# V5 C9 IEncoding settings                        : cabac=1 / ref=4 / deblock=1:-2:-2 / analyse=0x3:0x113 / me=umh / subme=9 / psy=1 / psy_rd=1.00:0.15 / mixed_ref=1 / me_range=16 / chroma_me=1 / trellis=2 / 8x8dct=1 / cqm=0 / deadzone=21,11 / fast_pskip=1 / chroma_qp_offset=-3 / threads=72 / lookahead_threads=3 / sliced_threads=0 / nr=0 / decimate=1 / interlaced=0 / bluray_compat=0 / constrained_intra=0 / bframes=3 / b_pyramid=2 / b_adapt=1 / b_bias=0 / direct=3 / weightb=1 / open_gop=0 / weightp=2 / keyint=250 / keyint_min=25 / scenecut=40 / intra_refresh=0 / rc_lookahead=50 / rc=2pass / mbtree=1 / bitrate=11500 / ratetol=1.0 / qcomp=0.60 / qpmin=0 / qpmax=69 / qpstep=4 / cplxblur=20.0 / qblur=0.5 / vbv_maxrate=31250 / vbv_bufsize=31250 / nal_hrd=none / filler=0 / ip_ratio=1.40 / aq=1:1.00% k3 {2 |1 Y4 h1 @% o1 ]2 [
Language                                 : English) C" l, N/ o$ `
Default                                  : Yes
( }8 h+ g* X7 e9 J: ]4 R' iForced                                   : No# M# J1 N+ X0 N$ e5 A* t: x
8 \  g; A7 P* V  [3 T
Audio4 ?( h0 T! w& ^
ID                                       : 25 `& t0 m% B  Y2 e# |
ID in the original source medium         : 4353 (0x1101)
' g2 M- p& R% {# h! s4 iFormat                                   : DTS XLL7 `+ W/ S- ^# q5 X: a) F# o8 e% a
Format/Info                              : Digital Theater Systems; E- k4 f3 S7 j: l4 d' k: x) N
Commercial name                          : DTS-HD Master Audio
  o- e2 C* d& X+ fCodec ID                                 : A_DTS  s9 `4 c+ y% J- N
Duration                                 : 1 h 47 min  J/ k% A9 r+ r7 `
Bit rate mode                            : Variable3 ^4 d: {, ?# s- j" H3 F5 _
Bit rate                                 : 2 325 kb/s' ^* _$ Y' v- C; R" p( r: ~
Channel(s)                               : 6 channels2 E$ M) f6 J- b8 l% @1 m$ X
Channel layout                           : C L R Ls Rs LFE
. f# x; f9 G% m" NSampling rate                            : 48.0 kHz! _0 d1 {1 {- _. x+ S: k
Frame rate                               : 93.750 FPS (512 SPF)( _3 Q8 J# }* w" l
Bit depth                                : 16 bits4 \# N' ^5 e" f" t
Compression mode                         : Lossless2 g% F! t' P& f. y$ H
Stream size                              : 1.74 GiB (17%)9 L& z9 z8 R. @$ g* C, _& ?4 J
Title                                    : DTS-HD MA 5.1: Y4 t% O* D; `0 H3 i5 t
Language                                 : Chinese7 W4 `) i3 B9 w- }$ [: U3 `
Default                                  : No9 I; s8 E) r4 U
Forced                                   : No" \7 i4 ]/ p; ?+ [. t2 J
Original source medium                   : BluRayCD.com" target="_blank" class="relatedlink">Blu-ray+ b# h- G9 z/ q9 p- F* E- O

' F  b2 |/ y" tText #1
8 \( S  W) d% J! WID                                       : 3
, L& E- C8 \: H+ _3 J2 `Format                                   : UTF-8
% U5 b2 r9 w! [( t! aCodec ID                                 : S_TEXT/UTF8
( F& O2 T3 U; l1 d' _+ Z" \Codec ID/Info                            : UTF-8 Plain Text1 b: q5 s8 l" X/ O
Duration                                 : 1 h 38 min
; M2 Q3 M, u9 P3 _Bit rate                                 : 36 b/s
5 C- H  A* ]2 a& v7 o# W) GCount of elements                        : 1316
2 i) T. J! f0 z+ B  Z- _1 ~6 s( wStream size                              : 26.4 KiB (0%)! ~4 A" Q3 m& t$ M2 Q  ^- ?$ R
Title                                    : English-SRT8 f9 \) J; B. L' I9 J
Language                                 : English
: f  e' g7 [* W) {$ T& IDefault                                  : Yes
+ e# H/ C. o; z9 y% _Forced                                   : No3 w% |- J; Y+ d4 T, H; D- N% V

5 p! n, Q+ r/ r! G# V+ P* PText #2
% M1 z3 ]3 t' E1 x1 FID                                       : 4, d. J' k. t' P4 S
ID in the original source medium         : 4608 (0x1200)
2 u2 q* w# @# S! |4 sFormat                                   : PGS
9 B" K" d( S$ W* Z% c" c% U9 PMuxing mode                              : zlib9 v7 s; b  l* P/ {8 p; w
Codec ID                                 : S_HDMV/PGS, K( b  F1 @$ o# t; A- K/ j" b
Codec ID/Info                            : Picture based subtitle format used on BDs/HD-DVDs8 f* k! B* \( E# H5 K, F; G, j
Duration                                 : 1 h 38 min* I6 Y$ A; @' m. T. `$ D3 t
Bit rate                                 : 26.6 kb/s. _2 Z: d( h0 J! L. _
Count of elements                        : 2300, A' ~) c$ Y. V+ ?  ~2 R$ W
Stream size                              : 18.7 MiB (0%)
0 e& |3 {. \6 e5 A# sTitle                                    : Chinese-PGS4 Z; [5 ~: A% Q5 F4 A
Language                                 : Chinese# C# d: b4 b! F1 q
Default                                  : No
1 M% |: S2 d6 O' H! ?! d# f/ n) kForced                                   : No
3 o0 p, R  j$ D1 o' MOriginal source medium                   : Blu-ray
, _+ }) E9 q  S8 R! Y, Y$ A0 b
# I* y6 _2 F+ TText #3
2 [; E6 |# A/ v1 Y+ e# f! ~. r. q6 jID                                       : 5
4 }: V* ]( Z7 @& r9 y1 [ID in the original source medium         : 4609 (0x1201)  P8 v. ]2 ~/ i$ @/ p
Format                                   : PGS
  x3 _4 }& j. C: eMuxing mode                              : zlib# D" ?$ }7 j& M+ Y
Codec ID                                 : S_HDMV/PGS
( `# F) ^- L4 o. q  \2 v* ]0 LCodec ID/Info                            : Picture based subtitle format used on BDs/HD-DVDs* u" t  L' i" e# j
Duration                                 : 1 h 38 min4 R$ `/ u: Z, [. W: j9 Z
Bit rate                                 : 26.1 kb/s7 L4 h+ B8 \6 j0 I1 i8 H
Count of elements                        : 2300. t  v( w1 k  x6 {( m& E+ c+ M2 H
Stream size                              : 18.3 MiB (0%)' V" o+ I! S% o9 e+ w5 B
Title                                    : Chinese-PGS
2 I. G! d. K7 U$ q% jLanguage                                 : Chinese
# G, D; ?5 e$ oDefault                                  : No' Z- T7 h6 w9 A8 l6 N/ m9 o, W
Forced                                   : No
- m3 u/ n9 b& YOriginal source medium                   : Blu-ray
, P" A6 h5 i5 ?7 N0 Z/ f1 n  Y
( C3 s" a6 r: ~* m0 L& sText #4+ p2 x% Y' S/ k; f
ID                                       : 6
9 J  u  l0 ?; S6 eID in the original source medium         : 4610 (0x1202)
4 F7 h, Q/ T2 z9 B; P. ~8 }Format                                   : PGS: o0 U' b' j+ R! B8 A% K( B0 r$ P
Muxing mode                              : zlib7 L! X" Z7 V4 s
Codec ID                                 : S_HDMV/PGS7 @$ T8 O% R# G& Y1 k# \
Codec ID/Info                            : Picture based subtitle format used on BDs/HD-DVDs
2 L& U4 ]$ {  ~) E' w' T# {+ ZDuration                                 : 1 h 38 min$ K  ?; T+ ]! Z7 A8 A
Bit rate                                 : 30.3 kb/s
  o# K1 [, E2 Q" ^+ p1 ^7 j) GCount of elements                        : 2300
) g$ \# n. e" L9 Q+ W- eStream size                              : 21.3 MiB (0%)$ q+ K9 B0 q7 x+ u; Q! H- Q% m
Title                                    : English-PGS
8 H" T7 |" p& P/ uLanguage                                 : English' r3 c9 X9 v7 [9 e! W% q- F
Default                                  : No
1 }  n3 u2 a" @( L8 JForced                                   : No
" m7 j# [6 V% Q6 L0 }' j. q- GOriginal source medium                   : Blu-ray8 q+ m8 o( O3 d. }" O1 I

7 C8 r. S3 O% CMenu
+ h) e8 H/ L- B4 y' @00:00:00.000                             : en:Chapter 01
9 A! }: Z# X) M4 w4 j3 {6 T00:09:28.750                             : en:Chapter 025 J+ s0 t* ?( d8 y
00:18:20.083                             : en:Chapter 03
; x* ^- L+ ~, C00:26:45.958                             : en:Chapter 04
  r" j4 k" F% a5 F0 r$ h00:36:07.208                             : en:Chapter 059 q2 S, a$ M, S
00:45:34.708                             : en:Chapter 069 v4 p4 [$ p( e( e( B8 [# k
00:53:20.750                             : en:Chapter 07
+ G2 i" N& q# k2 q8 T01:02:13.458                             : en:Chapter 08
! z3 e: W( z+ x( ], a$ Y/ ?/ I01:10:39.500                             : en:Chapter 099 b" K" ]& U% W+ h. g6 K
01:19:55.958                             : en:Chapter 10
# D( K, u! L' ^* D; i5 w! c+ |; v01:29:10.041                             : en:Chapter 111 D+ C4 b/ Y( M- b0 Z+ f& L
01:33:06.583                             : en:Chapter 12
Video% f& |+ Z7 x7 J* H' q0 S
ID                                       : 1( d$ |7 K# \5 Q" c& n2 b
Format                                   : AVC+ u6 r0 r, a3 T  Y& `. |
Format/Info                              : Advanced Video Codec
8 Q# `" j- b% B$ c2 g5 r' TFormat profile                           : High@L4.1$ C4 O. k: @, c8 d5 g4 g
Format settings                          : CABAC / 4 Ref Frames
/ X5 _( W& U4 LFormat settings, CABAC                   : Yes1 C" ]/ v% V. K% j
Format settings, Reference frames        : 4 frames
2 ~2 U  \! G% iCodec ID                                 : V_MPEG4/ISO/AVC
+ W% p8 G2 B& ^! X8 a( `Duration                                 : 1 h 47 min
4 C0 k1 c- T+ M+ TBit rate                                 : 11.5 Mb/s: _4 l- P6 G: b5 |2 Z9 l
Width                                    : 1 920 pixels" d9 x, d# ^7 T" I+ m( g
Height                                   : 804 pixels
/ M  r8 Z9 v% Z( ]Display aspect ratio                     : 2.40:1
* V/ ]. b6 W2 p3 ]1 YFrame rate mode                          : Constant
. U+ W0 I9 x! P* t! P( D: ^) |$ hFrame rate                               : 24.000 FPS/ y+ g% i; y4 m
Color space                              : YUV8 d0 ~5 I( K  e0 p. r4 s: G, w6 g
Chroma subsampling                       : 4:2:05 i& K. h1 M; V2 `$ W1 u- |
Bit depth                                : 8 bits" s" k; l( y3 T* y
Scan type                                : Progressive
4 D  ?7 ?5 E5 E' X; F6 S7 \Bits/(Pixel*Frame)                       : 0.310; v: ]  C, D' H8 E8 J; j7 _
Stream size                              : 8.61 GiB (78%)" S+ z* z- H$ t$ D8 H
Writing library                          : x264 core 148 r2748 97eaef2
- \2 X7 [$ |  a! m: xEncoding settings                        : cabac=1 / ref=4 / deblock=1:-2:-2 / analyse=0x3:0x113 / me=umh / subme=9 / psy=1 / psy_rd=1.00:0.15 / mixed_ref=1 / me_range=16 / chroma_me=1 / trellis=2 / 8x8dct=1 / cqm=0 / deadzone=21,11 / fast_pskip=1 / chroma_qp_offset=-3 / threads=72 / lookahead_threads=3 / sliced_threads=0 / nr=0 / decimate=1 / interlaced=0 / bluray_compat=0 / constrained_intra=0 / bframes=3 / b_pyramid=2 / b_adapt=1 / b_bias=0 / direct=3 / weightb=1 / open_gop=0 / weightp=2 / keyint=250 / keyint_min=25 / scenecut=40 / intra_refresh=0 / rc_lookahead=50 / rc=2pass / mbtree=1 / bitrate=11500 / ratetol=1.0 / qcomp=0.60 / qpmin=0 / qpmax=69 / qpstep=4 / cplxblur=20.0 / qblur=0.5 / vbv_maxrate=31250 / vbv_bufsize=31250 / nal_hrd=none / filler=0 / ip_ratio=1.40 / aq=1:1.00& U, M/ n$ U8 ^: ?5 H
Language                                 : English
- m7 S( [( s; r4 E8 `Default                                  : Yes
9 j! o$ q( W- ^; l# ZForced                                   : No
" M* O9 ~$ N+ X: c% U
! o$ p5 ]& A* g% i' L- n$ cAudio #1
2 p3 G& q1 y, l4 p3 oID                                       : 2
/ ]7 q1 C, ?) j& W+ a3 v  ^5 uID in the original source medium         : 4352 (0x1100)( j/ m. w% e& a5 j3 R) O
Format                                   : MLP FBA. K2 |. o, X+ t1 Q) y( p; ^4 Z
Format/Info                              : Meridian Lossless Packing FBA
8 P$ V6 B  H. ^  ?Commercial name                          : Dolby TrueHD9 y1 V0 T9 e: n0 n* Z
Codec ID                                 : A_TRUEHD
, q. @/ m1 `: p/ W* C" N# J) MDuration                                 : 1 h 47 min
  k: J$ h4 W. X% ~) qBit rate mode                            : Variable* q# t2 M, X5 u, Y: M0 Q( ^1 b
Bit rate                                 : 2 473 kb/s' j' L, q5 `* L4 j# ]/ ]
Maximum bit rate                         : 4 944 kb/s
; s. \1 N; d- EChannel(s)                               : 6 channels9 x7 G2 m1 r& o3 M$ e/ r8 o
Channel layout                           : L R C LFE Ls Rs" i1 q6 Z( |$ @
Sampling rate                            : 96.0 kHz. P+ N  G6 r  ^/ f5 w1 x
Frame rate                               : 1 200.000 FPS (80 SPF)3 ?8 }9 C: l3 y+ U1 c1 g2 q, X
Compression mode                         : Lossless$ U; K$ e* D# N/ C* y8 E. P
Stream size                              : 1.85 GiB (17%)
( P% s7 ?, Q8 \. n) {! \Title                                    : TrueHD 5.1) x* ?$ u2 I0 b) r1 |4 @* S2 E
Language                                 : Chinese% y# E! }/ s; Y
Default                                  : Yes) ~" g* E6 V2 M
Forced                                   : No
0 ^( ]& \& s) Z) |: a/ eOriginal source medium                   : Blu-ray. ?) s$ q& j+ f2 B$ c
8 n- a% T* d3 I0 L5 ?2 J0 W
Audio #2; K2 E6 }/ x+ v. i" I7 p2 z% Z
ID                                       : 3
0 P$ n5 t+ H* u$ ^5 |% E4 W5 PID in the original source medium         : 4352 (0x1100)$ D& f9 R9 O6 e( _0 P6 V
Format                                   : AC-3- P0 V4 n; S$ Z. z, q
Format/Info                              : Audio Coding 3# Q" z. p' j; F8 ?
Commercial name                          : Dolby Digital
7 q, J! J8 j$ d/ j" T. HCodec ID                                 : A_AC33 y: A! g% R/ ^. b, a
Duration                                 : 1 h 47 min
# y8 u$ H: ]. B2 O$ n6 XBit rate mode                            : Constant8 y+ \1 z  P$ }2 X) v
Bit rate                                 : 640 kb/s
$ w7 V0 \* g) m) ?. lChannel(s)                               : 6 channels3 i( D% Y/ h8 ]% z$ o5 x
Channel layout                           : L R C LFE Ls Rs5 w, R8 E7 S8 M3 \  r
Sampling rate                            : 48.0 kHz
; Q& Z+ t1 h& Y; PFrame rate                               : 31.250 FPS (1536 SPF)7 n; h5 e$ u  p. ~
Compression mode                         : Lossy
& c) W% m" y4 p5 \8 @Stream size                              : 491 MiB (4%)) z# a7 [& Q: X4 I9 q0 L
Title                                    : DD 5.1
" |6 k! h+ c1 o2 f9 S- pLanguage                                 : Chinese9 E$ D( ^+ J' x0 L0 ?( b
Service kind                             : Complete Main
! q3 h/ \% {5 i4 YDefault                                  : No) m' B0 R+ d8 w
Forced                                   : No
. H1 \3 S% u+ |9 V  r$ [Original source medium                   : Blu-ray
! n. u6 r3 [4 u% N( X* }6 n; k% n7 A- d& |# m
Text #1
& R( D1 ]$ X  `9 k. lID                                       : 49 |3 ^. x: W- l. J# @4 B# Z. S
Format                                   : UTF-89 C- k$ q4 X7 B  |9 r6 d
Codec ID                                 : S_TEXT/UTF8
' S0 u! \5 s0 L  @0 K7 V: }Codec ID/Info                            : UTF-8 Plain Text
  |$ s1 R- X5 n# T5 WDuration                                 : 1 h 38 min
/ M. p  F# |) r  v0 z/ E$ X3 N4 tBit rate                                 : 36 b/s
$ I# c1 \% X8 V1 nCount of elements                        : 1316
$ f  m* r! h! _7 h# bStream size                              : 26.4 KiB (0%)) r$ S8 X) ^# c. K* R' _$ n; L
Title                                    : English-SRT, X! Q9 Q/ \9 C
Language                                 : English
3 H! w! X' u/ }$ E" L8 G  iDefault                                  : Yes
! R7 e( L$ `; xForced                                   : No
" [8 z( _  F* A( H
% G( K, C! E6 p1 K4 qText #2( [( s) t) j' S7 P2 G0 [
ID                                       : 5! k" A! \1 U5 N7 s: \% F
ID in the original source medium         : 4608 (0x1200)7 Y7 l# m$ J8 l& q! r
Format                                   : PGS0 g# i' m- a' A* g
Muxing mode                              : zlib* B) _( y- I! K( J' Z
Codec ID                                 : S_HDMV/PGS. r' L8 E3 N) s3 `2 [9 Q0 K
Codec ID/Info                            : Picture based subtitle format used on BDs/HD-DVDs+ V) I( k: ~% b: N
Duration                                 : 1 h 38 min+ U, r: ~, _- N$ R' i/ G
Bit rate                                 : 26.6 kb/s
5 T2 B: Q  G& p' NCount of elements                        : 2300
% t) j" y6 H  z5 R8 j7 DStream size                              : 18.7 MiB (0%)
* q; }! S& P* eTitle                                    : Chinese-PGS
8 W$ r; q6 c' i; k+ K+ m; V; uLanguage                                 : Chinese+ q4 N) g$ _* w4 h$ [! k4 W  Y% s" o
Default                                  : No0 _) }) h  I4 n1 F4 g) c+ I
Forced                                   : No2 q1 V% x8 g0 g; r
Original source medium                   : Blu-ray2 _5 T2 c" p4 R8 n

9 `. M: V, h+ v$ E, jText #3% c/ P" S  F) ^& A) R" l
ID                                       : 63 f4 A9 t$ h# m
ID in the original source medium         : 4609 (0x1201)
9 G0 w) I; B! \4 o) pFormat                                   : PGS+ Y: `$ F: G2 v. `- a, ]: M5 C
Muxing mode                              : zlib' c! h5 W" @3 e; I/ m
Codec ID                                 : S_HDMV/PGS
; i, P% S- L5 _, o4 w4 KCodec ID/Info                            : Picture based subtitle format used on BDs/HD-DVDs
* ?! m% h* C! m, ]8 rDuration                                 : 1 h 38 min0 _3 F" H. {4 w: L( n$ u
Bit rate                                 : 26.1 kb/s
0 {0 p' c4 W) F! [( ^) D% PCount of elements                        : 2300
; K) B6 C) J- `8 yStream size                              : 18.3 MiB (0%), c% k; x! E6 h6 Y+ c1 V
Title                                    : Chinese-PGS
  K9 x1 S+ Z3 fLanguage                                 : Chinese
, {( q6 z* {" l& a7 P& VDefault                                  : No
6 q+ A# d' a5 P+ o- a* OForced                                   : No$ n7 y, y+ O) s6 i0 z
Original source medium                   : Blu-ray
  X% ~: I$ F' v) `- g5 M0 t* N/ @8 E3 X: d: k% m3 B* s
Text #4
) a& j8 N, {3 b- e; L3 M7 SID                                       : 7
, q; n, Q) b7 {% ]ID in the original source medium         : 4610 (0x1202)+ @& u  h, I/ p/ o1 L9 B' Z# n& W
Format                                   : PGS) r# Y. O; E" ^- m
Muxing mode                              : zlib
: g3 K+ H3 @" ]+ F' P* \Codec ID                                 : S_HDMV/PGS
5 X8 C$ _- k+ U8 J! tCodec ID/Info                            : Picture based subtitle format used on BDs/HD-DVDs% F4 S" a9 n$ ^5 z& k" B& P
Duration                                 : 1 h 38 min3 O) ?% A2 c& }1 U# ]
Bit rate                                 : 30.3 kb/s0 W8 g0 S$ o3 ~, A8 d' I) H
Count of elements                        : 2300
' \6 p% n! d0 G  GStream size                              : 21.3 MiB (0%)
6 a& y9 c- Y$ x& y% uTitle                                    : English-PGS' A( {6 f% _" x6 D( f7 O' a
Language                                 : English/ a9 z: w! M6 C) F( h& |% g  \2 Q
Default                                  : No. V2 J" C  k0 }3 i- [
Forced                                   : No9 T# R' z, Q# t7 H8 Y0 z
Original source medium                   : Blu-ray/ t4 ]2 Y5 B, A3 h6 {& \9 H
5 h8 Y2 T. Y$ c5 ~6 F; d
Menu
+ z3 D& @# t) b6 o00:00:00.000                             : en:Chapter 01
& d2 L9 i0 r7 C3 l7 _) P. l( I00:09:28.750                             : en:Chapter 02" d" j3 s1 V$ G2 V3 }
00:18:20.083                             : en:Chapter 039 D$ t2 k, z; f5 N
00:26:45.958                             : en:Chapter 047 V& x! B+ h5 \3 G. [
00:36:07.208                             : en:Chapter 05
* M1 ?8 h, W) Z8 i; u5 i8 s00:45:34.708                             : en:Chapter 06
4 K# Y! J  s7 Z00:53:20.750                             : en:Chapter 07. `, H8 i+ e/ x( m$ Z! G* ~$ u
01:02:13.458                             : en:Chapter 08( y3 b3 {2 E4 u% L; D
01:10:39.500                             : en:Chapter 09# c' A" Z7 L* s: |
01:19:55.958                             : en:Chapter 108 q9 c. n3 c8 j# Q/ H" |# X
01:29:10.041                             : en:Chapter 11% K8 u1 `4 I& u9 T# K1 J
01:33:06.583                             : en:Chapter 12
/ |9 N+ a/ c* ~7 Y
游客,查看本帖隐藏内容请回复 | 加入VIP贵宾组可免积分免回复下载 了解详情 | 还不是会员:点击获取邀请码 Invitation Code

641

主题

2196

帖子

1万

积分

VIP advanced

金币
1992 枚
体力
5005 点

公主勋章卓越贡献勋章

21cn 发表于 2020-12-21 03:18:45 | 显示全部楼层
楼主发贴辛苦了,I*老*虎*U!
5 C% Z' ~4 \: I$ N# y5 e3 eYour resources, well, I am very satisfied!
; z4 z6 b, n' V, I! M" H, c

0

主题

645

帖子

2837

积分

Sponsor

金币
6 枚
体力
1573 点
QQ
七喜 发表于 2020-12-23 22:58:54 | 显示全部楼层
啥也不说了,楼主就是给力!( q7 ?  v0 ]# {* @' T! K# P0 R. |. U4 D
Bluraycd.com movie updates really fast, also did not release issued, whether you believe it or not, anyway, I believed!

0

主题

645

帖子

2837

积分

Sponsor

金币
6 枚
体力
1573 点
QQ
七喜 发表于 2020-12-23 23:04:47 | 显示全部楼层
楼主发贴辛苦了,I*老*虎*U!. N# n. G( J: y/ D
The decisive Replies sink is I get the sinking feeling great sense of accomplishment!5 k2 e* A8 `0 i( p  A8 N

0

主题

645

帖子

2837

积分

Sponsor

金币
6 枚
体力
1573 点
QQ
七喜 发表于 2020-12-24 14:34:10 | 显示全部楼层
Bluraycd又有新电影发布了,激动中……!6 ~+ H# F5 }3 ]! W  d9 v3 ]/ c  G
Thank you for sharing such a good resource polite reply, very sorry for myself!/ s1 C6 n1 `  Z1 F6 @" |4 l

0

主题

382

帖子

1982

积分

Sponsor

金币
30 枚
体力
1245 点
QQ
sunday_119 发表于 2020-12-29 14:41:25 | 显示全部楼层
啥也不说了,楼主就是给力!
  O9 z( M5 L+ [4 m  }Not see, I am a novice, the inadequacies of the first Please bear with me!
* K" a2 [; G: u8 s7 I. A$ U4 V

0

主题

197

帖子

665

积分

Sponsor

金币
25 枚
体力
290 点
060701300 发表于 7 天前 | 显示全部楼层
谢谢楼主分享

0

主题

39

帖子

480

积分

Sponsor

金币
138 枚
体力
242 点
winter0110 发表于 3 天前 | 显示全部楼层
感谢楼主分享

本版积分规则

小黑屋|Archiver|蓝光电影资源网

GMT+8, 2021-1-26 18:50

快速回复 返回顶部 返回列表