BluRayCD Forum

 找回密码
 立即注册【分享大片】

QQ登录

只需一步,快速开始

查看: 13|回复: 0
收起左侧

[科幻恐怖] 猎头武士 The Head Hunter 2018 MULTi BluRaycd 1080p HEVC DTS-HD MA 5.1-DDR 5.57GB & 6.56GB

[复制链接]

4231

主题

4606

帖子

4万

积分

Post Share

金币
8347 枚
体力
7386 点

卓越贡献勋章

mvods 发表于 2021-1-12 17:34:48 | 显示全部楼层 |阅读模式
6 [0 n4 l1 Z4 ~  }5 L

0 e( g$ W" k3 U! x◎译  名 猎头武士5 w  x6 j/ H" N# |' p
◎片  名 The Head Hunter / The Head
0 Y. h4 N7 Q/ D' D# o3 `: P5 |◎年  代 2018' @: j' d: z5 E- }
◎产  地 美国$ I! U4 b2 b. a# J
◎类  别 恐怖/奇幻
" i( q% i5 m) f% K◎语  言 英语
& q% V; p  Q: p& L' X% E3 g; `◎上映日期 2018-10-06(Sitges Film Festival)/2019-04-05(美国)4 g5 F) a; R1 N+ Z) g' E
◎IMDb评分  5.3/10 from 5,118 users
" f+ i1 N7 `& B5 V+ z# X/ _: f- X◎IMDb链接  https://www.imdb.com/title/tt6469548/4 Q' |; f- P- }  y
◎豆瓣评分 5.0/10 from 434 users
) g! [6 F) X9 }7 [: z. E◎豆瓣链接 https://movie.douban.com/subject/27096971/
5 ?8 I8 S6 s* @7 P9 _◎片  长 1 h 12 min9 C9 Q# V4 _( M' I& X, b( k
◎导  演 Jordan Downey
4 A  q" k8 R' z/ g6 f◎编  剧 Kevin Stewart / Jordan Downey
. u* n/ F1 r/ ]! W% c◎主  演 Aisha Ricketts1 R& I4 X' t, y0 g/ r$ F& U+ _
       科拉·考夫曼 Cora Kaufman- M: j# U7 q# B
       克里斯托弗·瑞 Christopher Rygh7 V1 F" T- F# Z! H! v

6 c+ q# f- r) Q- A+ S; _4 p1 p8 }) D◎标  签 恐怖 | 奇幻 | 美国 | 魔幻 | 没关好的窗户引发的血案 | 暴力 | 穷得一批的剧组 | 动作% R% C5 t$ S" C* W" E3 p

5 q3 p' p& a) Y* K9 U3 T' U" Y8 I" h◎简  介
5 _7 W% i" r: Q2 ?) s  N
& h' [" {' _8 [4 A- W3 {  一位中世纪武士可怕的头颅收藏只遗失了一个--几年前杀死他女儿的那个怪物。8 a7 U  G6 B4 f4 v7 G! V
  A medieval warrior's gruesome collection of heads is missing only one - the monster that killed his daughter years ago.) _1 w! g* R$ B4 {8 I/ `! {
Video. J- K& ]4 j2 w6 _
ID : 1# c5 I: n- M" e2 k
Format : AVC5 D6 {( r' y4 P, U1 u1 v
Format/Info : Advanced Video Codec7 D5 w" a  t* z' q) n2 {
Format profile : High@L4.14 j; Z6 L! \5 h: H. v6 `
Format settings : CABAC / 4 Ref Frames' z& p- o) w- B+ z/ o% |/ `2 n
Format settings, CABAC : Yes
/ T( e- B) K& `/ CFormat settings, ReFrames : 4 frames5 _, z# \# k5 G/ z# }( T# N8 h
Codec ID : V_MPEG4/ISO/AVC2 J7 i. F4 l* f! z# _
Duration : 1 h 12 min
# N- l7 n% R. J. UBit rate : 11.5 Mb/s/ w7 G; n) U2 C0 }% M6 W
Width : 1 920 pixels
6 l, i( F  C: J9 m3 @+ dHeight : 1 080 pixels9 H) @% I: n! K  S
Display aspect ratio : 16:9
8 s( t( H6 s8 }2 w5 o: {( g, wFrame rate mode : Constant
7 P3 X) b% ^" W' E0 t6 {Frame rate : 23.976 (24000/1001) FPS
6 A4 c* K7 s; o/ A7 ^* X% _% mColor space : YUV
- G* ~! m  u; `. ^7 M0 NChroma subsampling : 4:2:0( t; M  @/ J6 p
Bit depth : 8 bits5 T3 A3 H( O" W
Scan type : Progressive
( D5 U' Z/ F. RBits/(Pixel*Frame) : 0.231
1 q; B. M7 q& D. a5 m; k# ]/ j9 S% |Stream size : 5.79 GiB (88%)2 a  H/ U+ q8 ^+ x8 ^1 i
Title : The.Head.Hunter.2018.1080p.BluRayCD.x264.DTS-FGT# y# i1 k) s  m' v' ^- B* Y
Writing library : x264 core 148 r2795M aaa9aa8
  v8 p; ]; m+ Q% |: tEncoding settings : cabac=1 / ref=4 / deblock=1:-2:-2 / analyse=0x3:0x113 / me=umh / subme=9 / psy=1 / psy_rd=1.00:0.15 / mixed_ref=1 / me_range=16 / chroma_me=1 / trellis=2 / 8x8dct=1 / cqm=0 / deadzone=21,11 / fast_pskip=1 / chroma_qp_offset=-3 / threads=24 / lookahead_threads=3 / sliced_threads=0 / nr=0 / decimate=1 / interlaced=0 / bluray_compat=0 / constrained_intra=0 / bframes=3 / b_pyramid=2 / b_adapt=1 / b_bias=0 / direct=3 / weightb=1 / open_gop=0 / weightp=2 / keyint=250 / keyint_min=25 / scenecut=40 / intra_refresh=0 / rc_lookahead=50 / rc=2pass / mbtree=1 / bitrate=11500 / ratetol=1.0 / qcomp=0.60 / qpmin=0 / qpmax=69 / qpstep=4 / cplxblur=20.0 / qblur=0.5 / vbv_maxrate=31250 / vbv_bufsize=31250 / nal_hrd=none / filler=0 / ip_ratio=1.40 / aq=1:1.00
* v/ t2 @3 F; eLanguage : English' V' w: a! ^4 L8 _% W
Default : Yes. w/ X6 n- O2 h% q
Forced : No
) V  ^) o" N7 n4 }
! F: ?. k. V0 Z& [Audio9 n( ~. E, Q, \/ @
ID : 2  o  d6 ^$ ~% T. B6 R( ]
Format : DTS
& P3 |# k9 V8 yFormat/Info : Digital Theater Systems$ f0 ]/ e, Q, R' `- X
Codec ID : A_DTS, z- ]" B6 J7 ~; E8 l
Duration : 1 h 12 min% E1 e; E9 v; G; ^2 Y4 l
Bit rate mode : Constant# C9 @9 g1 N. Q7 g/ y; \3 F
Bit rate : 1 509 kb/s' K/ d2 P# w+ p
Channel(s) : 6 channels6 O! S$ }8 i  }" P8 v5 |& J# K2 L8 q( {
Channel layout : C L R Ls Rs LFE
. `0 j/ K& `$ C% N/ F0 E( USampling rate : 48.0 kHz* d  g+ D: b6 T7 \' ?. m4 h- `" x# H
Frame rate : 93.750 FPS (512 SPF)
( S! j8 U: h. e  I# @$ uBit depth : 16 bits7 d7 c5 c( ~- @  v  x; X( Q
Compression mode : Lossy
) W; ^4 s3 P' x7 ~$ y5 s$ cStream size : 782 MiB (12%)
/ }/ d% [% `/ P2 b; C: bTitle : The.Head.Hunter.2018.1080p.BluRaycd.x264.DTS-FGT
9 f7 e  O! w2 \) S; Z  n) W( XLanguage : English
( P% D: [/ E: u0 s% f7 U- XDefault : No" a& F/ T$ P1 N" }* m9 i
Forced : No
3 m9 Y$ c2 ?3 N/ `
) w3 z6 S1 c! y: `7 eMenu' p, W1 R& s! S- `6 J/ T# B7 C
00:00:00.000 : en:Chapter 01
6 D5 U% b; c: E. Y  m+ m3 ?00:05:32.498 : en:Chapter 02
8 b7 A* v) m& Z00:12:25.327 : en:Chapter 03
: j0 |, X7 Y2 D00:18:25.395 : en:Chapter 04$ `0 l# H1 N1 v% ?- }
00:25:51.758 : en:Chapter 05
% E! d- [* i. I00:30:01.549 : en:Chapter 060 L3 O7 t& G0 |' @- t* c$ F5 s
00:36:04.203 : en:Chapter 07
. t+ ?0 M# n6 d8 x$ L6 B7 Z4 q00:42:41.141 : en:Chapter 08
& W4 S# W; u6 W00:49:04.733 : en:Chapter 09
2 w' N. T; O3 Q* k00:53:28.371 : en:Chapter 10! @# f+ H: G' j5 X
01:01:16.673 : en:Chapter 11
# ?2 G3 m+ i' D( @$ X2 j9 ]01:08:16.300 : en:Chapter 12
The Head Hunter 2018.MULTi.Bluraycd.1080p.HEVC.DTS-HDMA.5.1-DDR
. N0 g+ d7 H9 |0 V3 X
5 @, m7 L1 R* o7 B  @Source : FHD Bluray9 H' d. z4 H3 m5 p/ o! A

2 Y% F) I! T; d1 s5 L; M' e! L4 HFormat                                   : Matroska! W- U3 J$ G) c' r
File size                                : 5.57 GiB2 b6 v0 J0 }1 z. y
Duration                                 : 1 h 12 min
6 e. F; d5 ?" }; mOverall bit rate mode                    : Variable( a2 w& P; e/ Q1 H' Q
Overall bit rate                         : 11.0 Mb/s7 i1 Q: _& Q7 Y
' c; N' Y; F* j, u, B! U9 ^/ R# [
Video! ], f/ w; c+ t
Format                                   : HEVC
# |0 P; A, W/ O5 ?3 r. c: UFormat/Info                              : High Efficiency Video Coding' \# g; K  w0 \9 l( v0 d4 {2 i* d
Format profile                           : Main 10@L4.1@High) N0 z  Y1 i+ v3 Q- U
Bit rate                                 : 6 777 kb/s& Z+ @0 C3 p+ x9 g; y( X5 Q% ~1 u
Width                                    : 1 920 pixels
% N- x$ S6 H6 K% m7 J6 s9 B# uHeight                                   : 1 080 pixels
6 g, ]7 O; h4 d5 fBit depth                                : 10 bits
" K! H3 `4 J3 Q# y. sColor primaries                          : BT.709
# I  q4 f# e) x& V' L8 `
! r+ Z2 I5 B" t* q8 O8 q  JAudio #1
2 E" b6 }4 M4 D' s% L8 `! bFormat                                   : DTS XLL
$ ^2 b( J' d: s# [8 j5 @8 cFormat/Info                              : Digital Theater Systems9 `) R) v; f$ G9 S9 d+ S
Commercial name                          : DTS-HD Master Audio
2 _$ a( {4 U/ ECodec ID                                 : A_DTS% F9 {1 C2 m) Z' W
Duration                                 : 1 h 12 min
7 D. G1 j" t" Q1 r. U- U7 |Bit rate mode                            : Variable
6 m4 J: o2 A# hBit rate                                 : 2 111 kb/s2 g( |* H0 r; M) J, |
Channel(s)                               : 6 channels2 c- L3 F$ I/ O# {" r; ^6 A" k
Language                                 : German
8 _5 v3 `, v5 _
- f9 m. N2 u& c6 e$ }6 N6 b4 SAudio #2
! c. q4 F0 m( N- j/ UFormat                                   : DTS XLL1 @& t! d! V" _
Format/Info                              : Digital Theater Systems" z% }9 ~" |2 X
Commercial name                          : DTS-HD Master Audio
0 X& n& g/ G% @& b3 y# R' @+ jBit rate                                 : 2 103 kb/s. q3 `. b6 |# U2 E# N
Channel(s)                               : 6 channels
+ B8 t* u! n0 W# Y4 `5 Q5 ^5 RLanguage                                 : English
) p7 _$ f3 k- y& l5 Z5 `; E. y) `% o. M
Subs:En ger

4 G1 Y! K: k8 ?/ X
游客,查看本帖隐藏内容请回复 | 加入VIP贵宾组可免积分免回复下载 了解详情 | 还不是会员:点击获取邀请码 Invitation Code

本版积分规则

小黑屋|Archiver|蓝光电影资源网

GMT+8, 2021-1-26 20:46

快速回复 返回顶部 返回列表