BluRayCD Forum

 找回密码
 立即注册【分享大片】

QQ登录

只需一步,快速开始

查看: 7|回复: 0
收起左侧

[科幻恐怖] 猎头武士 The Head Hunter 2018 720p BluRaycd x264-GUACAMOLE 3.28GB

[复制链接]

4227

主题

4602

帖子

4万

积分

Post Share

金币
8339 枚
体力
7378 点

卓越贡献勋章

mvods 发表于 2021-1-12 17:44:08 | 显示全部楼层 |阅读模式
+ @; x! s. P# o' e6 R2 q$ t( W

4 @3 ^9 M% \8 |9 G: B+ A$ @◎译  名 猎头武士& k3 R+ g4 |8 ]" X; b
◎片  名 The Head Hunter / The Head
7 F' C2 J9 I% W# j7 U6 [6 J◎年  代 2018
, a# x: R* d/ \% T$ l1 Q◎产  地 美国
" f: x' f  l7 `; G* p4 }◎类  别 恐怖/奇幻* I: a& q$ U% G  ?& k
◎语  言 英语3 C4 v# U5 _3 x4 [
◎上映日期 2018-10-06(Sitges Film Festival)/2019-04-05(美国)
6 l' l. j0 v1 X' {) D: B# D◎IMDb评分  5.3/10 from 5,118 users( e: X: d2 l: X& B' x1 V' C4 d+ f
◎IMDb链接  https://www.imdb.com/title/tt6469548/
) |& d& W: K# W# |( f9 i- I◎豆瓣评分 5.0/10 from 434 users, l3 s. O2 N  V. I
◎豆瓣链接 https://movie.douban.com/subject/27096971/# l& Z5 S0 L) X! q3 o7 c
◎片  长 1 h 12 min# H, e% Q1 n3 `
◎导  演 Jordan Downey) c  d" W" x1 T" o! R2 A/ h' t+ l
◎编  剧 Kevin Stewart / Jordan Downey
  l& ^) b( b' _: i: }◎主  演 Aisha Ricketts' z5 x$ j9 ]. T: v% n# V
       科拉·考夫曼 Cora Kaufman' v2 C$ u& q3 A$ C
       克里斯托弗·瑞 Christopher Rygh5 R- s' T; r! T. ~3 t0 b3 e3 B

# Y) w- }/ \& Q◎标  签 恐怖 | 奇幻 | 美国 | 魔幻 | 没关好的窗户引发的血案 | 暴力 | 穷得一批的剧组 | 动作
4 U, R( j) U+ b8 C. x
" x6 g! Z/ m# k1 {1 @◎简  介, c) f# {8 E* n
0 v# E' t+ U. I
  A medieval warrior's gruesome collection of heads is missing only one - the monster that killed his daughter years ago.5 z  R5 b5 z) f' [5 _, x
Video) h# L5 s& w. j8 F& o
ID : 1
, a! x7 U; R/ W; m' gFormat : AVC
0 p4 J6 y" G, T5 @8 W# VFormat/Info : Advanced Video Codec
- _% u; u; ^% u% }  k# iFormat profile : High@L4.1
$ \' e& \6 \. N+ y8 U. U! ]Format settings : CABAC / 5 Ref Frames
9 l: I  x& q9 ^7 Y( j6 AFormat settings, CABAC : Yes
. L) C- g1 o# X( m1 |7 DFormat settings, ReFrames : 5 frames6 Y9 ]+ ^+ h* T5 w3 _3 J
Codec ID : V_MPEG4/ISO/AVC) r2 x, Q) O: u7 E) |# `
Duration : 1 h 12 min6 R2 w$ E+ E0 T
Bit rate : 4 966 kb/s) ^% ]) A) A6 p3 K8 m
Width : 1 280 pixels  L3 F; h" A! S) W3 v/ {9 [
Height : 720 pixels
& x+ L: z! z3 ?6 b. TDisplay aspect ratio : 16:9
/ ?' G% g- q* }2 ~0 V9 z% NFrame rate mode : Constant5 y" j( p. C1 D0 ^. d
Frame rate : 23.976 (24000/1001) FPS3 T. N: Q. N! V% x+ P, T5 V
Color space : YUV
2 P, T; A# i7 a5 T9 G2 cChroma subsampling : 4:2:0  l: a6 T! P+ f: F0 r- V
Bit depth : 8 bits
5 G* x5 q: k; NScan type : Progressive$ g4 v$ t2 L9 {* W8 ?. [, E. e* {
Bits/(Pixel*Frame) : 0.2259 G6 b) {- c, X5 [& T% c2 o% `
Stream size : 2.51 GiB (77%)
: w* l) T# v$ e" d8 y- s' rWriting library : x264 core 157 r2969 d4099dd
3 U6 f! `7 ^' I* U& r9 u" WEncoding settings : cabac=1 / ref=5 / deblock=1:0:0 / analyse=0x3:0x113 / me=umh / subme=8 / psy=1 / psy_rd=1.00:0.00 / mixed_ref=1 / me_range=16 / chroma_me=1 / trellis=2 / 8x8dct=1 / cqm=0 / deadzone=21,11 / fast_pskip=0 / chroma_qp_offset=-2 / threads=22 / lookahead_threads=3 / sliced_threads=0 / nr=0 / decimate=1 / interlaced=0 / bluray_compat=0 / constrained_intra=0 / bframes=3 / b_pyramid=2 / b_adapt=1 / b_bias=0 / direct=1 / weightb=1 / open_gop=0 / weightp=2 / keyint=250 / keyint_min=23 / scenecut=40 / intra_refresh=0 / rc_lookahead=50 / rc=2pass / mbtree=1 / bitrate=4966 / ratetol=1.0 / qcomp=0.60 / qpmin=0 / qpmax=69 / qpstep=4 / cplxblur=20.0 / qblur=0.5 / ip_ratio=1.40 / aq=1:1.000 c0 o, m' E& z" O+ I7 b9 m9 H  ~
Default : Yes
& e8 m- {+ ^! Y" e2 Z$ @Forced : No
4 a- \& l- k* S8 D9 i+ Y+ J" @- z# q% ?
Audio
! C8 N5 {' |2 nID : 2
3 {& ~- e0 P* T5 QFormat : DTS" \4 y5 @( B8 F5 y& r$ h
Format/Info : Digital Theater Systems
/ h( ?) g9 d- S1 |/ E1 MCodec ID : A_DTS
3 {  s# ^+ h( p. }8 O0 fDuration : 1 h 12 min. {1 Q% |% w, A/ t) d
Bit rate mode : Constant8 V7 E0 C, i7 A/ g; Q
Bit rate : 1 509 kb/s
0 v, P* O/ z  G/ w, Q% I0 hChannel(s) : 6 channels
' b! l/ }+ l( u5 O$ WChannel layout : C L R Ls Rs LFE
4 y9 N7 N3 W8 L% TSampling rate : 48.0 kHz
# }' L+ B6 K0 d; DFrame rate : 93.750 FPS (512 SPF)0 e6 q$ p4 n9 q7 ]' v) N) m
Bit depth : 24 bits, G+ ?8 [+ h& [+ M8 y
Compression mode : Lossy4 Q& f. G0 C9 f& f3 d- q
Stream size : 782 MiB (23%)& \$ Z* F; f# A& {! g: ~7 M7 B+ g
Language : English; U+ ]+ @; ?, e/ Q
Default : Yes
7 T: E7 n/ a# MForced : No' U- f$ J& g) [$ }/ I- M9 i' A* y

) ?6 @9 _& E( M2 c! s% L1 W4 JMenu
" w6 _* X* O, H; h) z; ?# C9 y! X00:00:00.000 : en:00:00:00.000
, F3 g1 R3 t5 ]5 i/ L/ F. l00:05:32.374 : en:00:05:32.374, [) s4 a* h' r* C
00:12:24.869 : en:00:12:24.869
& ~6 B+ G$ A" g# M% F) R00:18:25.396 : en:00:18:25.396
+ i+ m  |; b  [00:25:51.759 : en:00:25:51.759
3 F. f8 J0 a5 u  B00:30:01.800 : en:00:30:01.800
9 z; j- ~3 m* G% F4 L0 o00:36:04.537 : en:00:36:04.537
' Q" g+ M( f# u+ k' ]- k8 h; Y00:42:41.476 : en:00:42:41.4765 e, U9 ~' f9 t5 |9 b. ?2 [1 G
00:49:05.109 : en:00:49:05.109+ I! R+ x" \, A# h
00:53:28.622 : en:00:53:28.622& W; ?9 k0 p  Y( R6 T: E$ V7 W
01:01:16.756 : en:01:01:16.756
* q7 d" w% M& U& g7 ?01:08:15.925 : en:01:08:15.925

! H/ ?5 H& h, k6 j
游客,查看本帖隐藏内容请回复 | 加入VIP贵宾组可免积分免回复下载 了解详情 | 还不是会员:点击获取邀请码 Invitation Code

本版积分规则

小黑屋|Archiver|蓝光电影资源网

GMT+8, 2021-1-26 20:12

快速回复 返回顶部 返回列表