BluRayCD Forum

 找回密码
 立即注册【分享大片】

QQ登录

只需一步,快速开始

查看: 19|回复: 0
收起左侧

[剧情悬疑] 第29轨 Track 29 1988 1080p BluRaycd x264-SPOOKS 6.57GB

[复制链接]

4223

主题

4598

帖子

4万

积分

Post Share

金币
8325 枚
体力
7370 点

卓越贡献勋章

mvods 发表于 2021-1-12 18:08:46 | 显示全部楼层 |阅读模式
01.jpg ; E/ M" w9 o. u

2 z6 |4 q) \+ \% @' g◎译  名 第29轨7 b0 ]! V. M9 _$ q0 O1 m
◎片  名 Track 29
6 W' z' G/ d, O◎年  代 1988
; a, M+ U& [& c6 A3 f! h  {◎产  地 英国/美国, |) D4 {6 J" [1 Q* D
◎类  别 剧情/悬疑
1 F/ v. b9 P1 j1 m1 b- D◎语  言 英语8 G5 e0 o7 }, K8 p" q1 ]9 ?
◎上映日期 1988-08-05
/ U& E' ~% y3 k, D◎IMDb评分  5.9/10 from 1,972 users; g! b9 O$ W. A4 X: m
◎IMDb链接  https://www.imdb.com/title/tt0096294/
! w+ i2 y0 x, ]) T6 a6 d◎豆瓣评分 7.8/10 from 93 users
5 L: m2 M6 }7 Q+ ]◎豆瓣链接 https://movie.douban.com/subject/1739376/& u7 t7 D3 l: M, l% _
◎片  长 1 h 30 min* Q! I, r7 U8 o8 ?- k7 O& `1 }' {
◎导  演 尼古拉斯·罗伊格 Nicolas Roeg/ j$ E7 w5 g7 S  o0 ?1 j$ w
◎编  剧 丹尼斯·波特 Dennis Potter1 z- c; h6 L* W2 K$ w
◎主  演 加里·奥德曼 Gary Oldman! U& F* F" Y' q+ y8 S8 ~; x! j( Z' o
       泰莉莎·拉塞尔 Theresa Russell
5 q8 u& m$ }, p6 g* X4 G2 r       克里斯托弗·洛伊德 Christopher Lloyd( P4 g7 A; [( s1 N+ L0 B

. n0 W* Y" n. t( h◎标  签 GaryOldman | 英国 | 悬疑 | 英国电影 | 1988 | Gary_Oldman | 1980s | NicolasRoeg
5 Y( h) F$ e8 C1 R1 C7 ~" G
; y. ]3 ?: {+ D- T$ u  z◎简  介
# f& T8 s1 p1 z. b
  t+ [. @8 S( G/ ?; ^1 {2 F3 e2 L  琳达在15岁时就把孩子送人领养,这让她很痛苦。她想要一个孩子,但她丈夫的模型火车、情妇和当医生已经够多了。
: Z* ~) d' [# w4 E& X% o, D' z' u! @  Linda is still tormented by giving up a baby for adoption at 15. She wants a baby, but her husband has enough in his model trains, mistress and being a doctor.
- o3 H. D8 B" ]
Video
; A; ^* y: R# J5 S( ZID : 1
6 d& |4 D, q. gFormat : AVC5 f; `. |7 R2 Z/ l% w; ^
Format/Info : Advanced Video Codec  S4 m1 M+ F" q7 S
Format profile : High@L4.1
7 m' p5 S% p+ S9 e( OFormat settings : CABAC / 4 Ref Frames
' ?% x  ]6 O. V% ]* N2 W  cFormat settings, CABAC : Yes
, h) h- f% k) ^9 lFormat settings, ReFrames : 4 frames7 E: z( ~: G# |6 P) q; t
Codec ID : V_MPEG4/ISO/AVC
. b+ r; P, y3 h5 B+ R" _( U- x% MDuration : 1 h 30 min
4 @7 d3 k7 A+ U. Z6 Y5 PBit rate : 9 763 kb/s
" p4 R$ O  L& b" j% t1 oWidth : 1 920 pixels
& E7 z$ c; A3 \+ c& B; v4 vHeight : 1 040 pixels
5 |4 h" l) A! O* l9 B* m' yDisplay aspect ratio : 1.85:1
5 A  g% `' m8 G. V. F( q+ W  N0 vFrame rate mode : Constant* L9 N( _) h& t( c" a5 v
Frame rate : 23.976 (24000/1001) FPS
# B) x" D- {' H' \0 b$ ~+ DColor space : YUV
7 U+ ^3 X1 k& v$ ]+ LChroma subsampling : 4:2:0* L: Y) P( W% H( A. J) G1 n
Bit depth : 8 bits
7 ]: }6 Z4 r: n' }# RScan type : Progressive
# U( j3 C6 L# o) ~' ZBits/(Pixel*Frame) : 0.2044 U$ S# E8 y* d' S% s
Stream size : 6.15 GiB (94%): G  R4 k% I' }
Writing library : x264 core 157 r2969 d4099dd& R2 U+ `. }; u  E
Encoding settings : cabac=1 / ref=4 / deblock=1:-3:-3 / analyse=0x3:0x133 / me=umh / subme=9 / psy=1 / psy_rd=1.00:0.00 / mixed_ref=1 / me_range=24 / chroma_me=1 / trellis=1 / 8x8dct=1 / cqm=0 / deadzone=21,11 / fast_pskip=0 / chroma_qp_offset=-2 / threads=24 / lookahead_threads=4 / sliced_threads=0 / nr=0 / decimate=1 / interlaced=0 / bluray_compat=0 / constrained_intra=0 / bframes=8 / b_pyramid=2 / b_adapt=2 / b_bias=0 / direct=3 / weightb=1 / open_gop=0 / weightp=2 / keyint=250 / keyint_min=23 / scenecut=40 / intra_refresh=0 / rc_lookahead=60 / rc=2pass / mbtree=1 / bitrate=9763 / ratetol=1.0 / qcomp=0.60 / qpmin=0 / qpmax=69 / qpstep=4 / cplxblur=20.0 / qblur=0.5 / vbv_maxrate=62500 / vbv_bufsize=78125 / nal_hrd=none / filler=0 / ip_ratio=1.40 / aq=1:1.00" l5 h* U0 v/ r% V+ q# P
Default : Yes
) \/ Z( M) s$ @* ^Forced : No1 E- m6 m" L3 j" \, X
( c% z  {' J  s1 M# P1 D" E
Audio
0 m4 }# I( @/ P9 }( d& D; TID : 2
8 t! {& {4 s5 B4 AFormat : AC-3; j; A+ L* \7 i4 T+ P
Format/Info : Audio Coding 36 g: e8 F3 Q$ {( v, A
Commercial name : Dolby Digital
  C1 O4 \1 @5 j4 }+ d+ WCodec ID : A_AC3
* W! v$ \$ i& t( T) yDuration : 1 h 30 min
$ r) [0 e/ J. Y1 X6 F; XBit rate mode : Constant7 V+ l4 @3 L5 [# g: U
Bit rate : 640 kb/s  T5 r6 ]9 u. e% _* v5 B. _
Channel(s) : 2 channels
& Q6 n' w$ p0 }1 dChannel layout : L R
4 [) m0 t9 _6 ^& PSampling rate : 48.0 kHz
& h+ l& h% j$ K6 F6 x0 W2 lFrame rate : 31.250 FPS (1536 SPF)# V; j: r# Y: D
Bit depth : 16 bits
. v& Y2 y& O) d8 p1 R+ ^7 yCompression mode : Lossy7 D. v# i( k( s$ Z. S
Stream size : 413 MiB (6%)
/ \& `1 D% x% w" o8 FLanguage : English
1 x0 N1 h1 O+ O4 O1 M: XService kind : Complete Main) t4 `/ @* T  h2 ~" {
Default : Yes# Q% z; Q: @/ S0 @, Q3 {
Forced : No
* O+ y6 x: i1 x, P1 g3 K( K; Y: B$ d4 K' I# {, t3 R
Menu. n% G/ m  o) S  @/ u8 R5 E# a+ m
00:00:00.000 : en:Chapter 01
1 \; \$ t) d( L$ H3 X( j3 ]00:07:30.492 : en:Chapter 02
" M4 F9 g; m. s9 k: H3 {00:19:22.536 : en:Chapter 03
$ k2 @) X; O4 Y4 Y4 [* Z: j2 S00:27:04.164 : en:Chapter 04* R4 g9 p  w# O) J
00:37:48.850 : en:Chapter 05
( h7 \+ P: i4 N1 c5 p* V0 o00:46:51.559 : en:Chapter 06+ A+ F# [( ~3 _" E0 ?7 G
00:54:09.997 : en:Chapter 07; h- j) ^% q1 s
01:02:29.829 : en:Chapter 08
  ^. ~, R% Z4 K1 m' r% |01:12:11.327 : en:Chapter 090 ]3 {6 w6 |/ c8 @& N$ }
01:23:12.988 : en:Chapter 10
+ \" x$ n9 i% ?. B
- J2 n$ x) D  Y8 k" [/ H8 vTrack.29.1988.1080p.BluRayCD.x264-SPOOKS
  A$ Q/ Y6 {- o3 L
+ f: @9 u7 X0 g7 p6 gIMDB...........: https://www.imdb.com/title/tt0096294; i8 i2 O& F! h' G: }) ^
4 ]: h1 ]$ p4 T' G7 l, P$ ~, q+ ?9 B
Duration.......: 1 h 30 min
& k% H' C. o5 z& ~1 u; B5 i/ [Video .........: x264 @ 9763 Kbps
' Y5 O+ ~* ]; L2 m8 c, S, r! F6 xFrame Rate.....: 23.976 fps
) N% B# _) O* }$ |% MResolution.....: 1920x1040
4 {7 M9 |3 n. y8 n; p4 Q' ~Audio..........: English 2ch AC-3 @ 640 Kbps
% X& ?: i2 P' L3 FSubtitles......: English
$ k  `/ h+ U+ }: K  F0 F7 vSize...........: 6.6 GB

% A8 j3 W8 l! P* d4 x- R8 X
游客,查看本帖隐藏内容请回复 | 加入VIP贵宾组可免积分免回复下载 了解详情 | 还不是会员:点击获取邀请码 Invitation Code

本版积分规则

小黑屋|Archiver|蓝光电影资源网

GMT+8, 2021-1-26 19:36

快速回复 返回顶部 返回列表