BluRayCD Forum

 找回密码
 立即注册【分享大片】

QQ登录

只需一步,快速开始

查看: 16|回复: 1
收起左侧

[剧情悬疑] 第29轨 Track 29 1988 720p BluRaycd x264-SPOOKS 3.28GB

[复制链接]

4219

主题

4594

帖子

4万

积分

Post Share

金币
8313 枚
体力
7362 点

卓越贡献勋章

mvods 发表于 2021-1-12 18:17:04 | 显示全部楼层 |阅读模式
01.jpg 1 `8 H. E/ G; t' E& ^

& P5 Z: j* o) J1 S6 E' a◎译  名 第29轨- c, m' u# r: }) y! s) M4 ~* u7 i, d
◎片  名 Track 29
% A0 }# ?7 S$ A◎年  代 19885 b3 G( ^" K: m* }9 D4 X
◎产  地 英国/美国
5 K5 p) Q5 ~) b/ s◎类  别 剧情/悬疑
2 f/ _: I& _  ~- a) m4 ]! V4 I* G◎语  言 英语7 B- Q3 {  m7 |7 H# F
◎上映日期 1988-08-05  c  P2 Q2 w% d+ w
◎IMDb评分  5.9/10 from 1,972 users
& L9 b' X+ [+ g◎IMDb链接  https://www.imdb.com/title/tt0096294/
: z) d& b, ^" ^◎豆瓣评分 7.5/10 from 93 users
$ b0 z+ m( ^3 \0 K/ g+ r◎豆瓣链接 https://movie.douban.com/subject/1739376/; E9 z" @* j6 G) G7 r; U
◎片  长 1 h 30 min* \" E: F1 `  {+ q" L
◎导  演 尼古拉斯·罗伊格 Nicolas Roeg/ Z& _* @' Y% `1 Z+ R
◎编  剧 丹尼斯·波特 Dennis Potter
9 p3 U% V, u2 W0 @' `' ?◎主  演 加里·奥德曼 Gary Oldman) n! s' u8 |$ v# i) Q
       泰莉莎·拉塞尔 Theresa Russell* l+ i/ u7 j- w8 F' o
       克里斯托弗·洛伊德 Christopher Lloyd
& H; B0 \! N! @8 h- O- ?
' T# a& W5 ?2 h7 G4 ^◎标  签 GaryOldman | 英国 | 悬疑 | 英国电影 | 1988 | Gary_Oldman | 1980s | NicolasRoeg
. _( A* a6 s1 s' l# o' a
( `/ G  w3 ]! {7 ?* a◎简  介: X8 m, u; K. r0 c

  H9 q! N  G2 f8 I- z  Linda is still tormented by giving up a baby for adoption at 15. She wants a baby, but her husband has enough in his model trains, mistress and being a doctor.6 f: K5 \# b4 a7 O% F1 P
Video
* b0 s( ]/ @9 n! J+ L7 \' YID : 1
% |1 ?- p: N- M" n0 R$ p* `Format : AVC
5 {6 E% ~  R$ k' Y2 n4 ?Format/Info : Advanced Video Codec
* \4 M5 ?8 ]1 E+ n4 U+ wFormat profile : High@L4.19 H( k+ C3 s6 O& ?# m" N
Format settings : CABAC / 9 Ref Frames
* h2 k3 T% s$ w4 f# zFormat settings, CABAC : Yes
! K  d* R8 K2 ^- z; O. a- Z3 DFormat settings, ReFrames : 9 frames
# L' a1 X" X2 W4 n9 ?3 {6 x) [Codec ID : V_MPEG4/ISO/AVC3 M, r* f8 o% N: J! ]
Duration : 1 h 30 min) M* B# M; g/ B- x& O
Bit rate : 4 558 kb/s
  E9 S/ H2 v: Q: mWidth : 1 280 pixels
  Q4 `. I; K9 z8 V8 l! S2 N' wHeight : 696 pixels
$ F$ J5 u4 t2 J. ~Display aspect ratio : 1.85:1$ i# S1 s# m! a
Frame rate mode : Constant
) ]: Q5 ~; m/ |# H1 m) DFrame rate : 23.976 (24000/1001) FPS# h$ p( \9 X% h4 V0 r* Z2 X4 S
Color space : YUV- r- A% X  \5 }: d$ t: e
Chroma subsampling : 4:2:0
. g+ U2 `5 ]9 iBit depth : 8 bits' t( ~7 d1 }& _" c2 h% V" }$ @
Scan type : Progressive
3 \7 Z' j* u- v% X% m) W. KBits/(Pixel*Frame) : 0.213
! B! A# n5 U: e  [8 P; }. MStream size : 2.87 GiB (88%)2 q$ Q( R% \# f! L/ C
Writing library : x264 core 157 r2969 d4099dd
* I& Q2 I! F, ]" MEncoding settings : cabac=1 / ref=9 / deblock=1:-3:-3 / analyse=0x3:0x133 / me=umh / subme=9 / psy=1 / psy_rd=1.00:0.00 / mixed_ref=1 / me_range=24 / chroma_me=1 / trellis=1 / 8x8dct=1 / cqm=0 / deadzone=21,11 / fast_pskip=0 / chroma_qp_offset=-2 / threads=22 / lookahead_threads=3 / sliced_threads=0 / nr=0 / decimate=1 / interlaced=0 / bluray_compat=0 / constrained_intra=0 / bframes=8 / b_pyramid=2 / b_adapt=2 / b_bias=0 / direct=3 / weightb=1 / open_gop=0 / weightp=2 / keyint=250 / keyint_min=23 / scenecut=40 / intra_refresh=0 / rc_lookahead=60 / rc=2pass / mbtree=1 / bitrate=4558 / ratetol=1.0 / qcomp=0.60 / qpmin=0 / qpmax=69 / qpstep=4 / cplxblur=20.0 / qblur=0.5 / vbv_maxrate=62500 / vbv_bufsize=78125 / nal_hrd=none / filler=0 / ip_ratio=1.40 / aq=1:1.00
5 S, K  B( p3 z; G5 s6 h: MDefault : Yes. v. \# `% d- I
Forced : No% B" z! E2 P+ O) R
1 \; b& a% F; s+ y
Audio; y5 H. y, c% o( ^
ID : 2/ _# ^6 C. J4 J$ \9 c
Format : AC-3
' N8 q$ U' V$ @: u$ v1 W2 mFormat/Info : Audio Coding 33 @- D0 [# I; F
Commercial name : Dolby Digital! j8 \+ f2 _. t* J4 _3 l, P, O
Codec ID : A_AC3
6 ?9 J$ @( U; o6 {Duration : 1 h 30 min$ n  u2 [) F$ g
Bit rate mode : Constant
/ }- L0 C0 \8 j' z  U  p* hBit rate : 640 kb/s  d: ^0 c3 ^- t9 w/ I, E: J' N
Channel(s) : 2 channels, d8 E1 }, t% G3 ]3 S
Channel layout : L R" H  q% m: @  O- ]( `7 ^
Sampling rate : 48.0 kHz
2 Q. t; W+ Y! j+ jFrame rate : 31.250 FPS (1536 SPF)  M: p2 `1 u+ W  Q: o* m1 o7 t
Bit depth : 16 bits: U4 w# a: X! I; i4 d8 j
Compression mode : Lossy' V  G( w, A- ]  P
Stream size : 413 MiB (12%)* Y) T1 o( f/ w
Language : English$ p: ^* Z" O# q' J4 S2 P
Service kind : Complete Main: B0 F* E  {  t: C2 [$ @7 `
Default : Yes
' Y6 }, F& O# ~' X6 LForced : No
$ `1 q1 _: ?( o# H: v* _4 }. r1 B  s; c$ G( I
Menu
1 |. L5 z+ I; u# {00:00:00.000 : en:Chapter 01
: i. _8 s3 {# p/ e+ W8 y6 T00:07:30.492 : en:Chapter 027 l4 G5 S) f8 K, g7 N
00:19:22.536 : en:Chapter 03
2 o* z  Y' V. \- M8 C  C8 n00:27:04.164 : en:Chapter 04
% k3 I0 P' Z* u+ \0 `6 x" u1 ~00:37:48.850 : en:Chapter 058 _+ v' K( Y5 |; N' Z8 c$ N' |
00:46:51.559 : en:Chapter 06
2 s/ A1 O7 O2 ~+ g! F6 b4 `) y00:54:09.997 : en:Chapter 07
  X: Y8 b) ?9 B  y/ e5 Y5 a01:02:29.829 : en:Chapter 089 m8 ~7 }% N3 W# r# @2 B& R
01:12:11.327 : en:Chapter 098 [' [* X% V2 H* I, P  g5 m
01:23:12.988 : en:Chapter 10' F  r3 R' F" R8 H- o5 A8 X

5 _5 A0 f0 `7 w1 t3 H8 DTrack.29.1988.720p.BluRayCD.x264-SPOOKS) B* }9 ]0 k; d& N
+ M2 t% j* \5 f& w
IMDB...........: https://www.imdb.com/title/tt0096294
0 F/ I# ]( W4 q. K
9 T$ }( H$ C9 ]/ X- w! j1 HDuration.......: 1 h 30 min( s8 l8 _# c6 V7 H
Video .........: x264 @ 4558 Kbps
' a/ D8 T( U- E0 T' xFrame Rate.....: 23.976 fps
3 _) v) ~9 o* ^5 z  Q8 JResolution.....: 1280x696
: E8 x6 ~# V1 D6 ^; q' N. sAudio..........: English 2ch AC-3 @ 640 Kbps* V( M- m  y  q: Z9 m
Subtitles......: English
5 s) S% x9 }& |1 a+ T4 iSize...........: 3.3 GB

. }3 I+ T' C8 u2 S
游客,查看本帖隐藏内容请回复 | 加入VIP贵宾组可免积分免回复下载 了解详情 | 还不是会员:点击获取邀请码 Invitation Code

27

主题

1469

帖子

7871

积分

Sponsor

金币
1092 枚
体力
3872 点
QQ
shiji1973 发表于 2021-1-14 19:29:16 | 显示全部楼层
感谢分享精彩电影

本版积分规则

小黑屋|Archiver|蓝光电影资源网

GMT+8, 2021-1-26 19:03

快速回复 返回顶部 返回列表