BluRayCD Forum

 找回密码
 立即注册【分享大片】

QQ登录

只需一步,快速开始

查看: 10|回复: 0
收起左侧

[剧情悬疑] 萨维奇 Savage 2019 1080p BluRaycd x264 DTS-HD MA 5.1-MT 22.49GB & 14.80GB

[复制链接]

4187

主题

4562

帖子

4万

积分

Post Share

金币
8181 枚
体力
7289 点

卓越贡献勋章

mvods 发表于 2021-1-13 16:38:27 | 显示全部楼层 |阅读模式

/ {6 I4 k: n6 l; f6 N
$ M0 o/ ~0 q/ G0 }% I◎译  名 萨维奇
/ A0 V8 c, Y6 x4 E# r, g◎片  名 Savage
/ C/ T, C7 G9 A$ a! ]6 l9 c8 S◎年  代 2019
  @7 E, e. \2 q0 V7 v! _$ |9 U◎产  地 新西兰- K" A: ?5 l" I5 A0 `) S8 l: F
◎类  别 剧情, c0 j/ T4 Q8 U  F. g/ }0 ~- m
◎语  言 英语+ E& O+ p4 n0 h# S& r$ D6 u
◎上映日期 2019-10-08(釜山电影节) / 2020-08-27(澳大利亚)5 k8 @& ?" [1 ?( k; x2 k! B) f
◎IMDb评分  6.3/10 from 797 users" O+ b" O9 u: o/ p
◎IMDb链接  https://www.imdb.com/title/tt9099800/2 A+ [" N2 u" k0 P
◎豆瓣评分 6.0/10 from 220 users! M1 T5 U  p& O
◎豆瓣链接 https://movie.douban.com/subject/34819509/' }4 {4 q( L( f* v) I
◎片  长 1 h 39 min
6 F7 y5 W8 W  @, w◎导  演 Sam Kelly / 山姆·凯利 Sam Kelly  v4 e' H; Q0 y/ Q3 N8 }/ M
◎编  剧 山姆·凯利 Sam Kelly
7 ~( v4 M' c- Q) ~# V+ B◎主  演 杰克·莱恩 Jake Ryan
6 P) m( z7 T$ g6 ^3 x7 z, ^7 V       约翰·图伊 John Tui/ v8 X2 w2 E+ W1 c. A0 }. k
       切尔西·普雷斯顿·克雷福德 Chelsie Preston Crayford5 X8 U8 w3 }5 R0 o+ K- j& w# V. j9 q

% ?2 t6 }* S2 g◎标  签 新西兰 | 犯罪 | 剧情 | 新西兰电影 | 上海电影节 | 2019 | SIFF | PB-BusanD未来景象单元
; ^( j- j. S; i: I$ F( C+ Z" p3 G3 Y' [5 d* I1 R
◎简  介
) N' B: o: G1 u; s  _+ e6 G) ^# o. o# A/ m
  故事背景受30年来新西兰街头黑帮的真实故事的启发,讲述萨维奇在丹尼从一个男孩成长为一个帮派的暴力执行者的过程中,经历了生命中的三个反抗时刻。
8 H! ^& j* D) E; j$ G7 d6 u0 ^' @6 a3 M4 M8 o0 C9 @0 u" ~' e6 ~
  Inspired by the true stories of New Zealand's street gangs across 30 years, SAVAGE follows DANNY at three defining moments in his life as he grows from a boy into the violent enforcer of a gang.
4 r, m9 H' ~# \/ I
Video
: r. S% Y2 P8 C: @' a  j5 q+ ?0 [* E  gID : 1
, h* O+ P: O* |. MFormat : AVC4 }4 f: I4 X5 q! F9 B9 T4 _
Format/Info : Advanced Video Codec
, E4 F2 m8 n( `( n5 H8 J7 |% V6 ]Format profile : High@L4.1' P9 m  F9 q" X4 N- c( j
Format settings : CABAC / 4 Ref Frames- {3 k5 ?  `8 n4 G) ]9 a9 q
Format settings, CABAC : Yes, v+ I7 V- z+ b
Format settings, Reference frames : 4 frames5 Z: a1 S2 E- l7 Q  s8 Z, P
Codec ID : V_MPEG4/ISO/AVC5 \# z3 L0 u# |% b. l4 x+ Q. t
Duration : 1 h 39 min) D  W1 D9 x" ?( l" C7 h
Bit rate : 28.7 Mb/s
$ U0 S& H6 I) N" [2 X9 y; @! bWidth : 1 920 pixels
7 m1 I/ I! o5 N, x( LHeight : 1 038 pixels+ v* Y! J& [2 a! U7 m* K6 C
Display aspect ratio : 1.85:1
' t& U' i( \8 C& Z% ]Frame rate mode : Constant3 @0 l6 J' t7 r+ H, ^
Frame rate : 24.000 FPS% r1 }8 ~) Y, [- J
Color space : YUV+ x1 D- R3 p& u) ~  N2 o+ O' b
Chroma subsampling : 4:2:0
7 a% X3 r. i: t6 KBit depth : 8 bits. v" h# ~+ o/ l3 k& ~8 N
Scan type : Progressive+ ~5 a& Y! I* s( i& k
Bits/(Pixel*Frame) : 0.6009 L+ o# u3 y' n3 ]' M- H; u
Stream size : 19.9 GiB (89%)
# ?+ o& q5 R2 w5 s6 w2 B, O( o/ xWriting library : x264 core 157 r2938 2b00a84 TnP@MTeam Mod
- B& I9 p! Z8 R( D5 NEncoding settings : cabac=1 / ref=4 / deblock=1:-3:-3 / analyse=0x3:0x133 / me=umh / subme=10 / psy=1 / psy_rd=1.05:0.00 / mixed_ref=1 / me_range=32 / chroma_me=1 / trellis=2 / 8x8dct=1 / cqm=0 / deadzone=21,11 / fast_pskip=0 / chroma_qp_offset=-2 / threads=12 / lookahead_threads=2 / sliced_threads=0 / nr=0 / decimate=0 / interlaced=0 / bluray_compat=0 / constrained_intra=0 / bframes=8 / b_pyramid=2 / b_adapt=2 / b_bias=0 / direct=3 / weightb=1 / open_gop=0 / weightp=2 / keyint=250 / keyint_min=24 / scenecut=40 / intra_refresh=0 / rc_lookahead=250 / rc=crf / mbtree=0 / crf=16.8 / qcomp=0.60 / qpmin=0 / qpmax=69 / qpstep=4 / vbv_maxrate=62500 / vbv_bufsize=78125 / crf_max=0.0 / nal_hrd=none / filler=0 / ip_ratio=1.30 / pb_ratio=1.20 / aq=3:0.80. @2 s, m' v/ ]& Z+ I; A
Language : English
2 F! H: J9 P1 n/ DDefault : Yes1 \8 M% B. h# W9 F
Forced : No  u1 b5 Y+ k7 n2 D( C2 ]) M
Color range : Limited* p( |% N) g1 X" N' c: z3 I8 Q. N
Color primaries : BT.709
# J3 k/ g3 b- q: w$ a6 kMatrix coefficients : BT.7099 p7 ], o, p/ ^4 p/ q- O
/ {/ X, \8 @9 e9 R% h0 O; D  V
Audio
4 Z' }$ l* m" C# {ID : 25 H1 J: u, `1 v2 ?
Format : DTS XLL
! q) q. [3 ^  n* W5 T$ r0 M" BFormat/Info : Digital Theater Systems
, S' Z$ F3 r" E3 G: K2 sCommercial name : DTS-HD Master Audio
5 o) M& O2 H  S- q' i5 V9 N6 lCodec ID : A_DTS
$ s6 P* C& k0 s# p! VDuration : 1 h 39 min
: U& s  s/ f1 JBit rate mode : Variable- n' B8 l5 T6 Z5 R, j
Bit rate : 3 653 kb/s
- D7 ~! @. ]* T, tChannel(s) : 6 channels
/ u4 p' K9 ], t: DChannel layout : C L R Ls Rs LFE
1 o6 V( Q; K( @+ U6 V# j8 ASampling rate : 48.0 kHz
* ]8 F$ o9 `: A$ N+ k( D0 k2 hFrame rate : 93.750 FPS (512 SPF)
, l8 a# ]- k0 IBit depth : 24 bits
7 U3 w1 I( H( BCompression mode : Lossless
- c# H. e; ]( `0 f7 J/ cStream size : 2.54 GiB (11%)8 w4 ?* k' P+ f1 W  s/ j
Language : English
& x: ?! M0 `1 d8 H' d$ BDefault : Yes
: |# I& R5 ~0 x* b" k# B4 d4 Z& e- MForced : No
) \; J3 ]$ Q9 x3 n
; f7 b" `4 U" |: A+ L- WText #1, m: y1 D8 G# c  Z# ?" X8 A
ID : 3, q8 O0 ~/ |6 k6 C/ X
Format : UTF-8
( ]2 L* l; k8 S/ ]; U" U' o1 X; ?Codec ID : S_TEXT/UTF8
# G! h1 N- D$ ~% N! mCodec ID/Info : UTF-8 Plain Text- R+ s, r3 e% ~2 |, A! F0 z" f
Duration : 1 h 31 min
, \- D" ^$ G- J- NBit rate : 23 b/s
; G7 [2 E) e- `1 e" E! cCount of elements : 669
6 r: o! A5 d. v, l3 c6 O$ O( OStream size : 16.0 KiB (0%)
5 R: t) ^7 ~0 k6 _Title : SRT
# o0 [# J  U: ^- oLanguage : English
/ S* O5 |- Y2 X' ~- e$ aDefault : Yes
1 V" A5 ^2 d6 X) D0 o1 {Forced : No
2 y* F8 A4 R8 r5 W& ?; q6 ^8 ?3 A+ c6 B/ l+ K7 ~) @# W1 A% X
Text #2
3 S& B5 D: {6 z6 x2 B+ k: C7 f! B0 xID : 4
3 |% [2 ?4 W# V' \Format : PGS1 ^4 A  `# q8 g" n( U4 O
Muxing mode : zlib
2 V' o: C" M9 cCodec ID : S_HDMV/PGS: W3 {* t6 T, H. F! [; I! K
Codec ID/Info : Picture based subtitle format used on BDs/HD-DVDs
( v: `; G1 S  \8 p2 yDuration : 1 h 34 min
  P4 D( j- r* a) z. aBit rate : 12.1 kb/s9 D4 _" C$ ]  A2 L% I
Count of elements : 1476$ T" \# a1 `" j. h6 Z$ V/ M5 P
Stream size : 8.16 MiB (0%)
6 q: \( a  h, l/ J: g0 OLanguage : English1 |! _" g! d' ^  r' @
Default : No3 u. w8 i9 I4 Y; P- u3 J' K
Forced : No
3 [" P% ^0 ~' @2 b7 I% C& O4 s- w, a) Z( @# N4 C: S
Menu
. e5 _6 n5 o9 b8 N00:00:00.000 : en:Chapter 014 U7 S8 [  O, Y' x7 @* u
00:02:15.625 : en:Chapter 02
' x+ d1 {0 t4 e- j6 k00:14:49.375 : en:Chapter 03
3 K* d% G% I/ Q3 n0 X( Y: V00:21:50.542 : en:Chapter 04
+ Q/ K4 u3 K$ @3 U8 n00:31:11.875 : en:Chapter 05
) `. K' c% D; }$ s$ ?; v00:40:44.750 : en:Chapter 06+ t, B) X( r" X  |5 U
00:48:47.000 : en:Chapter 07# S7 z8 K& q; @! M
00:58:15.375 : en:Chapter 08
# O' _" |0 m/ \  U, }8 D01:07:21.208 : en:Chapter 09/ o. o- G; {0 X
01:19:01.208 : en:Chapter 10/ o% \6 H+ o- _  s. m
01:30:27.875 : en:Chapter 11# |2 h1 W* c/ i* O
01:34:33.958 : en:Chapter 12
Video
8 E/ t' }7 \5 F" D5 SID : 1% m5 q  q: V8 R: h' c
Format : AVC4 C8 B6 q! p3 b
Format/Info : Advanced Video Codec0 \: \  b. W( [) q% ^) Q$ [
Format profile : High@L4.1
, {! b! h$ Z7 A) tFormat settings : CABAC / 4 Ref Frames6 _" X8 T3 w' m6 F( v
Format settings, CABAC : Yes
4 s- ]. o  v( _/ iFormat settings, Reference frames : 4 frames9 Q4 [4 l7 J' Z8 e9 L( E
Codec ID : V_MPEG4/ISO/AVC8 _1 s0 L$ \  g. A5 ]
Duration : 1 h 39 min; h7 f3 \6 l7 m4 |" u# d
Bit rate : 17.7 Mb/s' X9 P3 {( n0 I2 h
Width : 1 920 pixels
, v3 M7 O/ h3 s2 U$ ~& x, SHeight : 1 036 pixels5 W! H7 b- z" R8 a4 }
Display aspect ratio : 1.85:15 n4 g; f8 B. R% i: k$ @; \
Frame rate mode : Constant/ B# H2 u3 W% ]+ k: i& u
Frame rate : 24.000 FPS; z+ Q+ |9 c, \$ e- Z0 X) S
Color space : YUV
0 U& w9 A$ z; p) F/ @6 Y% {Chroma subsampling : 4:2:0* ]9 J5 Y7 e0 O3 Y0 |5 F  y6 f
Bit depth : 8 bits
5 G2 f( }3 {2 Y# e0 a& O; JScan type : Progressive
7 Z- U2 Y# l' xBits/(Pixel*Frame) : 0.370- G5 O6 c/ g2 `
Stream size : 12.3 GiB (83%)
- N  c( H0 H. b) D5 CWriting library : x264 core 157 r2969 d4099dd9 Z, |7 }1 }0 ]6 S0 T1 d2 k
Encoding settings : cabac=1 / ref=4 / deblock=1:-3:-3 / analyse=0x3:0x133 / me=umh / subme=9 / psy=1 / psy_rd=1.00:0.00 / mixed_ref=1 / me_range=16 / chroma_me=1 / trellis=2 / 8x8dct=1 / cqm=0 / deadzone=21,11 / fast_pskip=1 / chroma_qp_offset=-2 / threads=12 / lookahead_threads=1 / sliced_threads=0 / nr=0 / decimate=1 / interlaced=0 / bluray_compat=0 / constrained_intra=0 / bframes=3 / b_pyramid=2 / b_adapt=2 / b_bias=0 / direct=3 / weightb=1 / open_gop=0 / weightp=2 / keyint=250 / keyint_min=24 / scenecut=40 / intra_refresh=0 / rc_lookahead=60 / rc=crf / mbtree=1 / crf=17.0 / qcomp=0.60 / qpmin=0 / qpmax=69 / qpstep=4 / ip_ratio=1.40 / aq=3:0.70! }6 Q6 Q& M$ K( P+ c( y2 {/ C) R
Language : English+ Y3 c; a$ m5 \* q
Default : Yes
. h" U4 Y4 x9 E* @. AForced : No
9 C5 @. H+ r- Q" o
  H0 ]& k" _* P( L) t$ IAudio
7 V- ]; \& Y* I; r, i6 `/ rID : 2
7 d. w4 [8 w, G* K2 EFormat : DTS XLL' ~; V7 Y1 ^% m4 U" \# _: R8 X
Format/Info : Digital Theater Systems
2 B! `8 n* d* Y& c+ _Commercial name : DTS-HD Master Audio
7 |: S0 K! U' }- n0 h' u; @Codec ID : A_DTS: W( X! _3 ?$ _; j9 f
Duration : 1 h 39 min$ o; ^+ P3 d% J- V0 Q
Bit rate mode : Variable8 Q- M* j/ c* B9 _- b# b$ I
Bit rate : 3 653 kb/s
! v" w9 }/ ]% Q  j: v# XChannel(s) : 6 channels' c$ C8 \. }4 q) M0 w
Channel layout : C L R Ls Rs LFE
0 q; v( m! o1 A( g4 u$ `Sampling rate : 48.0 kHz
2 z* S; I2 C$ t- ?3 P( {# ^Frame rate : 93.750 FPS (512 SPF); h; G6 c; _* R- A
Bit depth : 24 bits/ @. l, {1 z/ C' i* b: f% V
Compression mode : Lossless
8 k# ]2 S  h0 E9 V7 t* bStream size : 2.54 GiB (17%); w+ z! c- W1 [: t
Language : English
6 [* p* R6 p! [9 eDefault : Yes
3 w) l: f- V( ?) z* c, L4 YForced : No
9 v9 J# S* w1 E) b3 f/ p
6 _8 R& d) E" o* X0 O" c* ^( ?Text, b" G+ b* S; g3 S& u+ P
ID : 3: r9 S) [" J5 z
Format : PGS
' G9 L9 f, m# y# j5 I$ q8 A0 [+ C% CMuxing mode : zlib) E8 h: C$ L  k9 ~1 S
Codec ID : S_HDMV/PGS
* f3 {+ X) O4 C0 ICodec ID/Info : Picture based subtitle format used on BDs/HD-DVDs
) {+ v0 q9 ~% ADuration : 1 h 34 min
4 D* p5 x  n4 X. O0 q  Y3 `Bit rate : 12.1 kb/s
7 }$ D0 D' J+ O, r9 e( A8 mCount of elements : 1476
  y* E- h0 A' N& }Stream size : 8.16 MiB (0%)
9 n7 ?% o8 p0 f. t! z/ iLanguage : English
  a6 M# w" v- k2 j( p' V: MDefault : Yes5 ]8 u5 P0 ?' X. z: C' ?4 F
Forced : No

$ G& _( G4 U# m" F" N% U
游客,查看本帖隐藏内容请回复 | 加入VIP贵宾组可免积分免回复下载 了解详情 | 还不是会员:点击获取邀请码 Invitation Code

本版积分规则

小黑屋|Archiver|蓝光电影资源网

GMT+8, 2021-1-21 10:16

快速回复 返回顶部 返回列表