BluRayCD Forum

 找回密码
 立即注册【分享大片】

QQ登录

只需一步,快速开始

查看: 5|回复: 0
收起左侧

[剧情悬疑] 萨维奇 Savage 2019 720p BluRaycd x264-PFa 4.31GB

[复制链接]

4226

主题

4601

帖子

4万

积分

Post Share

金币
8333 枚
体力
7376 点

卓越贡献勋章

mvods 发表于 2021-1-13 16:47:35 | 显示全部楼层 |阅读模式
. P; w* k6 d2 _

% I& c$ x+ f- H7 Y* Q◎译  名 萨维奇+ p1 k  t& }8 o& R# b) A( [, L: B
◎片  名 Savage2 Q2 e1 L. ]' j4 c# ]& h% z9 f
◎年  代 2019
' h; D% e, X1 e, Y/ S- e◎产  地 新西兰6 ?& O$ `8 `' N. K  T; g
◎类  别 剧情
' k0 W" |0 B) a+ G◎语  言 英语
6 t* @0 W4 t3 ]4 F1 \' r6 j2 {& h◎上映日期 2019-10-08(釜山电影节) / 2020-08-27(澳大利亚); G) g9 w4 W* N  ^/ r7 E) }
◎IMDb评分  6.3/10 from 797 users
2 x4 G+ E# X4 u/ H) Z◎IMDb链接  https://www.imdb.com/title/tt9099800/' r9 x" t" Y* S3 n% x
◎豆瓣评分 6.0/10 from 220 users
$ E$ B0 w& w, d3 G6 @◎豆瓣链接 https://movie.douban.com/subject/34819509/
" Q) J/ [) o7 a$ [6 }◎片  长 1 h 39 min+ X5 j8 N# e& v6 X( C
◎导  演 Sam Kelly / 山姆·凯利 Sam Kelly( f9 m% Z  }' r+ M
◎编  剧 山姆·凯利 Sam Kelly
3 I' U) _7 H) N$ I' N" |5 I9 }◎主  演 杰克·莱恩 Jake Ryan. y, f7 ], I' o
       约翰·图伊 John Tui8 N5 H' i3 a( a5 J# H- `( a
       切尔西·普雷斯顿·克雷福德 Chelsie Preston Crayford
# p, z$ Q9 o, {' t1 Y  m
9 c% _% O" A. N- |# O◎标  签 新西兰 | 犯罪 | 剧情 | 新西兰电影 | 上海电影节 | 2019 | SIFF | PB-BusanD未来景象单元+ J" w4 g, {' M2 }0 u

- q: D0 ?/ v! [. J/ q◎简  介
+ |& L/ X' s. j' _% ^8 j  s
# O# r5 I+ m* D3 f  故事背景受30年来新西兰街头黑帮的真实故事的启发,讲述萨维奇在丹尼从一个男孩成长为一个帮派的暴力执行者的过程中,经历了生命中的三个反抗时刻。* A" ]( j: F' q* U% K; ~+ H
Video
' I  O" Q3 I4 a5 e7 u) d1 VID : 2- R0 ^' m* P) Q
Format : AVC9 ^. p; v$ P- A  N6 n
Format/Info : Advanced Video Codec
( E* ]4 m, x* G7 zFormat profile : High@L4.1" s2 C+ m  ~/ |! @
Format settings : CABAC / 8 Ref Frames
) ^0 V2 Z0 P% @! i& m9 E  yFormat settings, CABAC : Yes6 x) ?9 p# m8 A5 u7 z
Format settings, Reference frames : 8 frames$ D* l7 S( g3 {* r( L
Codec ID : V_MPEG4/ISO/AVC6 w- r6 p# ?/ q- {$ T0 H  \+ u
Duration : 1 h 39 min
6 Y% B5 D, K/ tBit rate : 5 552 kb/s
. r; ^1 f' \, q! c3 yWidth : 1 280 pixels
6 w' k) W. I0 G! _% OHeight : 690 pixels
" R9 ]; P2 u' uDisplay aspect ratio : 1.85:1( g. V0 S* b. q# O% e* _/ e: P4 b
Frame rate mode : Constant
# D; M, T- U" Q$ v& w7 L. rFrame rate : 24.000 FPS& ^7 l9 e; A: {4 B. m+ u
Color space : YUV' e; y1 V- L6 u2 s! y
Chroma subsampling : 4:2:0
- i0 N# w: f' k! }+ p1 tBit depth : 8 bits
/ c3 Z9 e! [. F$ U' K; [1 W+ N8 YScan type : Progressive
% z  x/ g: Q2 N, x- n) l  hBits/(Pixel*Frame) : 0.262
3 J8 n7 C  ?5 i/ QStream size : 3.85 GiB (90%)
. |7 S) A/ X) ^% ^; [- sWriting library : x264 core 157 r2969 d4099dd  ?6 f4 A6 ~/ v5 s# m
Encoding settings : cabac=1 / ref=8 / deblock=1:-3:-3 / analyse=0x3:0x133 / me=umh / subme=9 / psy=1 / psy_rd=1.00:0.00 / mixed_ref=1 / me_range=16 / chroma_me=1 / trellis=2 / 8x8dct=1 / cqm=0 / deadzone=21,11 / fast_pskip=1 / chroma_qp_offset=-2 / threads=12 / lookahead_threads=1 / sliced_threads=0 / nr=0 / decimate=1 / interlaced=0 / bluray_compat=0 / constrained_intra=0 / bframes=3 / b_pyramid=2 / b_adapt=2 / b_bias=0 / direct=3 / weightb=1 / open_gop=0 / weightp=2 / keyint=250 / keyint_min=24 / scenecut=40 / intra_refresh=0 / rc_lookahead=60 / rc=crf / mbtree=1 / crf=17.0 / qcomp=0.60 / qpmin=0 / qpmax=69 / qpstep=4 / ip_ratio=1.40 / aq=3:0.70. D5 h5 E9 [. N
Language : English
  Y6 D3 \% v( Z. b# ^, U$ I# h, C9 fDefault : Yes
/ d4 a7 K6 w3 W6 s) nForced : No
$ u/ v) O# d4 }; C) s! N& I4 M) E, p/ O$ l+ T  j" Z) E
Audio1 i+ E6 R; z2 ?+ L' [
ID : 1
! h7 I% U9 `" {Format : AC-3
% A: w; L# m# |2 h; h5 y, wFormat/Info : Audio Coding 3
. u" q. R; g$ U0 }$ C3 H2 t' J3 E; MCommercial name : Dolby Digital
- F: V% K4 w) m5 r  @Codec ID : A_AC3
2 ~$ a% T- P+ C+ vDuration : 1 h 39 min) V, Y" @- I% L9 }* e" K( [: U
Bit rate mode : Constant( W2 T$ i8 w7 v. w/ }
Bit rate : 640 kb/s0 k. l) ?& D. E$ v& ]; I! P
Channel(s) : 6 channels& a/ I' z" x1 l8 O5 q* J, I" [
Channel layout : L R C LFE Ls Rs. s$ ?/ z! Y, K
Sampling rate : 48.0 kHz3 C+ F$ n( n  z) v
Frame rate : 31.250 FPS (1536 SPF)4 ^% [2 o3 [' u8 `' P  Q7 j; s- \
Compression mode : Lossy2 t; H0 X8 ~9 e9 ]0 _
Stream size : 455 MiB (10%)
$ M4 F* V- g0 T% u1 R$ H) tLanguage : English
) a$ T$ S- m" a$ @* WService kind : Complete Main1 w3 M1 H8 G9 }/ p2 i3 i; ?3 D( N
Default : Yes
9 H8 `4 `) p4 H$ EForced : No
+ w+ v1 s% O' s5 x9 _
5 {- Y9 W- e, \Text
8 D3 O. g9 K0 \ID : 30 l+ Z5 w) T0 J# w) g* u  a
Format : PGS. B& d, W( Y/ g" p0 E
Muxing mode : zlib
9 A, i7 D! N, M  @  X3 q% L" KCodec ID : S_HDMV/PGS
; t9 G8 o* T# H2 zCodec ID/Info : Picture based subtitle format used on BDs/HD-DVDs
5 a% D4 i5 I, Q/ Y# e' kDuration : 1 h 34 min8 w- y" t& ]! y" [
Bit rate : 12.1 kb/s  z& \4 w0 T( E! |
Count of elements : 14762 B( D& x( K. @2 u8 x
Stream size : 8.16 MiB (0%)) o7 a& }: j% t- ]
Default : Yes( v3 D3 C! x6 k& D3 m' O
Forced : No

' E* m" j* M( {/ [* E/ t
游客,查看本帖隐藏内容请回复 | 加入VIP贵宾组可免积分免回复下载 了解详情 | 还不是会员:点击获取邀请码 Invitation Code

本版积分规则

小黑屋|Archiver|蓝光电影资源网

GMT+8, 2021-1-26 20:00

快速回复 返回顶部 返回列表