BluRayCD Forum

 找回密码
 立即注册【分享大片】

QQ登录

只需一步,快速开始

查看: 8|回复: 0
收起左侧

[经典影片] 财色惊魂/凶手 The Killers 1964 WS 1080p BluRaycd x264-THELOVERS 12.32GB & 6.55GB

[复制链接]

4557

主题

4932

帖子

4万

积分

Post Share

金币
9608 枚
体力
8134 点

卓越贡献勋章

mvods 发表于 2021-2-23 13:53:13 | 显示全部楼层 |阅读模式
01.jpg
* S2 a) A6 t* I% o! c+ H# b1 C: ]; }( e! u7 _1 Y
◎译  名 财色惊魂/凶手; z! h* S: R; P' z. M, S
◎片  名 The Killers / Ernest Hemingway's The Killers
- }* W7 N  h/ f  s◎年  代 1964, u/ e6 K$ t1 y. I& }' h9 \7 \2 A  d
◎产  地 美国
' U3 S# C0 }0 v6 y' P◎类  别 剧情/悬疑/犯罪
0 `; [5 l% W( d4 ]8 J◎语  言 英语
: @: m# D1 `9 S6 k: O/ J: W◎上映日期 1964-07-07
' {* B) Q& [4 n# G9 P* W◎IMDb评分  7.1/10 from 7,185 users" P* z$ O' j$ ^: U& T
◎IMDb链接  https://www.imdb.com/title/tt0058262/. |# R4 H0 C. `& ^+ X1 t" p3 Y7 q* v1 R
◎豆瓣评分 6.8/10 from 401 users8 \/ o: q8 F$ c/ p+ C9 L3 F- c- s
◎豆瓣链接 https://movie.douban.com/subject/1294571/
7 E1 h9 C+ G; z6 T9 {◎片  长 1 h 34 min
8 Q( o; T1 j2 {# N$ q' F◎导  演 唐·希格尔 Don Siegel! ~2 F- L2 U  f, P' A/ v# }
◎编  剧 吉恩·L·库恩 Gene L. Coon) ^* e7 F) x! ]# p/ @: o& a, ~* n
◎主  演 李·马文 Lee Marvin
8 \4 U# Z+ K& B       安吉·迪金森 Angie Dickinson
4 Q" j4 {' t, h3 n2 ~       约翰·卡萨维蒂 John Cassavetes; A0 }* m4 H) X% D1 E# k
       克鲁·古拉格 Clu Gulager
6 M2 b1 O( F# I8 G6 r. N$ Q       罗纳德·里根 Ronald Reagan
4 W  c3 S) d3 [- P7 A4 r       唐·希格尔 Don Siegel1 }/ W6 P" n& L( K; L: B1 ?

+ F& ?' n* `! s. i* P3 ~2 i◎标  签 美国 | CC | 黑色 | 犯罪 | 1964 | 黑色电影 | DonSiegel | 1960s) R4 \: L$ h/ }% E4 ]' q
. W+ A1 H; f6 X- R+ }
◎简  介& r( u3 }5 P+ I# u  E
+ \$ e5 z3 g9 |2 a6 ?  w3 G7 M
  查理(李·马文 Lee Marvin 饰)和李(克鲁·古拉格 Clu Gulager 饰)是拿钱办事的职业杀手,某次,在了结掉了他们的目标强尼(约翰·卡索维茨 John Cassavetes 饰)后,他们对这桩简单的让人简直不敢相信的买卖产生了怀疑。在好奇心的趋势下,查理和李开始调查强尼的底细,得知他曾是一位小有名气的赛车手,却因为赛场上的一起事故而被迫结束了职业生涯。' U$ D3 S$ `6 v
; S( Y! p1 Q+ B' t. B
  随着调查的不断深入,一个名为希拉(安吉·迪金森 Angie Dickinson 饰)的女人渐渐浮出了水面,希拉是黑帮老大布朗宁(罗纳德·里根 Ronald Reagan 饰)的情人,同时和被杀的强尼也有着千丝万缕的关联。渐渐地,查理和李发现他们陷入了一个深深的漩涡之中无法自拔。
$ k* M  h1 I5 i8 G* S0 u9 M! R, N8 |9 T# |3 q
  Surprised that their contract victim didn't try to run away from them, two professional hit men try to find out who hired them and why.' O% r; T. H  {% k
Video% x" V( g, S1 A5 `
ID : 1
5 M" s  u- c' F; t2 w; nFormat : AVC
+ ^% c* b, R$ y5 w# U, V" LFormat/Info : Advanced Video Codec3 Y; @9 |. F& O" C5 W
Format profile : High@L4.1. v: }  W( }! J
Format settings : CABAC / 4 Ref Frames
* \, P( H3 Z9 e: Q: D+ p. uFormat settings, CABAC : Yes
* R. S( t. n+ W1 f6 oFormat settings, Reference frames : 4 frames3 v3 \1 Q/ X$ E+ b" J- q
Codec ID : V_MPEG4/ISO/AVC
5 ]# K) v2 O" I( V7 f5 CDuration : 1 h 34 min
  z0 r3 M# }/ n) P# nBit rate : 18.0 Mb/s
) R4 [8 r# d5 eWidth : 1 920 pixels1 a# `, [# W! ]: F, ]9 A) n
Height : 1 038 pixels5 G0 T2 a$ Y& {/ P
Display aspect ratio : 1.85:17 @: U: I3 e# n- M8 K+ U' n! i
Frame rate mode : Constant
# J% H% o" ^1 O' I, p, xFrame rate : 23.976 (24000/1001/189150) FPS
: S7 G& [: g0 u5 I6 GColor space : YUV5 \/ }7 e2 B# }$ Y! p. s
Chroma subsampling : 4:2:0, Y8 R# |. J9 t+ Q. Y0 V. m+ K' ~
Bit depth : 8 bits
9 {, \" q  a- B5 W1 GScan type : Progressive
+ Q  C/ d) d  sBits/(Pixel*Frame) : 0.376
7 X& x) R8 q$ o. W8 |/ _) L$ b6 jStream size : 11.9 GiB (96%)" a# n! S7 m7 [" m, a& O. {
Writing library : x264 core 161 r3048 b86ae3c. w( C- w( b, z6 K- n
Encoding settings : cabac=1 / ref=4 / deblock=1:-3:-3 / analyse=0x3:0x133 / me=umh / subme=9 / psy=1 / psy_rd=1.10:0.00 / mixed_ref=1 / me_range=32 / chroma_me=1 / trellis=2 / 8x8dct=1 / cqm=0 / deadzone=21,11 / fast_pskip=0 / chroma_qp_offset=-2 / threads=32 / lookahead_threads=2 / sliced_threads=0 / nr=0 / decimate=0 / interlaced=0 / bluray_compat=0 / constrained_intra=0 / bframes=3 / b_pyramid=2 / b_adapt=2 / b_bias=0 / direct=3 / weightb=1 / open_gop=0 / weightp=2 / keyint=250 / keyint_min=23 / scenecut=40 / intra_refresh=0 / rc_lookahead=60 / rc=crf / mbtree=1 / crf=20.0 / qcomp=0.60 / qpmin=0 / qpmax=69 / qpstep=4 / ip_ratio=1.40 / aq=3:0.70
/ Q$ @4 u# G/ f4 V$ l: ~4 S8 P* pDefault : Yes$ Q, X% ?/ _3 H9 o/ K8 S7 q
Forced : No; B2 E- I# j- O1 H
Color range : Limited
1 N' E1 ^4 @: b. y4 z9 k2 V8 P/ ?# gMatrix coefficients : BT.709) z- U% h, D8 M, U. f

. t( K. l8 R9 p3 T( LAudio5 m' ]( E/ u. P, W' s3 B2 z
ID : 2; P; S% k! ~5 u+ }
Format : FLAC
- t! m/ o) [- M0 \' z  `Format/Info : Free Lossless Audio Codec! T) c4 I' j: z7 |
Codec ID : A_FLAC
' n" I; Z+ K2 v4 ]Duration : 1 h 34 min
0 k6 a7 x1 j9 o  r# kBit rate mode : Variable
" i3 U$ ]% ?; lBit rate : 621 kb/s+ z2 ~! h+ y; U7 n5 o# {
Channel(s) : 2 channels1 p. B* \0 h8 l
Channel layout : L R& A4 \  g5 F% G* i
Sampling rate : 48.0 kHz
3 h8 K+ c: J2 U& D0 C  kFrame rate : 11.719 FPS (4096 SPF)
% K& }% o: y. q( g% IBit depth : 24 bits8 |: q/ h5 M  @
Compression mode : Lossless
) k- E7 J" S7 }& s  O! hStream size : 421 MiB (3%)
* I/ H8 g* M+ V4 h8 b7 @+ {Title : Flac 2.0
5 T, P' T$ v$ `$ L" a; l( SWriting library : libFLAC 1.2.1 (UTC 2007-09-17)
: L2 `( l# G! P& s& ?; C) HLanguage : English
( l6 o+ `! d( E* \0 a1 H1 cDefault : Yes
. G. K9 J9 {& r' ?Forced : No$ O+ e. j  |" X5 R6 R
1 J, j7 J" ^  s- n- l  i- s& s
Text #11 G; G, D* x; E& {: [6 _0 G- B
ID : 38 }7 n( j- E7 |7 ^% j
Format : PGS) t5 h/ [, X# Y5 P
Muxing mode : zlib
; L5 y! y5 V7 l0 E4 O" ACodec ID : S_HDMV/PGS7 z" P3 \9 ~9 \9 O- ]! z
Codec ID/Info : Picture based subtitle format used on BDs/HD-DVDs
. l+ w3 G# m3 z- f# d2 A0 YDuration : 1 h 31 min5 q) \8 E5 V! F: ]3 f+ v/ N5 t
Bit rate : 34.9 kb/s8 y6 K5 x, o2 p- {% A. J
Count of elements : 21785 _& y0 g3 U7 e
Stream size : 22.8 MiB (0%)
2 }0 x/ X# C* V2 m; w' ?2 zTitle : Full
9 j6 N4 O& g1 Q1 y; ^6 GLanguage : English  K: L. `4 \7 q* Z/ l" K
Default : No
" w# p! M, n/ c, s* `' P# IForced : No
# Y1 c! }0 S# p" u5 x
4 }) w5 L9 a6 H, [8 G8 ]; sText #2# e7 d1 y" a8 t7 A8 {
ID : 4
" q5 x6 `3 B5 R1 ?( I" }Format : PGS
1 r! d( M+ c. ]Muxing mode : zlib
' _. d/ S- ]' wCodec ID : S_HDMV/PGS: U) e# f' \( b: f8 t/ B
Codec ID/Info : Picture based subtitle format used on BDs/HD-DVDs( a6 g+ q2 V6 P8 F
Duration : 1 h 31 min2 h3 f& q1 [* i. A
Bit rate : 39.8 kb/s
  S  o0 S8 K, XCount of elements : 1827* v1 J- E' B& Q* u- @# l
Stream size : 26.0 MiB (0%)" g, s2 T) G3 U) Z( L5 x9 K
Title : German
5 D% W. j4 R1 A! P1 A( PLanguage : German
6 m" E+ X% h  U% S7 s" g9 A3 S( [% DDefault : No. D1 J. ]1 n  \: J1 n
Forced : No  l9 s& u0 g1 [4 T! q) b
1 e. [0 W3 \  E! f( T8 x
Menu& b& Q# }  H- r' K8 A# r
00:00:00.000 : en:Chapter 01  v6 I5 d6 ^: a7 j% Q  }- y
00:01:26.169 : en:Chapter 02
% s- E% F/ Q' b$ T4 Q6 M) _7 e1 u00:06:03.863 : en:Chapter 03/ l' w( S6 k: d* J' Q3 p
00:09:08.882 : en:Chapter 040 b% x- ?8 o7 a4 L! U) a
00:14:07.346 : en:Chapter 05
- E! F4 a/ R7 W# E. p$ n00:20:10.042 : en:Chapter 06
" c+ {0 s( l7 Q$ L9 y00:22:32.851 : en:Chapter 07
  Q; K) X6 g3 X# o, T- f+ w00:28:40.886 : en:Chapter 088 i- `" ]' R9 B! D2 J# o1 ?2 k- f
00:38:43.404 : en:Chapter 09
+ j: J, b9 |, k# e  M) b00:45:33.397 : en:Chapter 10
# @7 ^) N: Q$ y5 w8 k1 n) g8 L9 u00:54:49.369 : en:Chapter 11& l7 C: p9 [, q
01:03:00.902 : en:Chapter 12, ]0 _, v& n. l7 I1 a& ]( p' N
01:10:26.472 : en:Chapter 137 d" q& d4 u0 J1 L5 G
01:17:12.127 : en:Chapter 14
. X- _& i4 H. ~: T% w2 t6 R01:25:37.549 : en:Chapter 15
) C" I% T" w+ H1 u1 q7 t" v01:34:01.135 : en:Chapter 16
) C( P1 ?. T+ {" Y# O1 n  M* l
游客,查看本帖隐藏内容请回复 | 加入VIP贵宾组可免积分免回复下载 了解详情 | 还不是会员:点击获取邀请码 Invitation Code

本版积分规则

小黑屋|Archiver|蓝光电影资源网

GMT+8, 2021-3-9 12:11

快速回复 返回顶部 返回列表