BluRayCD Forum

 找回密码
 立即注册【分享大片】

QQ登录

只需一步,快速开始

查看: 10|回复: 0
收起左侧

[经典影片] 财色惊魂/凶手 The Killers 1964 WS 720p BluRaycd x264-THELOVERS 6.27GB & 3.28GB

[复制链接]

4555

主题

4930

帖子

4万

积分

Post Share

金币
9602 枚
体力
8130 点

卓越贡献勋章

mvods 发表于 2021-2-23 13:59:41 | 显示全部楼层 |阅读模式
02.jpg 5 ?1 F7 A2 ^6 y8 I2 K
  u6 l; |/ R1 T, J, ?+ a
◎译  名 财色惊魂/凶手
' h  ^0 B2 j( i◎片  名 The Killers / Ernest Hemingway's The Killers& }. N  @. H# g& \) x2 g# _0 s
◎年  代 1964
: d- P8 P7 n3 f3 b/ F◎产  地 美国
! Y  W' d3 \1 o& ]2 ~6 j' |◎类  别 剧情/悬疑/犯罪
% Y( }! \4 E+ x2 [& a◎语  言 英语
* b0 }# H+ N6 u0 m% r◎上映日期 1964-07-07
. W7 b& t8 U3 ^: B, n1 D◎IMDb评分  7.1/10 from 7,185 users! A! Z$ r4 N  p. H" O( F5 G) f6 M5 l
◎IMDb链接  https://www.imdb.com/title/tt0058262/: N- f1 k  ^; c" J, ~
◎豆瓣评分 6.8/10 from 401 users/ |) M7 @4 K2 o0 q; S$ P6 [
◎豆瓣链接 https://movie.douban.com/subject/1294571/
, C  f; Z1 m) Q2 q& n) |) C◎片  长 1 h 34 min: J. a6 g) {4 c. R# J# g
◎导  演 唐·希格尔 Don Siegel
, r! s( }! h8 b  l7 Y◎编  剧 吉恩·L·库恩 Gene L. Coon- u3 R2 [/ M! c# @) m' o
◎主  演 李·马文 Lee Marvin+ Z4 m: d# r- [& ]4 F
       安吉·迪金森 Angie Dickinson) T& R9 [6 d% f5 [; l, p
       约翰·卡萨维蒂 John Cassavetes/ e3 m4 K, f! U, |
       克鲁·古拉格 Clu Gulager6 @& S6 ~% J3 J  t, o3 r7 u4 n% Z
       罗纳德·里根 Ronald Reagan% q# {0 T% B& P4 F% u2 t
       唐·希格尔 Don Siegel3 s0 e5 H+ x# c2 Q) L" ~& F4 [9 \
, B+ k: @( W7 f* \; ^
◎标  签 美国 | CC | 黑色 | 犯罪 | 1964 | 黑色电影 | DonSiegel | 1960s
2 X' F3 H& S6 i. i) t2 j- a; P5 M" E2 R- i) X
◎简  介: F$ p% s1 ~; H2 B
' \0 d1 D8 K# E
  查理(李·马文 Lee Marvin 饰)和李(克鲁·古拉格 Clu Gulager 饰)是拿钱办事的职业杀手,某次,在了结掉了他们的目标强尼(约翰·卡索维茨 John Cassavetes 饰)后,他们对这桩简单的让人简直不敢相信的买卖产生了怀疑。在好奇心的趋势下,查理和李开始调查强尼的底细,得知他曾是一位小有名气的赛车手,却因为赛场上的一起事故而被迫结束了职业生涯。5 O; X/ m( |( [% I$ T& ]
, F4 H- k% Z5 `; V0 o
  随着调查的不断深入,一个名为希拉(安吉·迪金森 Angie Dickinson 饰)的女人渐渐浮出了水面,希拉是黑帮老大布朗宁(罗纳德·里根 Ronald Reagan 饰)的情人,同时和被杀的强尼也有着千丝万缕的关联。渐渐地,查理和李发现他们陷入了一个深深的漩涡之中无法自拔。, m( y) p+ Z2 W, s2 {
Video
7 }  P2 ~4 F# y; ?  aID : 1  u& ?4 m: v9 {
Format : AVC6 d: S! U: M) R0 g- ]5 z
Format/Info : Advanced Video Codec+ E: [: R' C* i( `2 [# y2 \9 a
Format profile : High@L4.1
) a4 b$ ]/ V4 a' |Format settings : CABAC / 8 Ref Frames
: q( }" |1 o, p1 [Format settings, CABAC : Yes
- C7 ?9 v+ z& [- A5 X2 AFormat settings, Reference frames : 8 frames
7 c, b& H8 d( j& I: TCodec ID : V_MPEG4/ISO/AVC
9 k9 C! E: U8 P3 T  r/ I: KDuration : 1 h 34 min' v7 O) a9 P0 F" P0 }- {# Z- ^
Bit rate : 8 828 kb/s
" t! ?9 B! Z% X, ]Width : 1 280 pixels
' H5 X- I/ c7 R* d# Y" {Height : 692 pixels/ A$ T" W7 Y% i
Display aspect ratio : 1.85:1( i5 l8 H! U+ @: N1 t4 J# m
Frame rate mode : Constant
' g. D% S) _' ^9 {Frame rate : 23.976 (24000/1001/189150) FPS
5 ?+ ~% `( z3 V) d+ I! dColor space : YUV
" o7 e. o6 C& H( u, wChroma subsampling : 4:2:08 k  x' N6 `9 i  O$ a
Bit depth : 8 bits$ j  N. L6 p! K/ b7 ~
Scan type : Progressive7 s; B4 E, r5 n% ^( I$ L
Bits/(Pixel*Frame) : 0.416
9 O% }1 T1 d" j: FStream size : 5.84 GiB (93%)8 `$ [- L+ _5 ^% |: ^5 l
Writing library : x264 core 161 r3048 b86ae3c9 N! W- y& p+ M6 Z
Encoding settings : cabac=1 / ref=8 / deblock=1:-3:-3 / analyse=0x3:0x133 / me=umh / subme=9 / psy=1 / psy_rd=1.10:0.00 / mixed_ref=1 / me_range=24 / chroma_me=1 / trellis=2 / 8x8dct=1 / cqm=0 / deadzone=21,11 / fast_pskip=0 / chroma_qp_offset=-2 / threads=22 / lookahead_threads=1 / sliced_threads=0 / nr=0 / decimate=0 / interlaced=0 / bluray_compat=0 / constrained_intra=0 / bframes=3 / b_pyramid=2 / b_adapt=2 / b_bias=0 / direct=3 / weightb=1 / open_gop=0 / weightp=2 / keyint=250 / keyint_min=23 / scenecut=40 / intra_refresh=0 / rc_lookahead=60 / rc=crf / mbtree=1 / crf=18.5 / qcomp=0.60 / qpmin=0 / qpmax=69 / qpstep=4 / ip_ratio=1.40 / aq=3:0.70
( g" w6 r: \1 I: S, Z- ~$ b3 _Default : Yes' k3 x4 h9 q$ K5 Q6 ~  d8 t, @  P
Forced : No+ g: q. J+ L8 H2 Q7 q' ~* n5 n
Color range : Limited
* Q" s& H# @  Z  T2 T: AMatrix coefficients : BT.709- F: U1 |- B- s" ?) j) @& [% R  X2 o

4 v. v  x, Y- X) Y- o8 nAudio9 k7 r: F5 K, z2 b* b
ID : 2; ~$ d, D: e  g/ R2 [$ O* X9 R
Format : FLAC- p3 F  ^& x4 |9 g* J
Format/Info : Free Lossless Audio Codec- B- H: X+ l  Z8 ?) R
Codec ID : A_FLAC* C- w3 d. f6 ?
Duration : 1 h 34 min& t1 }4 K6 W; `
Bit rate mode : Variable5 B# [; k, x4 {0 k, _
Bit rate : 621 kb/s( M( Q; h( L6 @; f, Z/ C) I
Channel(s) : 2 channels' ^7 Z: C; K1 L) \! i5 ~( K
Channel layout : L R
/ t" l4 o4 \% F1 YSampling rate : 48.0 kHz
2 p. {+ i. X" w9 H) F: MFrame rate : 11.719 FPS (4096 SPF)
  k# p5 O; L  A% t, t, x1 F6 WBit depth : 24 bits5 M0 ]0 C4 R2 e' P
Compression mode : Lossless
1 W. t/ B% d) A0 |  x8 uStream size : 421 MiB (7%)/ D1 I) c: f! {
Title : Flac 2.0
4 u; h7 }0 @# X! F+ n% v: bWriting library : libFLAC 1.2.1 (UTC 2007-09-17)
" V. y- V, Z0 G! s: w/ iLanguage : English
' X. E5 G# T1 A9 J+ U) Q6 RDefault : Yes
( c/ h% H( C& |( `Forced : No+ [$ M' {: e+ R( y

1 a/ c5 }  ], P/ oText #1* [/ n: E6 c& t4 U) N4 k: k
ID : 3
3 r( z$ e% o5 C+ e! F1 YFormat : PGS
: P3 {! ^9 \2 B3 R7 l" F- A! D+ nMuxing mode : zlib' w: |+ m1 \( @! S8 h. r( x/ ?; A
Codec ID : S_HDMV/PGS: @9 }- F" o- E5 E6 |
Codec ID/Info : Picture based subtitle format used on BDs/HD-DVDs7 @# A3 j2 s6 l& |
Duration : 1 h 31 min
  o7 i& C! k) _2 @' K3 W! |Bit rate : 34.9 kb/s6 ~" V" K) r0 ]2 z- V5 V, A7 L& }
Count of elements : 2178' H! u5 P9 F; `8 A, D
Stream size : 22.8 MiB (0%)
" |6 A6 ~+ B, HTitle : Full" Y; r: [( {! P4 ~' Q7 e
Language : English
) z+ S) r3 u3 S+ HDefault : No
- Q1 K! k; [1 q8 a/ @% H& n/ E  yForced : No: y4 ?% Y6 c" C. k8 w. q

9 Q. T3 W3 b4 EText #2
& P: V: u1 n& GID : 4
; e. K+ t2 a' l7 K) n0 {Format : PGS+ g- k0 h$ d7 K8 @# @& i7 Q
Muxing mode : zlib
" U! M1 k% c3 {# G" v+ j" S, pCodec ID : S_HDMV/PGS
0 ^3 a: Y7 s  n: PCodec ID/Info : Picture based subtitle format used on BDs/HD-DVDs
  F. Z' `6 e0 u8 D5 n+ QDuration : 1 h 31 min
2 v' n6 @. Y  E5 e) X5 ?+ e0 HBit rate : 39.8 kb/s! H, q2 ~% Q. `; k
Count of elements : 1827
: k& m$ [) k5 [Stream size : 26.0 MiB (0%)
9 E( d4 q7 H% Z/ E( d" nTitle : German
' ]0 T5 e0 e) n" eLanguage : German4 @' Q2 c# J" @: z' ?1 D. Q
Default : No
7 ^6 ?% c1 E/ RForced : No
$ L1 |0 D) u9 f
* A/ l+ a8 L1 f1 x/ {, iMenu5 r, V1 Z" O) r/ O/ O, U$ S
00:00:00.000 : en:Chapter 01. H& {1 Z8 q+ O8 Y, C# x
00:01:26.169 : en:Chapter 022 \- g8 {# ]- A( G  }1 q
00:06:03.863 : en:Chapter 03
' x% ?! |4 k" A. C! {( Z# \00:09:08.882 : en:Chapter 04+ \+ t' a$ {" M' E  y& m3 {
00:14:07.346 : en:Chapter 059 q; a! x* H0 W: F3 P) s( A; H7 G! ^0 V
00:20:10.042 : en:Chapter 06
5 }8 {: i0 ?( q. T/ Z' c' v00:22:32.851 : en:Chapter 07" Q4 U  U  p, u; Z: e+ Z
00:28:40.886 : en:Chapter 08
) Y3 b0 ~6 r& ~3 n( |4 c$ r! O00:38:43.404 : en:Chapter 092 \5 N. p, R2 v7 N
00:45:33.397 : en:Chapter 100 |; {' Y/ t" s. H
00:54:49.369 : en:Chapter 11
4 I1 g* W7 G* ?7 g01:03:00.902 : en:Chapter 12. h. M) g: f* n6 G' w5 q. K; c
01:10:26.472 : en:Chapter 13
/ t' B# l; x/ r$ }  d2 U8 R01:17:12.127 : en:Chapter 14: u: o3 c' ]1 `" }# M; B  A
01:25:37.549 : en:Chapter 15
' l0 k. z4 l. C01:34:01.135 : en:Chapter 16

8 W, X: f$ F: {; s
游客,查看本帖隐藏内容请回复 | 加入VIP贵宾组可免积分免回复下载 了解详情 | 还不是会员:点击获取邀请码 Invitation Code

本版积分规则

小黑屋|Archiver|蓝光电影资源网

GMT+8, 2021-3-9 11:46

快速回复 返回顶部 返回列表