BluRayCD Forum

 找回密码
 立即注册【分享大片】
查看: 13|回复: 1
收起左侧

[蓝光原盘] 征服/恶夜杀神 [REMUX无损版] Vanquish 2021 1080p BluRaycd REMUX AVC DTS-HD MA 5.1-FGT 19.58GB

[复制链接]

9516

主题

9924

帖子

9万

积分

Super moderators

金币
646 枚
体力
45745 点

最高荣誉勋章

24xs 发表于 2021-5-8 02:48:27 | 显示全部楼层 |阅读模式

- ?' a0 V# U% N, w+ U3 p. W' P; m0 u5 x; }' m% J7 Y! n- N
◎译  名 征服/恶夜杀神(台)' F) x2 N/ G8 h, A* p4 }4 g
◎片  名 Vanquish / The Longest Night" u3 b9 k7 q& B2 V+ c
◎年  代 2021: j( l7 m( }% W. m2 H
◎产  地 美国; a5 i/ l* V" n, m+ J
◎类  别 动作/惊悚/犯罪5 C, A7 B" p! M+ x
◎语  言 英语" u+ j) e' b8 ?3 w7 U+ [" w3 h
◎上映日期 2021-04-23(美国)* C& K# O* b& Q4 V) R  ?5 q. R
◎IMDb评分  2.6/10 from 1,779 users; G0 z) `4 P0 d6 P2 P% ]6 |+ v
◎IMDb链接  https://www.imdb.com/title/tt5932368/6 `3 |- v1 i$ u) I$ E5 p! m" f
◎豆瓣评分 4.1/10 from 366 users/ n# _1 s+ H$ p9 r; h9 \5 e
◎豆瓣链接 https://movie.douban.com/subject/35203597/9 [$ [8 @. @6 {# g  Y
◎文件格式 x264 + DTS
- l' t) h  S: v7 c/ o◎视频尺寸 1920 x 1080
3 @# }( Q5 T) W4 _$ w# V5 F◎文件大小 1DVD 19.58 GiB
# I9 _0 D; ?5 O! e$ M" v◎片  长 1 h 34 min& E+ R1 k6 r) k# t
◎导  演 乔治·加洛 George Gallo# x/ ?- U3 ]8 |8 N* `
◎编  剧 乔治·加洛 George Gallo
; v6 N6 z( Z. P3 f2 J◎主  演 鲁比·罗丝 Ruby Rose/ K$ T5 G8 J1 U0 p  C
       摩根·弗里曼 Morgan Freeman
' N& f/ C8 M' f/ u, |       帕特里克·茂顿 Patrick Muldoon5 Z2 B2 ~8 T* x) s4 U
       Julie Lott
: \4 k1 F. W/ M' j; t; S4 N# r       尼克·瓦莱隆加 Nick Vallelonga
1 Z, C& ^- m/ l) t3 L: B       乔尔·迈克利 Joel Michaely
" g/ ^% z. k" V" N, _  o& T       迈尔斯·多莱克 Miles Doleac; a+ J2 B" r' R$ V- A: X
       克里斯·穆利纳克斯 Chris Mullinax* L7 c  A  ?, w- s- j4 y
       保罗·辛普森 Paul Sampson
( u3 m' T3 l  ~0 S; |* [       Juju Journey Brener3 K) c+ x# ?  Q8 ?$ [
       埃莱·巴德汉 Ele Bardha, y2 }+ K3 U+ Z3 x
       Richard Salvatore3 M# A" {" i, z1 a- S$ F* |
       Bill Luckett) }+ K, v/ `7 ^7 j1 w
       Dylan Flashner
: f; v, ^4 l, \) s( N       伊万·高蒂尔 Yvan Gauthier
$ i. D, u; d3 U; p4 Y
; d5 {7 L4 J8 b; \/ Z; f: w$ S4 E: _: C◎标  签 美国 | 惊悚 | 动作 | 摩根·弗里曼 | 2021 | 鲁比·罗丝 | 美国电影 | 译制片
2 F0 [# ^+ M2 w/ H5 w# F
, c2 u0 @4 {' b7 q◎简  介   
- J; T2 d6 n, N  C4 Y  t  X
+ y9 D. w. V5 T2 w4 d5 W  摩根·弗里曼、鲁比·罗丝将主演动作惊悚片[征服](Vanquish,暂译)。乔治·加洛([中间人])执导,加洛与Samuel Bartlett共同操刀剧本。弗里曼饰演一位退休的警察局长,他通过绑架他的看护人(罗丝)的女儿来勒索她,迫使她帮助他,欺骗他腐败的警察团队,企图清理整座城市。该片已在密西西比州比洛克西开拍。
: W- Z4 @" ]" `/ Q, ?6 k3 N( f8 O# P
7 l1 W. A/ D5 T2 m  A mother, Victoria, is trying to put her dark past as a Russian drug courier behind her, but retired cop Damon forces Victoria to do his bidding by holding her daughter hostage.
* Z! X8 p8 b( l
Video7 M4 O9 J& f% x! P
ID                                       : 1
9 ]2 s+ s' r8 T/ }4 SID in the original source medium         : 4113 (0x1011)
; D% O7 z" z5 t2 B" R" K6 q& ?Format                                   : AVC8 W* d( b% A5 e$ Y
Format/Info                              : Advanced Video Codec
2 @2 |2 {8 [* B2 sFormat profile                           : [email protected]5 h1 b; u* R! ]0 A  J
Format settings                          : CABAC / 4 Ref Frames9 f4 |' M8 [3 y8 W
Format settings, CABAC                   : Yes+ e+ Q8 h0 I6 T
Format settings, Reference frames        : 4 frames" m7 V  p6 R6 u0 p, ~
Codec ID                                 : V_MPEG4/ISO/AVC  O1 o8 B5 l1 ^- i' ~1 U+ K* V$ }9 `: {. f
Duration                                 : 1 h 34 min
/ F% }2 e' d( p8 w9 d$ ~Bit rate mode                            : Variable
* Z) N- @% Y' u# U" ?( KBit rate                                 : 25.7 Mb/s3 |" R. b4 h- D2 M4 \& T
Maximum bit rate                         : 37.0 Mb/s- D7 H# f) C8 ]4 h+ r% \
Width                                    : 1 920 pixels
5 u* N0 K4 G+ Y; |9 n" N& DHeight                                   : 1 080 pixels
! U2 r2 h, _* m( xDisplay aspect ratio                     : 16:9
* n( l3 w3 T3 j: _Frame rate mode                          : Constant
1 z' M! T, e6 j, R8 J- M  tFrame rate                               : 23.976 (24000/1001/189150) FPS  ]/ P; \1 K5 d3 a- a8 O/ ~( Z
Color space                              : YUV! w, Z2 D4 x1 [$ }9 y; ]
Chroma subsampling                       : 4:2:0
3 P, O$ T  Z0 r. A3 e9 HBit depth                                : 8 bits
0 x$ K+ n' E- u/ e4 q' jScan type                                : Progressive
0 q# |& [' t* R8 h* |0 NBits/(Pixel*Frame)                       : 0.518) z0 `( l2 Q2 n8 c0 Q
Stream size                              : 16.9 GiB (86%)$ T2 ]+ M0 C' }6 q4 }$ y" W
Title                                    : Vanquish.2021.1080p.BluRayCD.REMUX.AVC.DTS-HD.MA.5.1-FGT1 Z7 V$ ]! |) _
Language                                 : English
2 I, V% W) F9 A" c) Q9 C8 \! Z( qDefault                                  : No
! Z% o- G# ~  f; z) F2 `5 jForced                                   : No
6 I9 j/ C4 n2 h' [' R$ Y/ dOriginal source medium                   : Blu-ray! U( S0 }6 j" Z' R+ w% b% \! w6 r! i

( T5 @' Q" v1 i9 K2 |3 oAudio #1
% U. Q2 ?% E  D0 a0 }ID                                       : 2# ?6 o9 P# X+ I$ V: ^1 [/ N# T
ID in the original source medium         : 4352 (0x1100)8 {- X, j* V; f& s( t
Format                                   : DTS XLL
! ?8 B1 R8 x0 Z1 Q1 L5 tFormat/Info                              : Digital Theater Systems
4 W+ x+ v& y1 f$ a. c# BCommercial name                          : DTS-HD Master Audio, w9 a& @- G0 F) b8 A  a  M: R1 X
Codec ID                                 : A_DTS' N- Q! ]* |5 E5 N
Duration                                 : 1 h 34 min) o: @# m) S. q+ D' c
Bit rate mode                            : Variable
; j9 y: n! c5 D9 Z1 e0 C  PBit rate                                 : 3 801 kb/s( }  S* H( z+ q  `9 F5 T; o! I
Channel(s)                               : 6 channels) {3 H' ?6 w7 V2 D) w: u
Channel layout                           : C L R Ls Rs LFE
( X$ v; `$ |3 L- ^. p# YSampling rate                            : 48.0 kHz  m3 ^; x2 a8 L6 U
Frame rate                               : 93.750 FPS (512 SPF)
3 Z- {" X: i) ]8 p7 r: qBit depth                                : 24 bits
  b1 {; K* M6 M- N! V2 i7 ^/ ^Compression mode                         : Lossless) ~) m+ ~% J9 T9 F, O  z- B
Stream size                              : 2.50 GiB (13%)! @0 t& a) l7 [$ D4 i, c1 I* m6 Q  X
Title                                    : Vanquish.2021.1080p.BluRaycd.REMUX.AVC.DTS-HD.MA.5.1-FGT
7 B2 L; @* ]9 d$ p* S$ rLanguage                                 : English- D5 b  }+ a3 f
Default                                  : Yes5 O3 Q6 d  o- ]4 o. A& t. L
Forced                                   : No
' u5 f( p2 T) v8 h1 Y) @Original source medium                   : Blu-ray1 F: \7 `+ e, S0 b! @3 r; E4 |

' W  V& }5 e' J$ r1 e4 QAudio #2
8 {! @$ I- O; SID                                       : 31 _# s+ z! D+ f9 A9 M, G0 r
ID in the original source medium         : 4353 (0x1101)0 J$ y/ z% |) s! F+ C" @
Format                                   : AC-3
. F5 q- Z# w0 ^Format/Info                              : Audio Coding 31 [& d0 M" F* O9 H' e0 N
Commercial name                          : Dolby Digital+ \! J; `( i) q
Codec ID                                 : A_AC3
5 H$ \. E: N* {" g" \- eDuration                                 : 1 h 34 min
- K2 z; f9 N' u# F' ?, U: UBit rate mode                            : Constant
$ l/ ^! C/ ?9 b/ I  N% p5 P3 c; _) BBit rate                                 : 192 kb/s
4 C; u8 l+ V2 EChannel(s)                               : 2 channels
% R, ~3 b0 U% {7 `2 o1 O8 I7 c* pChannel layout                           : L R
. w. v8 j9 g$ Q" @& ?Sampling rate                            : 48.0 kHz
7 I6 E1 A% M  AFrame rate                               : 31.250 FPS (1536 SPF)
% X/ _! j5 Z" t, S0 M% [% cCompression mode                         : Lossy
  b4 Q% R0 D! s0 N, t- t- GStream size                              : 129 MiB (1%)
( E# ^& g  g) ^& ~# `Title                                    : Vanquish.2021.1080p.BluRaycd.REMUX.AVC.DTS-HD.MA.5.1-FGT1 N5 Q9 m. o2 L) J' m
Language                                 : English
% _7 L% m( K9 V" qService kind                             : Complete Main
3 H) |3 s: I! i& J; h( u# u* [Default                                  : No0 q$ Z( W: D, z& @& [
Forced                                   : No
6 e6 M# M8 u3 Z  i. l% uOriginal source medium                   : Blu-ray8 k- t! R0 V) ~* K

+ i& Q2 t4 y- C& \+ u0 pText #16 U- R' ?5 w; {( c& m$ {6 p; J
ID                                       : 4
- {8 ~8 e2 c& D1 OFormat                                   : UTF-8" O+ f# ~6 o/ ^! k8 o
Codec ID                                 : S_TEXT/UTF82 ?; _! `7 T( X0 w2 V
Codec ID/Info                            : UTF-8 Plain Text
' K. o- K+ [0 YDuration                                 : 1 h 30 min
# a: J1 b3 @) V: jBit rate                                 : 34 b/s
5 A' f; d# n0 X$ u+ B; l. b/ s5 `Count of elements                        : 953% j# I6 Z4 E7 r7 a( j
Stream size                              : 23.2 KiB (0%)# Y8 r; t5 w3 J) U' ~& M: r% i
Title                                    : English-SRT. T& {6 w/ j' I8 A
Language                                 : English
/ S3 \# T2 m0 \7 JDefault                                  : Yes
7 r% d$ i+ T  JForced                                   : No
0 z* m; ^% U! N1 n$ z
( V9 T: l( h1 ]Text #2  N  V+ o# F) ^' K3 S9 {& c
ID                                       : 5
8 C* m: e  b# _# @- r1 {ID in the original source medium         : 4608 (0x1200)+ I# n- l# l8 W( j) T4 }- d
Format                                   : PGS: f1 D+ H3 p/ r1 I9 ^8 E
Muxing mode                              : zlib5 A7 d) v) @2 `0 s, e0 J/ ]( X
Codec ID                                 : S_HDMV/PGS
5 r/ H9 g9 {) |  @0 Y. WCodec ID/Info                            : Picture based subtitle format used on BDs/HD-DVDs
- k& H7 C( ]1 ]' rDuration                                 : 1 h 30 min" d4 k+ R" _2 k" e/ O  m/ d- _0 }
Bit rate                                 : 26.6 kb/s- O0 Q9 f* m  Y# H7 x; M
Count of elements                        : 22565 S- x) u  f) g' Z
Stream size                              : 17.3 MiB (0%)  G2 l2 ^' A' w
Title                                    : English-PGS
7 V3 E- C6 i8 s0 wLanguage                                 : English
9 t! x- o% l# u! j# q, U% O/ BDefault                                  : No0 g& Y! B: [) p! g4 N) b9 W$ }5 S
Forced                                   : No
3 {8 g6 [9 z/ M* B( s' KOriginal source medium                   : Blu-ray
: d( l( k* D; t% b4 I  }7 b: A( |/ a! d5 E% d+ Q; l- W( G
Text #33 k+ v! k2 Q2 e; Y7 \
ID                                       : 6  Q* p! p1 w" ~# a8 K- l
ID in the original source medium         : 4609 (0x1201)
4 q4 W, w, \+ N( O3 T2 kFormat                                   : PGS
! y. a$ x) f6 bMuxing mode                              : zlib
6 I7 c% p) M3 XCodec ID                                 : S_HDMV/PGS5 w# f' p# P' \- d8 J2 _7 o
Codec ID/Info                            : Picture based subtitle format used on BDs/HD-DVDs
8 g3 W6 Y7 p" h. X; RDuration                                 : 1 h 32 min
' p* F6 F  |% b; @Bit rate                                 : 20.8 kb/s* U, p2 _  I' ?
Count of elements                        : 1716
, {" n3 A  Q# ^. }Stream size                              : 13.7 MiB (0%)8 W; ^% J$ u; u8 m- \
Title                                    : Spanish-PGS, g6 e3 ], a: ^2 l, \! c# e$ |
Language                                 : Spanish0 h+ q* D* g! M9 {, |$ f0 P& f. X# ^
Default                                  : No9 H' q1 f" p& b4 Y9 G' V) o3 e
Forced                                   : No7 b' b4 v  U1 ^1 H7 ?
Original source medium                   : Blu-ray
! _( E5 o2 W, Z2 s) k4 k  I+ b! z- P; [3 j+ @( h0 w4 x0 o
Text #4( C/ [& g* A7 r5 e6 d
ID                                       : 7
0 A$ m8 r* `3 |: D9 S# c! AID in the original source medium         : 4610 (0x1202)0 C$ _1 b7 _$ q: b/ @$ `
Format                                   : PGS0 N( E! a" ]% c/ y/ H& E8 D
Muxing mode                              : zlib0 _: _9 @& H. e2 m( E$ T" H- ~
Codec ID                                 : S_HDMV/PGS: m1 W4 @. J% X5 R6 x4 o$ w/ V
Codec ID/Info                            : Picture based subtitle format used on BDs/HD-DVDs
: s2 T6 S; u4 ^+ O' dDuration                                 : 1 h 31 min
2 E3 ]# H+ x: Q% g! \& bBit rate                                 : 20.8 kb/s- M" |3 y' e( L2 M
Count of elements                        : 1758
7 m( v" |" I: i2 v. dStream size                              : 13.6 MiB (0%)
  T, Q+ ?4 _; p1 \# x, J. r1 S3 hTitle                                    : Portuguese-PGS% I/ l: E' N. M0 s$ z" I. M; S4 l
Language                                 : Portuguese, `9 S+ U" m" I4 k* K
Default                                  : No# |# Q- u- Y0 X) F2 n
Forced                                   : No0 c+ g" G% `7 K9 Z* z
Original source medium                   : Blu-ray3 A- b* k/ T1 b' }

6 n" N9 ]) s& v4 }5 G/ y; lText #5
$ E) f" S- _( d( n! e' ]0 R9 XID                                       : 8
3 P6 s) j& h% U* @) \ID in the original source medium         : 4611 (0x1203): X% s; ^0 j" J+ \' ]# g* w
Format                                   : PGS$ x7 [4 @6 R" Z4 X
Muxing mode                              : zlib
- a0 s' C9 i& OCodec ID                                 : S_HDMV/PGS9 I* L# ?0 T0 j4 [7 q2 r; v
Codec ID/Info                            : Picture based subtitle format used on BDs/HD-DVDs/ Q- Y. d9 t) Q5 k7 H3 b* B
Duration                                 : 54 min 19 s
( f$ Q: E  Q6 z. `! }- X9 U6 WBit rate                                 : 1 112 b/s
6 k! w6 E5 ~2 h8 d; l$ Q5 n7 gCount of elements                        : 60
' b+ E) w. T. k9 i! F: JStream size                              : 443 KiB (0%)* i" {# l# T- E/ D* v
Title                                    : English-FORCED-PGS
6 G# Y9 o" r1 G& X% }# WLanguage                                 : English+ N, M, V; A" B! L+ L7 X. \6 N
Default                                  : No
3 ~$ J4 d4 K" B1 S% sForced                                   : No
  C1 C8 x) @! ~! AOriginal source medium                   : Blu-ray
* Y1 {- q4 f& U) g( v" T* X; s9 N" V% P8 R/ E5 O  a
Text #65 x8 |- X8 I* O0 q  A8 F1 ]
ID                                       : 9) R! N/ q. O2 G/ [- A7 m% Z
ID in the original source medium         : 4611 (0x1203)
: o$ O& v, C7 J: s  S+ }Format                                   : PGS. g& M% N" B, `( I9 {! l4 O5 x
Muxing mode                              : zlib
8 r9 l9 Y% [8 B2 }5 i; jCodec ID                                 : S_HDMV/PGS
' {$ x' x9 z, y$ t9 e9 }Codec ID/Info                            : Picture based subtitle format used on BDs/HD-DVDs
; X9 x) P# Z( m4 ^& \Duration                                 : 54 min 19 s
; h" s0 r& Q" n. I- M5 |Bit rate                                 : 1 112 b/s/ C/ R# @" N5 |- I- z6 [+ `: P
Count of elements                        : 60) d5 V* R& _; r/ r3 Y4 N
Stream size                              : 443 KiB (0%)
4 Q1 Y4 L0 e1 u5 p5 T! VTitle                                    : English-FORCED-PGS
: A# ~& `7 X. f- l  e1 {+ l7 QLanguage                                 : English$ `: t) S% l8 f& K5 n
Default                                  : No+ @0 u- n0 u$ z8 i- H8 S
Forced                                   : No) _! |! X6 E* n' q* M6 b
Original source medium                   : Blu-ray
& ^$ O% Z2 f. T. s0 Y; z  i2 S& ]9 E5 P1 x3 R- F
Menu
$ V' X7 E. B) k$ @; ?3 x00:00:00.000                             : Chapter 01* w% b) D, J  N7 I- _3 h
00:06:17.460                             : Chapter 02: n3 M1 ^$ O* }+ f) [( T; l
00:11:53.087                             : Chapter 033 u/ i; m% Y/ i& G! A+ B
00:16:05.089                             : Chapter 04
& t8 @, {6 K7 h' e6 p00:23:06.051                             : Chapter 05
, b3 }$ p3 z# Z: H, x00:26:23.540                             : Chapter 06& v  F5 M( c2 o1 Y
00:33:11.531                             : Chapter 07: G# i1 N" u  f
00:42:08.943                             : Chapter 080 K1 {( d' E* y- p" k8 {6 f% p
00:44:56.235                             : Chapter 099 }( t* _* \$ y
00:50:57.137                             : Chapter 10# c( \' j. l, o& B5 v, {5 W% d
00:55:27.449                             : Chapter 11
( \" i% h7 K* K/ ~% @* _3 C; r01:02:05.388                             : Chapter 12
  s- A" r  S$ O; p# z01:08:37.279                             : Chapter 13" `" h- l/ Q/ R: N
01:14:32.926                             : Chapter 14
; k3 w; s! R: q01:18:50.183                             : Chapter 15
! \0 _' O  J& V: K! t01:25:52.105                             : Chapter 16

# T& L5 {+ {, N: t
游客,查看本帖隐藏内容请回复 | 加入VIP贵宾可免积分免回复 了解详情 | 还不是会员:点击获取邀请码 Invitation Code

76

主题

2758

帖子

1万

积分

Sponsor

金币
1312 枚
体力
3839 点
lanpanshuma 发表于 2021-5-8 08:28:09 | 显示全部楼层
每天都来蓝光论坛看看,我爱蓝光电影。
1 P$ x7 ~! A6 YAfter reading the posts have nothing to do I Amoy posts!+ B. s) Z  [; O! H
该会员没有 ...

本版积分规则

小黑屋|Archiver|蓝光电影资源网

GMT+8, 2021-6-12 19:07

快速回复 返回顶部 返回列表