BluRayCD Forum

 找回密码
 立即注册【分享大片】
查看: 135|回复: 1
收起左侧

[蓝光原盘] 米纳里/梦想之地 [REMUX无损版] Minari 2020 KOREAN ENSUBBED 1080p BluRaycd REMUX AVC DTS-HD MA 5.1-FGT 31.47GB

[复制链接]

9642

主题

1万

帖子

9万

积分

Super moderators

金币
837 枚
体力
46036 点

最高荣誉勋章

24xs 发表于 2021-5-18 04:28:07 | 显示全部楼层 |阅读模式
A Korean family starts a farm in 1980s Arkansas.) Q7 ^7 ^/ w9 i: A7 T( X
% G+ y2 v9 h# M8 N4 E+ s  A
01.jpg 6 z2 \8 U% p0 C

4 R$ w1 u" S, E: A% X◎译  名 米纳里/梦想之地(台)/农情家园(港)/水芹菜! L; v# D5 D' r: u* b% x% ^9 O0 r3 L* Q
◎片  名 Minari / 미나리
2 l8 `) \9 R) @3 ]/ K◎年  代 2020) D- T% m" Y/ S- M7 `! [5 G$ s8 M3 M
◎产  地 美国% n( Y# W4 T" @- e0 j
◎类  别 剧情
9 x. S6 T' e/ W◎语  言 韩语/英语
' V# |7 C3 s8 N% h" z. @◎上映日期 2020-01-26(圣丹斯电影节)/2021-02-12(美国)/2021-02-26(美国网络)
$ H4 n: `6 \# M- }' k◎IMDb评分  7.5/10 from 43,072 users
6 x& L& k+ n1 P5 @0 I' w2 @◎IMDb链接  https://www.imdb.com/title/tt10633456/  ~; Q; t4 n3 Q( o
◎豆瓣评分 7.3/10 from 16,034 users6 r2 D; a( c1 E. M0 D9 G! Y
◎豆瓣链接 https://movie.douban.com/subject/34463995/
& z, I; j& Q! M# T1 O◎文件格式 x264 + DTS& S5 E2 S) d# h4 Z. {, y4 r
◎视频尺寸 1920 x 1080
% `* w; o4 e9 \! F' a$ A◎文件大小 1DVD 31.47 GiB2 i6 h0 V" o: x( b1 v8 o4 W! f. t
◎片  长 1 h 55 min( B3 s0 G, Z: g8 v" L
◎导  演 李·以萨克·郑 Lee Isaac Chung
4 j+ Z2 O0 J, C* \* W  q. d1 [! O6 x◎编  剧 李·以萨克·郑 Lee Isaac Chung
+ M  P* G8 V7 Q◎主  演 史蒂文·元 Steven Yeun
, v) V; I- E$ G5 _3 V       韩艺璃 Ye-ri Han
# e+ y4 v, a6 x( D       达里尔·考克斯 Darryl Cox3 {; `. O) e8 E. u
       威尔·帕顿 Will Patton
- f' ?6 G8 b1 V- M# L! N* H$ u! S( u       尹汝贞 Yeo-jeong Yoon
# \4 |# X& H( ?- P) L: o       蒂娜·帕克 Tina Parker& |2 U7 r/ k% s' J' |6 A  }5 u
       斯科特·黑兹 Scott Haze
$ d' ~3 O4 c( }/ ?) X+ u9 |6 @# I8 y       艾伦·S·金 Alan S. Kim) G# A1 ^; t6 f3 I' t1 z) `
       Laurie Cummings
4 ?8 h/ J0 f! y) Q& g. G: q0 ^9 ^       埃里克·斯达克 Eric Starkey+ s, E0 X4 ^- a- j" t4 c0 V& v
       伊瑟·文 Esther Moon
5 Z) U" b# R# C" ^3 g! Y       Ben Hall' @! C/ U1 e3 L
       诺尔·曹 Noel Cho
* L! C; |7 V' \, {) D       Chloe Lee) ~: ]7 b2 a( R; N* p2 p' S
       James Carroll/ l9 K* M3 Z6 R9 a
       Jacob M Wade) l$ d+ h1 T+ z! l% Z
       Jenny Phagan& g: q, A- k( r  G

0 @, @: Y1 }: h* M+ S◎标  签 移民 | 韩国 | 美国 | 剧情 | 2020 | 种族 | 美国电影 | 圣丹斯电影节* Q7 u  a* K$ M! s2 a* y4 H$ ?

* ?( M% w0 p2 f1 p2 Y( {! R◎简  介   9 d9 M3 J8 ~1 k

, J* E, @: F* N* c  故事发生在20世纪80年代的美国,美籍韩裔男子雅各布(史蒂文·元 Steven Yeun 饰)带着妻子莫妮卡(韩艺璃 饰)和两个孩子大卫(Alan S. Kim 饰)、安妮(Noel Cho 饰)一起从熟悉的西海岸搬到了偏僻而又陌生的阿肯色州。虽然对于丈夫的这一决定,莫妮卡的心中十分的反对,但她拗不过雅各布的坚决和顽固,只得被迫夫唱妇随。
& B  f$ l+ X0 g, v/ v% u- C5 \& M: O; h2 l( ~* r+ e; B
  蛮荒之地的生活既不舒适也不有趣,在最初的新鲜感过去之后,大卫和安妮很快就开始怀念起过去的生活了。之后,孩子们的外婆也来到了他们的身边,给这个家庭带来了一丝热闹的气息。雅各布没有发现的是,当他将越来越多的时间和精力投入到开发农场这件事情上时,他和妻子之间的距离就越来越远。* r0 {! V' Q* G

8 k# e0 e+ }. r0 X+ w( A  ]  A Korean family moves to Arkansas to start a farm in the 1980s.
4 ]( Q2 y2 Y+ P8 H) W4 k% G& b2 N/ j; Z0 l
◎获奖情况
& Y! H! ]) n4 S# k8 d
9 g8 h6 b( I" E; t, W; j  第78届金球奖 (2021); [& q' U8 ]; S' G/ b  }% E0 J
  电影类最佳外语片
* s1 o- p. W( T' F; e6 E  2 K" Q! O2 n& P0 \4 p/ ~* j, O
  第74届英国电影学院奖 (2021)
/ s/ ~" P* H# c+ Z% B" @  电影奖最佳导演(提名) 李·以萨克·郑. n" o) M5 _+ M; K9 {0 f' Q
  电影奖最佳男配角(提名) 艾伦·S·金
! G7 q4 \& ^+ b3 T6 U  电影奖最佳女配角 尹汝贞
( k+ F, }* t( j* k9 L  电影奖最佳非英语片(提名)
/ o; d; A- b% C  电影奖最佳原创配乐(提名)
  V& Z' x! G+ N  电影奖最佳选角(提名)& L; R8 Z; B5 ^; M
  9 n' w9 U- E) Y/ v3 z5 g) z
  第36届圣丹斯电影节 (2020)
: O# l. N' P9 B8 p0 [" P  评审团大奖剧情片 李·以萨克·郑9 f( o& Z) D* R# ?' t
  观众奖剧情片4 x  ?" K0 W( G0 v& g
  
/ n0 q' Z  b$ q% b$ \$ M+ I  第73届美国导演工会奖 (2021)+ a' O; y) y0 Q" |6 K' ^8 u$ p
  最佳电影导演(提名) 李·以萨克·郑
3 |% r& l/ q) A3 m% }% w( E  
- Q. p) }' c2 v  第27届美国演员工会奖 (2021)# N7 w. o5 O: {# L# C
  电影奖最佳男主角(提名) 史蒂文·元
- P7 l5 W8 e1 j/ k$ T" v- Y  电影奖最佳女配角 尹汝贞+ s4 j  j' E) A
  电影奖最佳群戏(提名)
( d) S" Y/ P8 P) L  
: q* ~: \7 o. B/ m& a& E2 P0 D  第32届美国制片人工会奖 (2021)
" \) |8 w  ^0 K5 [4 l- d  最佳电影制片人奖(提名)3 n8 b4 s5 p# b8 Z( c' u+ w
  9 x) k" _- M3 c5 }8 l! H2 I
  第92届美国国家评论协会奖 (2020); u: V- ]% L3 ~+ ?
  最佳女配角 尹汝贞, {& B- f4 d4 R7 J1 l' U
  最佳原创剧本 李·以萨克·郑: _6 o9 ]4 k' r* m
  年度佳片' H- F; D; x6 V; U* T7 C
  . Z6 P8 h9 D; z" l2 ?
  第26届美国评论家选择电影奖 (2021)) l6 ?( K% |6 {2 O- I% c+ b1 Y, S
  最佳影片(提名)
4 l2 E# J9 v, t: C* r. h3 P! K  最佳导演(提名) 李·以萨克·郑1 f1 d! w# X# F7 G$ c/ ~& _9 K
  最佳男主角(提名) 史蒂文·元
; z+ {% |: o5 Y' ^  最佳女配角(提名) 尹汝贞! G! I! \5 H  _. P8 d8 b& j3 [
  最佳青少年演员 艾伦·S·金
& `% h0 `8 A* ^' K  最佳群戏(提名)
0 b8 p4 @4 Y$ U3 v8 x3 H/ S* h$ A  最佳外语片
8 p% q. ]. G, T$ V& K  最佳原创剧本(提名) 李·以萨克·郑
" \: L- g! H/ _$ u0 ?" C# W4 E1 b  最佳摄影(提名) 拉克兰·米尔恩
5 x( ?6 o* v6 x. ^6 z% I  最佳配乐(提名) 埃米尔·莫塞利# Y  q* L: ]. \: {* S
  
( s$ t) C& v( h$ [3 k+ w0 H  第30届哥谭独立电影奖 (2020)* o# I! u4 T# R$ ~
  最佳女演员(提名) 尹汝贞8 l2 Z+ u; q4 e5 D" [
  
$ G5 q7 A" Z9 O9 W! X- v. ^  第21届美国电影学会奖 (2020)/ L4 X& Z# D, N, }: c' P* C, {
  年度佳片
" \. U2 i( I1 N8 x) `; z6 S  
- D6 R. z5 [" K6 A( c  第25届金卫星奖 (2021)
" a/ S- _" @( Q; r" u; C2 n& V# M  电影部门最佳剧情片(提名)
) Z, V% S5 W3 E$ M* ~# {# k  电影部门最佳导演(提名) 李·以萨克·郑2 n6 X# Z$ y. H
  电影部门剧情片最佳男主角(提名) 史蒂文·元
" K+ k. X. U4 j- r  电影部门最佳女配角(提名) 尹汝贞
2 Z  z" h5 ?6 i1 U* t: o5 \% q* P  电影部门最佳原创剧本(提名) 李·以萨克·郑
; q5 V7 e% p2 Y+ [" i4 g  X  电影部门最佳原创配乐(提名) 埃米尔·莫塞利
/ |; C0 R2 G3 L2 u' p4 Z  电影部门最佳剪辑(提名) 哈里·尹- Q( s8 \1 P9 ^9 [
  
7 H6 C% z6 @6 G9 B: U4 u  第55届美国国家影评人协会奖 (2021)
# J. [5 ~& f  |  最佳女配角(提名) 尹汝贞
* v: u, I0 n8 C  W0 {, L: j  
$ M$ P! H  d  `  第41届伦敦影评人协会奖 (2021)$ k( e1 j2 ^. G' \8 |$ z. i# t
  年度电影(提名)
0 Q% z( `$ M4 L* `  年度外语片(提名)
! [+ y/ [+ t. `+ H  ]% |6 M  2 g" b% K, U/ g( K5 p2 O/ J* H
  第41届波士顿影评人协会奖 (2020)2 M# v9 ]; K8 @+ E' F6 A5 I
  最佳女配角 尹汝贞/ A1 x* J5 {) D/ ]
  最佳音乐 埃米尔·莫塞利- K% e+ Z( O' K7 f
  最佳群像表演(提名)2 Y; I! ?, F+ q( \3 `! N
  
: `3 C1 V, t# m0 C  第46届洛杉矶影评人协会奖 (2020)
2 L9 N7 `  l, G1 l, f  最佳女配角 尹汝贞& Y& j: q$ k+ @" o
  
# M4 Q$ M- p; f( a5 f  R$ b  第33届芝加哥影评人协会奖 (2020)& p+ F- W" s+ V# U$ g
  最佳男主角(提名) 史蒂文·元
* |4 L, V6 T' H4 U. ~% h6 `1 O( ^  最佳女配角(提名) 尹汝贞
: i# b, J, D* J7 S7 j2 V0 q  最具突破导演(米洛斯·斯泰利克奖)(提名) 李·以萨克·郑0 t( t8 [4 o! G+ N  w
  % a8 o' W* @9 w" u+ q0 [! g+ X- M3 |2 O* k
  第5届亚特兰大影评人协会奖 (2020)6 X( C5 N  P* T( j4 L& [
  十佳影片" ^1 {  }  }1 H; g$ q$ Q2 W) W/ E( i
  最佳女配角(提名) 尹汝贞
/ m! _# R9 q/ V* o& U  
) s$ l8 }5 S( \' Z  第24届美国在线影评人协会奖 (2021)/ |6 i( u  U% m( g+ l
  最佳影片(提名)
- y3 B( B- ~  N0 b! q  最佳男主角(提名) 史蒂文·元
( e& b) d$ C: v  最佳女配角(提名) 尹汝贞
& D+ c2 _' B, R$ D* x  最佳原创剧本(提名) 李·以萨克·郑
' @2 H0 l2 u# @4 W! f3 q5 r9 e+ b  最佳原创配乐(提名) 埃米尔·莫塞利/ {7 {- w3 ~0 W" G0 H  x
  最佳非英语片6 z  x4 [# ?( N# D
Video
( P1 ?4 s: Z: k7 |ID : 1- s  S& l; O* t& C& i& ]3 ]# c& O2 `
ID in the original source medium : 4113 (0x1011)
" |  `4 j3 i/ N- TFormat : AVC' p0 m* e+ q. x* l0 O' M
Format/Info : Advanced Video Codec. @- s. Y4 G! T& x" T( t- a9 I1 t
Format profile : High@L4.1
0 }& j3 _* ]% G3 t9 bFormat settings : CABAC / 4 Ref Frames4 R% X( _6 G3 P$ g0 s
Format settings, CABAC : Yes
2 }$ U& g& r% C" gFormat settings, Reference frames : 4 frames
% r% G7 m+ Z; A/ E/ l- M& ~% NCodec ID : V_MPEG4/ISO/AVC3 x7 ^/ M4 L7 t9 r! s+ T# n
Duration : 1 h 55 min
. ^) H& ], g) W7 U7 M: KBit rate mode : Variable
, Y8 A; m8 b5 T2 N9 I, h, HBit rate : 35.5 Mb/s
. t$ e8 M& e( B6 u. J8 q' V* zMaximum bit rate : 37.0 Mb/s% T, M: _5 w5 M% Z
Width : 1 920 pixels
0 B* m2 x/ R; M, CHeight : 1 080 pixels/ D( R9 M4 [. v; C8 L0 v
Display aspect ratio : 16:9
# k; e; T8 o9 s4 F" ?3 {9 MFrame rate mode : Constant; l4 z$ W+ O7 Y* p4 [
Frame rate : 23.976 (24000/1001/189150) FPS, p9 ]# t9 }0 M2 B- e  G
Color space : YUV) y! J. p4 A7 b  b) y* T
Chroma subsampling : 4:2:0
; M7 m0 P3 |4 lBit depth : 8 bits' j' G; f; a  @% P
Scan type : Progressive
! Z6 z& n, N3 L9 L* Y7 _# f5 t% \Bits/(Pixel*Frame) : 0.714- D6 `# B. N: p* P4 O, f! h6 x' q3 a0 k1 q
Stream size : 28.6 GiB (91%)% M: R4 U4 b4 ~" R! e9 k' F
Title : Minari.2020.KOREAN.ENSUBBED.1080p.BluRayCD.REMUX.AVC.DTS-HD.MA.5.1-FGT
3 E' y+ D8 ~- ?: v+ \Language : English# L9 u! y4 X. ?1 \% q, r
Default : No5 a2 s/ w& q4 V) F
Forced : No, S9 U, u! h% s0 P
Original source medium : Blu-ray
' U" I  O% J: J& {, @* y" k  X; ~+ c: n
Audio #1* |8 N# B% u; D& }( B5 F5 ^3 }% C
ID : 2
4 ~8 @7 A% F9 L, `ID in the original source medium : 4352 (0x1100)
; f- b# \& j2 p: |3 sFormat : DTS XLL  x$ |. v1 s) B& H. ~5 `# b; V
Format/Info : Digital Theater Systems( _4 c( Z' x6 W' M
Commercial name : DTS-HD Master Audio
; Y4 K1 d' f) _$ R4 p% e2 _4 B8 L3 FCodec ID : A_DTS
# X* V5 @7 B- lDuration : 1 h 55 min
; Y! S$ z, G+ \: t/ GBit rate mode : Variable  u, T8 o& g$ j3 Z' Z
Bit rate : 3 395 kb/s
' c+ u  Z: ^& }, Z/ @; ?% q( FChannel(s) : 6 channels
0 X! ^: ~/ v) _( g3 O( b# KChannel layout : C L R Ls Rs LFE
  K; r2 E2 w: b$ WSampling rate : 48.0 kHz+ @% `2 U+ j; ]( E. i9 \+ P) l
Frame rate : 93.750 FPS (512 SPF)1 R  s* a; ^0 x. Q# N1 v/ q
Bit depth : 24 bits
( n% s* _& ^( U0 ]. B5 `* eCompression mode : Lossless0 _  G9 Y6 s7 l: k- W  R6 l6 b
Stream size : 2.73 GiB (9%)1 O0 z& P2 \4 y: q( f, s
Title : Minari.2020.KOREAN.ENSUBBED.1080p.BluRaycd.REMUX.AVC.DTS-HD.MA.5.1-FGT
* h& {! u/ F1 h, v7 ELanguage : Korean
' U; N9 n0 l5 g1 pDefault : Yes  D  B5 X, I2 U- c7 r
Forced : No4 H& l8 t5 k! {! Q' m
Original source medium : Blu-ray# s! z2 e/ {4 S
% C' ?8 L7 N$ v+ D5 ~8 v! K
Audio #2
1 Y# u' D- ]! |; Z  o- J+ qID : 3. y  T) \; x* c2 L+ Z+ }4 _# d. a
ID in the original source medium : 4353 (0x1101)
& O& |$ e' K4 ^8 }+ e. ?1 lFormat : AC-3
% e3 a; S  N0 I. J( D3 x  }Format/Info : Audio Coding 38 I( b5 l# t. t
Commercial name : Dolby Digital
+ c  l: c8 N4 C, R0 ~' PCodec ID : A_AC32 M3 e! Q2 n/ ^4 X; z
Duration : 1 h 55 min( X+ b. |# c# p) u( W2 b: n# y
Bit rate mode : Constant9 V; C- u9 Y# S
Bit rate : 192 kb/s
5 [; K5 C" W0 c& u( L6 }Channel(s) : 2 channels
/ C4 A/ Y& d5 U2 R7 _( n! aChannel layout : L R
5 [1 Z9 h* Z3 X  `' V8 NSampling rate : 48.0 kHz
8 s( [" a' A* \Frame rate : 31.250 FPS (1536 SPF)
- m) G8 M2 j$ |2 _Compression mode : Lossy7 Y4 z' d/ F: C8 G, r$ V% n
Stream size : 158 MiB (0%)( g9 i) o1 q- k+ y2 J+ ^6 R0 F
Title : Minari.2020.KOREAN.ENSUBBED.1080p.BluRaycd.REMUX.AVC.DTS-HD.MA.5.1-FGT  g; s* H" j: n# ~
Language : English
0 `1 l% _7 U. Q/ @9 hService kind : Complete Main
$ _! R$ X: V/ a& k$ F8 w4 J; i1 nDefault : No$ Y% P& G! `! d
Forced : No
& a: e& _: O6 u7 G6 O5 n) OOriginal source medium : Blu-ray
3 L) ?" ~  q$ V
( i8 @' g7 I5 ^& ~3 {8 s. c( ?Text #1
& p" L8 r4 ]3 y3 n* [8 fID : 41 M. K- O9 Q: B; n
Format : UTF-8" p1 f9 g4 d5 K6 O
Codec ID : S_TEXT/UTF8* [/ X& d5 j+ {& B: y2 N/ @
Codec ID/Info : UTF-8 Plain Text9 r) f( Y/ m! Q
Duration : 1 h 51 min* |  F% U- s0 u" o/ Y& Z
Bit rate : 14 b/s
: t4 i% @) L' E% ?3 y" bCount of elements : 5129 w7 K) F; W4 ^% }
Stream size : 11.8 KiB (0%)
+ h+ |, q! q, {8 I3 S! ITitle : English-SRT
- q: v) B9 e' G* P" H8 V" ]) hLanguage : English
4 I" ]: \% i  v2 ADefault : Yes
( s# \3 S6 t/ O$ N7 }8 {8 m/ N9 iForced : No* R6 v& b& i. K% P1 L

$ F7 e, j' I) a/ N3 K4 uText #2
9 Z/ L0 \# P# }0 p0 u4 n; gID : 5+ |7 I4 T( W+ g) V4 q
ID in the original source medium : 4608 (0x1200)# J3 I' D- V2 @1 f( l
Format : PGS
" A6 v) z: N$ }; ?: q: _$ L- }Muxing mode : zlib6 K3 W* g2 X6 Y! B) W. ~: k) X
Codec ID : S_HDMV/PGS
4 h: `7 e' r, c* ?, a* C/ ~Codec ID/Info : Picture based subtitle format used on BDs/HD-DVDs
8 `; \, T6 N. IDuration : 1 h 54 min. U$ y8 W4 r# w0 i* D
Bit rate : 16.8 kb/s
" f' y. U; U2 u& f% @Count of elements : 1846
, l, B& T5 q5 `- ^9 D. vStream size : 13.8 MiB (0%)
+ a% I: k; Y# K/ x. ~' j% ATitle : English-PGS
) v1 `% `# P" P0 O  v3 j1 tLanguage : English  i4 H' M& H, s- Q) `: @  U; G3 i
Default : No2 B2 O) X8 u/ X
Forced : No
: k9 t6 d2 Z) G1 N8 }& dOriginal source medium : Blu-ray/ U/ W1 c0 s7 i0 h
  Y. D% ?% Y$ q$ g
Text #3
! l' N9 O+ q4 V! w4 kID : 6! s4 D5 u1 U9 L) e: [/ ~
ID in the original source medium : 4609 (0x1201); U& n' o, z- A) D2 t5 j1 G
Format : PGS" t* U2 K( x+ q4 _
Muxing mode : zlib
" y5 I# C0 r8 X% _" J3 H% r. LCodec ID : S_HDMV/PGS
4 u0 k4 o& P3 rCodec ID/Info : Picture based subtitle format used on BDs/HD-DVDs" x$ X3 \- y. r7 d
Duration : 1 h 53 min
0 P& f; z4 S. ^( l" [Bit rate : 22.7 kb/s3 A0 Q: x" X+ |" ?' g; B
Count of elements : 2370
7 y' w0 Q9 B% u5 _: V8 J2 DStream size : 18.5 MiB (0%)
- o& I7 X. T5 a( h  `) ?Title : Spanish-PGS( ~8 `; }% i! I. `
Language : Spanish
& t7 |$ ?+ a. p7 DDefault : No
. l/ @, H; Q2 R( d/ kForced : No: L6 a7 C# [! M& c. ^' [
Original source medium : Blu-ray
; I$ X# @3 m  P: r# v
! E# s) M2 V3 y* w9 ]Menu, n  m% u8 I2 L9 G* ^6 P. F: U# `
00:00:00.000 : Chapter 01
5 y& g: u& M3 ?7 A00:05:53.770 : Chapter 02
5 ^4 U1 l7 k2 c6 y8 Q+ i' a" H00:13:53.791 : Chapter 033 o* E( C' a5 d4 k# P! F
00:20:37.486 : Chapter 042 b1 X7 S3 m2 h6 }; ^+ p2 }/ V
00:26:30.964 : Chapter 05
8 B5 X: P& H7 j8 c00:31:25.633 : Chapter 06- S2 {5 d2 q7 o! p/ X9 H
00:37:57.984 : Chapter 07  W: L/ ^3 e/ [" B
00:44:06.977 : Chapter 08
- c) e; ~) L: q3 t* W4 _, B00:50:30.360 : Chapter 09
9 X/ v3 Q) J9 y+ Z/ D) J. @! g  L( g00:57:55.263 : Chapter 10- E* J' `# V% w4 G" @. Y* H
01:04:23.776 : Chapter 11( X' w7 v% L/ V. B2 B2 ^; U
01:11:48.637 : Chapter 12
$ k9 [+ y5 A. g7 W01:20:51.221 : Chapter 13
' ?3 l9 D0 _. F" `6 ?01:30:46.899 : Chapter 14
7 \* @! b& V5 U% [- J8 r# N01:42:08.789 : Chapter 15
2 ]9 R$ H6 E6 k) V8 k3 z; K01:49:08.542 : Chapter 16

* s2 P  b' M$ M- z8 n
游客,查看本帖隐藏内容请回复 | 加入VIP可免积分免回复 了解详情 | 还不是会员:点击获取邀请码 Invitation Code

78

主题

4334

帖子

1万

积分

Sponsor

金币
2456 枚
体力
6228 点
lanpanshuma 发表于 2021-5-19 09:11:13 | 显示全部楼层
楼主发贴辛苦了,I*老*虎*U!9 N, o& ~8 W- q, j9 g
Thank you for sharing such a good resource polite reply, very sorry for myself!, p# e* k# i: m, `

本版积分规则

小黑屋|Archiver|蓝光电影资源网

GMT+8, 2022-8-10 01:20

Copyright © Tencent Cloud.

快速回复 返回顶部 返回列表