BluRayCD Forum

 找回密码
 立即注册【分享大片】
查看: 6|回复: 1
收起左侧

[蓝光原盘] 新郎向后跑/非常关系 [REMUX无损版] In And Out 1997 1080p BluRaycd REMUX AVC DTS-HD MA TrueHD 5.1-FGT 27.87GB

[复制链接]

5622

主题

5796

帖子

6万

积分

Post Share

金币
12801 枚
体力
19306 点

卓越贡献勋章

黄金嫖客 发表于 前天 17:08 | 显示全部楼层 |阅读模式
A midwestern teacher questions his sexuality after a former student makes a comment about him at the Academy Awards.3 g, t/ y$ b$ H

* t5 _+ H1 Q: \7 J- ~" z- ]4 A2 |  u: N( c& z/ A; K* {* [

6 c$ {& b6 l  m, Z◎译  名 新郎向后跑/忽然罗罗挛/情难禁/来龙去脉/非常关系
9 S9 s* B+ x! u: @◎片  名 In & Out
+ J! L1 T; d6 u- r4 f/ `0 s◎年  代 19976 s  x5 K: C1 [5 _
◎产  地 美国' |- L4 g: |8 K6 b- x& Y) y
◎类  别 喜剧/爱情; H" q7 W: C& d; C  H( O
◎语  言 英语
% j, N9 {! B: t; l3 {! _# v5 }; A◎上映日期 1997-09-19(美国)
9 W9 N9 o% p  M3 y◎IMDb评分  6.4/10 from 39,429 users
/ C- h- A& @# `. O, A◎IMDb链接  https://www.imdb.com/title/tt0119360/! t4 w1 x7 B  f5 K$ ?5 T* v6 v
◎豆瓣评分 6.6/10 from 607 users
6 `* K& }: }: y4 L( e/ g◎豆瓣链接 https://movie.douban.com/subject/1294783/, J& M; O! |, q
◎文件格式 x264 + DTS + TrueHD2 ?( Y& \2 D7 J
◎视频尺寸 1920 x 1080
7 V& @' ~& z% v, v* i$ c8 [◎文件大小 1DVD 27.87 GiB
" ~& D9 e4 p9 K- X8 B) ?9 X◎片  长 1 h 30 min
$ E: B& i# I9 T5 b◎导  演 弗兰克·奥兹 Frank Oz4 |' j+ q& o. K* F  [4 k( ]
◎编  剧 保罗·鲁德尼克 Paul Rudnick
% n3 Y  x3 q- p, A8 j1 g◎主  演 凯文·克莱恩 Kevin Kline
  U7 e* _0 V9 n       琼·库萨克 Joan Cusack5 r  E: R( U9 ]& }& c) T/ D
       汤姆·塞立克 Tom Selleck
  ~/ t) q5 ?- u) A* Z       马特·狄龙 Matt Dillon. B5 s, Y% v) i3 s6 y
       鲍勃·纽哈特 Bob Newhart, y2 }- t+ E+ M# h" o
       格伦·克洛斯 Glenn Close( E/ x2 S# l0 {8 J; `9 j1 a
       丽莎·埃默里 Lisa Emery$ ]) m% [6 F/ L8 o& u  r: f
       Laura Caulfield
# ~7 X4 J4 C& Y* H% ?& `0 q5 `       乌比·戈德堡 Whoopi Goldberg* x! t6 e/ S# C9 r: `8 g5 B9 b

+ R$ k  K& y6 K' h* {$ M◎标  签 喜剧 | 美国 | 同志 | 1997 | gay | 同性 | 家庭 | 美国电影
6 D9 C6 r2 b0 @) {3 Z
* _3 U) B. ~7 n: u3 m$ ^◎简  介     
* Q( w  F; U; |  P* _& F% ]+ P9 Y5 x( Y/ k% Y6 U* g9 T, L' A' m
  霍华德(凯文·克莱恩 Kevin Kline 饰)是一名在高中里任教的老师,一辈子勤勤恳恳的教书育人,获得了朋友和学生们的尊重。霍华德和女友艾米丽(琼·库萨克 Joan Cusack 饰)的爱情长跑终于要开花结果了,再过不久,他们就将携手步入婚姻的殿堂,许下相守一生的诺言。
+ F& P2 }' r' M$ S
0 d0 R8 B: ?8 n+ G5 |# e, r  一天,霍华德在艾米丽家,和他的未婚妻一起观看奥斯卡颁奖典礼,让他感到不可思议的是,影帝的殊荣竟然颁发给了他曾经的学生。深感自豪之余,这位新晋影帝的一番获奖感言却将霍华德打落谷底,在成千上万的观众面前,霍华德竟然“被出柜”了。果不其然,艾米丽大怒,霍华德跳进黄河也洗不清冤屈。
" p* |+ F" Y4 N: C9 n4 K1 J' G8 M2 D8 q9 Y7 C0 f( \
  Welcome to Greenleaf, a picture-postcard Indiana town where the high school is the proud focus of attention and "alternative lifestyle" means you bowl on alternate Tuesdays. But on the night of the Oscars(R) telecast, the town's - and the world's - center of attention is Greenleaf teacher Howard Brackett. A former student who's now a superstar actor tells an audience of millions that Howard is gay. Poor Howard. He's outted when he didn't know he was in.
8 l* x5 n) I( x0 Q4 K9 R( v  [
" m; C$ T7 V8 q: P+ v1 s+ ?◎获奖情况% h% z  S5 ^+ K# j' V! F! M- x$ ?' N; S* Q
5 f. j  v! X) D1 `& x
  第70届奥斯卡金像奖 (1998): C! P7 @, _3 N8 c$ h, S
  最佳女配角(提名) 琼·库萨克
4 }5 p5 G4 f! B8 I6 L$ @  
/ f" c8 Z8 p2 l3 ?  第55届金球奖 (1998)
) ~. j- d5 r4 z( |1 \  电影类音乐/喜剧片最佳男主角(提名) 凯文·克莱恩* w% ^; s8 G, d7 `' }( P6 P
  电影类最佳女配角(提名) 琼·库萨克
8 B' I1 T4 u  a, Y7 l
% R9 z9 |; E! \) P. j
Video; p2 c- h3 L+ D  o& p( o
ID : 18 e3 E) T4 k; r& b
ID in the original source medium : 4113 (0x1011)
  P. Z% ^+ f( y) {+ {5 N, kFormat : AVC
5 J* A! P% s8 m8 e+ [8 _Format/Info : Advanced Video Codec
; }+ L" S' }* r& H3 q9 ?6 ^Format profile : High@L4.1# u, X4 i6 p' b
Format settings : CABAC / 4 Ref Frames
  s$ q, R$ I* X; o8 E+ _Format settings, CABAC : Yes+ t$ v0 d" N4 K( O7 E6 @7 x
Format settings, Reference frames : 4 frames
" M0 D6 N, A! _$ Y. U' ICodec ID : V_MPEG4/ISO/AVC; g3 X7 [' \" n9 O
Duration : 1 h 30 min
) G+ D. t& I) OBit rate mode : Variable1 O9 ?0 w( ~3 |! W
Bit rate : 36.1 Mb/s
8 c' Z: }! J: y4 g9 j' hMaximum bit rate : 40.0 Mb/s6 O7 o" l* S) E5 v! J
Width : 1 920 pixels
, e- R! D7 H) L& X2 D* z1 V( `+ _* ?$ YHeight : 1 080 pixels
3 O! z& p0 i7 o/ bDisplay aspect ratio : 16:9# `: P1 a( @& U5 Z  I2 f8 k5 n
Frame rate mode : Constant
9 H. Z& Y7 |2 `/ h2 x: F8 H  |Frame rate : 23.976 (24000/1001/189150) FPS
; y( i* P7 }  m1 CColor space : YUV
1 K' P* C2 W8 `Chroma subsampling : 4:2:0* U" T* a. `8 v: t$ k
Bit depth : 8 bits3 w* e* L3 ?- v. S
Scan type : Progressive$ {9 ?' y$ i5 n& A
Bits/(Pixel*Frame) : 0.725) R% s; f: ?. O
Stream size : 22.8 GiB (82%)
% K3 E! ?2 Z2 Y. }7 N3 k* c! KTitle : In.And.Out.1997.1080p.BluRayCD.REMUX.AVC.DTS-HD.MA.TrueHD.5.1-FGT
! W0 S, _: [; ]( j1 M' v& `3 I8 h4 |Language : English/ v# K$ P! Z4 Z2 F! W1 ]
Default : No, ~- I6 Z, f5 P8 P$ i0 o) F0 ^
Forced : No
' E5 S+ [; M0 ?2 X; @5 `, IOriginal source medium : Blu-ray
" q2 d5 P5 y! c( M7 H% @. m$ S: x* w1 d5 ?1 F' ]1 e
Audio #1
# v! Y3 w  Y- T9 [' ~1 hID : 2
% T8 k# k# _& lID in the original source medium : 4352 (0x1100)+ d% N5 [/ b) E- S" b
Format : MLP FBA1 T. a( u0 v  K/ j
Format/Info : Meridian Lossless Packing FBA
7 s+ `5 p% @5 K$ MCommercial name : Dolby TrueHD
' r% I. ~' J0 D" L2 @( u6 ~& ECodec ID : A_TRUEHD8 G$ E5 m( ?4 r3 n+ g" o
Duration : 1 h 30 min
; Q3 R  b2 U8 @. y+ l4 V0 oBit rate mode : Variable, e. R* ]! W2 K! k
Bit rate : 2 099 kb/s: Z' X- h+ l. [' g3 N
Maximum bit rate : 3 255 kb/s
2 R! ^% X0 f: [, U3 w: CChannel(s) : 6 channels  z% U' ~- x+ `& t9 W% }
Channel layout : L R C LFE Ls Rs
5 M! X7 `5 ~  l; }9 P% j0 z$ D# W. g0 sSampling rate : 48.0 kHz5 Q0 f: e3 h2 {- L  S9 o* q. @6 \
Frame rate : 1 200.000 FPS (40 SPF)- C9 m3 j3 T, J
Bit depth : 24 bits
3 b" x0 b/ d  Q7 VCompression mode : Lossless
0 V! {0 g. t' R4 j" ^  w$ RStream size : 1.33 GiB (5%)
8 @6 c* m! c6 Z7 v3 lTitle : In.And.Out.1997.1080p.BluRaycd.REMUX.AVC.DTS-HD.MA.TrueHD.5.1-FGT  s* Q/ O( g( O8 y& z0 t
Language : English
% O  d( s, V* T  p4 C7 x  q  N/ |Default : Yes% t: F! C0 ^) z& _% G; \+ W1 t/ ^- P
Forced : No: |$ B% I* ^$ {% c' }9 v/ ~5 i
Original source medium : Blu-ray6 x$ P$ s$ }: `1 a# N+ g

/ N, N( Q0 K& TAudio #24 H/ }, `4 T  ]9 j. Z+ j9 y1 o
ID : 3
7 t# z# o$ ]- L; PFormat : DTS XLL7 M2 G3 B* U! M2 m! W
Format/Info : Digital Theater Systems5 `" I' s% S+ T+ q( j
Commercial name : DTS-HD Master Audio1 ~# Z( ~& _$ C
Codec ID : A_DTS' C# V# x/ s+ \7 W6 O% d% ?( l
Duration : 1 h 30 min5 r% g( h4 k2 A$ W- l9 F) e: J4 n+ b
Bit rate mode : Variable9 }# V& D1 u) j9 d' Q# W
Bit rate : 4 041 kb/s" F# w+ `. w  R$ G1 S  e
Channel(s) : 6 channels
  ]! t) b. o% D: kChannel layout : C L R Ls Rs LFE
  u4 `) U4 D6 j  j* n, [Sampling rate : 48.0 kHz
0 w6 O! K" k+ TFrame rate : 93.750 FPS (512 SPF)4 {* H+ B& j7 [. I" c% E) A: W2 g
Bit depth : 24 bits
8 Y$ `7 `) ~; @' iCompression mode : Lossless
7 {5 v/ i- S, ]' O! v; m% U: QStream size : 2.55 GiB (9%)
7 i! H  p* [; QTitle : In.And.Out.1997.1080p.BluRaycd.REMUX.AVC.DTS-HD.MA.TrueHD.5.1-FGT
7 o9 Z4 t& t" H# iLanguage : English2 V' v0 L' P% O0 J
Default : No
& u) W) R5 l; q5 K: \Forced : No
: I: n: {1 H' F% f4 W
& v( r; o( L2 Z/ ]" HAudio #3- J, W3 E( |# f
ID : 4$ i: u  k( q# [( R. U* X1 _
ID in the original source medium : 4352 (0x1100)
# c  z4 ]4 H$ H8 g! X" Y- U3 gFormat : AC-3# v- Z/ u9 r6 \0 I5 L
Format/Info : Audio Coding 3- x- m! F# ?4 O6 c* Z4 P
Commercial name : Dolby Digital7 K9 M3 o" d+ C8 r, t, \7 Z+ G& ^
Codec ID : A_AC3( D0 i. H( o! v9 D9 {4 L; K' u
Duration : 1 h 30 min5 ^3 S3 Z7 g! ]& }9 ~
Bit rate mode : Constant/ P! d  P( C& {8 l* I4 p
Bit rate : 640 kb/s9 V$ Y2 O) K- \+ T# @, L0 G0 `
Channel(s) : 6 channels/ Y9 b, D2 ?& |8 r7 w- a3 K4 @9 E
Channel layout : L R C LFE Ls Rs
: R# }6 F( N  T' B+ p1 @6 k( s8 P0 F/ ^Sampling rate : 48.0 kHz% S2 w7 t! ~1 {1 H' ?
Frame rate : 31.250 FPS (1536 SPF)
$ c' N' P, r8 k  ]+ n% TCompression mode : Lossy
6 c6 d. `; K$ A0 [2 W9 i6 kStream size : 414 MiB (1%)
  x0 }9 F5 s' X0 C' R$ KTitle : In.And.Out.1997.1080p.BluRaycd.REMUX.AVC.DTS-HD.MA.TrueHD.5.1-FGT# Z- \# S1 a7 u
Language : English  E6 S1 B; p9 A: ~$ Q
Service kind : Complete Main
% ~$ j5 m6 {0 y0 }4 E7 {: QDefault : No
1 d5 K5 P+ e  F- `( Z* ~Forced : No
) E/ ?1 P  }$ f! x$ wOriginal source medium : Blu-ray/ z7 l2 C1 w. \! ^! z! o  H# q

: N% b$ P$ h+ x6 [+ A8 g( {Audio #4& @6 q  Z7 i) g; G: ~
ID : 5
) Q, m4 \. B) E, ~- r) d5 u! TID in the original source medium : 4353 (0x1101)
2 E4 A; y/ C3 [: I" B4 DFormat : AC-3$ P! Z9 J, ~! G' B' Q
Format/Info : Audio Coding 3+ G* S" D" v+ z, q# _& V7 i% |5 E
Commercial name : Dolby Digital
( n7 H& e# M9 @7 x9 l, H5 wFormat settings : Dolby Surround
: E& {1 L' d1 Z/ @$ cCodec ID : A_AC3
' U4 |# e1 _4 V3 HDuration : 1 h 30 min
& Z; m6 E) [; a5 U% d2 @Bit rate mode : Constant
% U! X3 r3 H0 \/ g  D! QBit rate : 224 kb/s! M6 a5 e  T2 X% i3 H* E7 ^' D
Channel(s) : 2 channels8 q3 ^6 I% j- R: h& o  B) q6 `: v5 s
Channel layout : L R
. u; x) g1 R1 l, q0 @6 B8 R5 ESampling rate : 48.0 kHz  L- W( n. m( e
Frame rate : 31.250 FPS (1536 SPF)
% z4 B$ i7 j3 G/ iCompression mode : Lossy
/ L1 y6 h! c+ Z' x/ j4 ~2 aStream size : 145 MiB (1%)! Q& c( H9 L5 `
Title : In.And.Out.1997.1080p.BluRaycd.REMUX.AVC.DTS-HD.MA.TrueHD.5.1-FGT1 X. M; ~9 |% [8 `, A% j
Language : German
8 f+ t/ B5 y3 iService kind : Complete Main# H  r  ~- G* j3 p( G) V
Default : No
' ]! I, l8 `, P5 K4 J/ O9 O. OForced : No2 r; O5 D; A+ h- O
Original source medium : Blu-ray# h+ _+ G  F: Q! v  T  k

2 p4 e! m$ \+ a" G: [& T5 D1 uAudio #5
4 ]  E3 ~4 ^" |1 oID : 6
7 A6 [# X5 J+ r9 aID in the original source medium : 4354 (0x1102)
/ i+ w8 \& V+ C# L/ B4 fFormat : AC-3
' @( d: l* h8 y, JFormat/Info : Audio Coding 3
1 D  x6 K% A6 P3 N9 X. c6 _Commercial name : Dolby Digital
$ v; K: V. u/ s. K) o) PCodec ID : A_AC3
& j: \& }1 b* s- l- z& i* i% x5 dDuration : 1 h 30 min: S$ J: x3 y: ], `
Bit rate mode : Constant! |& I9 d" V% B: x8 h5 n7 K
Bit rate : 640 kb/s
5 n. W, F# Y8 L  ^Channel(s) : 6 channels
3 ~( p. p( r% X8 RChannel layout : L R C LFE Ls Rs; H! d/ X, O6 z- l# ]0 }
Sampling rate : 48.0 kHz
2 x! T( T0 ?/ D) A7 eFrame rate : 31.250 FPS (1536 SPF)
. Q$ v7 y! z% \3 X$ B! M1 i& ^2 oCompression mode : Lossy" `  L$ ~0 @  Z3 f, {
Stream size : 414 MiB (1%)
. A& f# K3 O" B* U1 ?Title : In.And.Out.1997.1080p.BluRaycd.REMUX.AVC.DTS-HD.MA.TrueHD.5.1-FGT/ [6 o. c* x7 [; C5 p7 }) Z
Language : French) h' h7 @  G) `$ [9 A
Service kind : Complete Main2 j! \& X2 V& F& X& k2 V/ K
Default : No
) O/ e, R; R- v( i5 `! XForced : No
, }: }9 u0 t. c: W6 z% WOriginal source medium : Blu-ray
( y9 k) }& _4 g! Z( R+ y# y: [# h# L9 J
Audio #66 W$ t8 y$ f, t9 n* W; L
ID : 7
( w. [. ~6 h6 T2 V) a$ @, FID in the original source medium : 4355 (0x1103)
- {( g  g  u, ]5 [! K3 y8 ZFormat : AC-3
) @, ?1 g2 V; s5 F! sFormat/Info : Audio Coding 3
+ o: u2 ?6 q' sCommercial name : Dolby Digital. N4 b3 ?/ O1 u; _6 f$ v. s
Codec ID : A_AC3" a* D2 y3 w" b. h8 V/ T! u" @: \
Duration : 1 h 30 min$ h* k0 x2 n, b- e
Bit rate mode : Constant
3 ?7 }; [* z- T8 V- V- IBit rate : 224 kb/s
' W" x& V+ P- H) |) BChannel(s) : 2 channels+ H" |+ y6 h+ G# y
Channel layout : L R
, `' i6 X0 z7 K* H9 T+ rSampling rate : 48.0 kHz8 ?% B* Z; j9 T6 g  Q; X4 }
Frame rate : 31.250 FPS (1536 SPF)2 ~+ T: p+ [; f, N! O
Compression mode : Lossy
/ e2 F$ v& C, [. GStream size : 145 MiB (1%)% i6 q) Z5 k+ X3 r* O
Title : In.And.Out.1997.1080p.BluRaycd.REMUX.AVC.DTS-HD.MA.TrueHD.5.1-FGT
2 [. h$ V  S* i$ m7 `$ F  qLanguage : Japanese
; `# T( t3 K: b& UService kind : Complete Main
( D1 u# [, w; qDefault : No: V; @* y5 q& R  k1 k7 y
Forced : No8 `* g; G0 n( E5 \) f/ j7 K6 b% a4 S
Original source medium : Blu-ray
9 t4 g+ `( R% u. s
( t9 f9 n1 X# `) W. }' H0 `# k$ cText #17 r7 x5 [4 n5 ^. p: V
ID : 8
& J( d5 u9 _% ^+ O% L9 q3 wFormat : UTF-8" {5 {8 B  m4 Q0 x/ ]" n
Codec ID : S_TEXT/UTF8
! i& e. d: Y6 N+ {& pCodec ID/Info : UTF-8 Plain Text1 o7 x9 |* z; {1 _4 g8 s5 E
Duration : 1 h 23 min
# g( Y( C2 M) Z+ bBit rate : 68 b/s
2 W2 _" V/ n$ \) J: m0 s8 nCount of elements : 1284! m9 K5 ]9 U8 b1 N% ~
Stream size : 42.3 KiB (0%)+ o5 h+ j. P) W& z: V
Title : SRT
' B, h9 B* s" ?; ELanguage : English7 x/ C* x. p% M
Default : Yes
; x1 `7 q1 d. o' |1 h* p( K/ p' G( FForced : No" R+ R& S  B2 j
3 U# x) ]3 F4 @5 a- G
Text #2: R8 V5 z9 t3 X( x
ID : 9
3 [: u+ `9 v( v4 c( dID in the original source medium : 4608 (0x1200)
3 W* _0 T% V. Z) l9 E  Y. xFormat : PGS
; U) W( J% J, }! j) c' N, |# a- ]Muxing mode : zlib, D8 D- d, D& E2 o. K' G0 r
Codec ID : S_HDMV/PGS
8 W; o0 D) m6 ?. P8 TCodec ID/Info : Picture based subtitle format used on BDs/HD-DVDs. {5 P7 j: a* O4 h' [; u) n& u
Duration : 1 h 23 min
$ P. |- }. b; Q( @+ kBit rate : 45.6 kb/s
! G# j& N' c8 W6 X' k8 g- E. qCount of elements : 2568
2 a' p6 |2 M! f# gStream size : 27.4 MiB (0%)
: p* K0 N1 j# P1 P$ t& ~, \7 d! yLanguage : English, m# ], a5 Y3 L5 C* e
Default : No% l# ~8 ]- p% k/ x* ^
Forced : No: Q6 @2 {3 {7 e
Original source medium : Blu-ray7 H3 u$ T4 d- l$ n. s
; Z( f% m8 O0 H% @& e
Text #3% j0 [+ r" f# ?7 J2 y8 [
ID : 102 }( V0 V6 t+ U; _5 H
ID in the original source medium : 4609 (0x1201)
; d; g# z# N9 }# q- k5 z* o& rFormat : PGS
: s* M7 Z7 S3 X6 `2 R4 JMuxing mode : zlib
" l0 f/ T: G, H! Y8 vCodec ID : S_HDMV/PGS4 L* }9 d: r' g6 z& U! o2 z% `
Codec ID/Info : Picture based subtitle format used on BDs/HD-DVDs4 k. ?# B9 V9 L
Duration : 1 h 26 min
1 z9 B9 P' `2 Y( P6 N' S' fBit rate : 48.4 kb/s
/ r, K4 _% |- b  U7 L  k  M) FCount of elements : 2850" [3 A  Y" V/ i; e. a1 q& n
Stream size : 30.1 MiB (0%)
; `0 l: W( B  VTitle : SDH! G. D/ X6 h& U3 L# b2 N
Language : English
- c) K4 d, [/ M1 L6 _7 u% oDefault : No
% P2 C8 ~' b/ ]! p% pForced : No
$ G/ |. {0 m. w) E' S  bOriginal source medium : Blu-ray
* K# C5 P" Y  c* q' H2 H$ Y3 c$ M* w7 u+ S
Text #43 e/ x0 `' D- _+ ^7 n: j
ID : 11. H3 Y% L7 o) l) i
ID in the original source medium : 4610 (0x1202)+ _  D, T, j8 }) i! j! B6 j4 _- U9 J
Format : PGS: W& ]% R+ s( e9 e; _# u& s
Muxing mode : zlib
1 w+ b+ ?1 c/ K( P& g0 mCodec ID : S_HDMV/PGS
/ j) `  _7 O% \4 l5 d5 d6 i" ]Codec ID/Info : Picture based subtitle format used on BDs/HD-DVDs
4 Q$ i; `7 k, Y& ZDuration : 1 h 29 min, h* A) T& w: u5 b( W( e
Bit rate : 46.7 kb/s
* f6 E6 n3 \; b. z9 W2 ]$ zCount of elements : 2586( `7 l! p) W) d. A" E6 y% q$ S. [
Stream size : 29.9 MiB (0%)  j) |" q" ~) K/ U; ]0 ?
Language : German
- E8 c* g8 M% z$ f6 K) J+ TDefault : No
1 p8 s+ M7 f- MForced : No
9 O2 k' N1 a4 x  R3 NOriginal source medium : Blu-ray
% T# w8 P) `. S5 w/ G2 @; Z6 o# Z! x
Text #5
  U# }3 |, B4 WID : 12
+ e3 F6 ?, J) [0 I; MID in the original source medium : 4611 (0x1203)
% v) P/ \5 b, y* }  sFormat : PGS- g1 D5 _6 L" L7 t! u
Muxing mode : zlib
5 a3 I% X4 Q9 I5 a* W) k  O; r5 e; Q* LCodec ID : S_HDMV/PGS
& W% D7 o; }0 |1 _) O( z- s6 WCodec ID/Info : Picture based subtitle format used on BDs/HD-DVDs
' H' |6 b' Z' ~6 V- mDuration : 1 h 29 min) w) g9 A, V% q( w% e
Bit rate : 37.8 kb/s2 w: y1 l# G9 d7 T! ^
Count of elements : 2418
0 E4 M" X; a2 o) N1 k# mStream size : 24.2 MiB (0%)$ |7 @0 F4 v+ Y* @9 T
Language : French
: ^& p4 }/ n0 D# B/ A% CDefault : No% q: X" b' w& t% c
Forced : No
( m. m, |; ?  R+ h- OOriginal source medium : Blu-ray+ b9 {  E9 B, ?9 |7 Q1 z) F6 S/ C
# |; b0 h' |0 E
Text #6
! T8 U& J5 [, q5 Z; z6 dID : 13
* E1 a' @/ U  xID in the original source medium : 4612 (0x1204)
0 }4 {  |; ?" P; Y& mFormat : PGS
6 e- x3 n. [: Q  `) qMuxing mode : zlib/ _5 ]8 }9 x/ H
Codec ID : S_HDMV/PGS
* k% n- z/ r1 _. SCodec ID/Info : Picture based subtitle format used on BDs/HD-DVDs5 J" H5 k6 {; c& ~& S5 y- ?4 W( l: E; E
Duration : 1 h 23 min- x: ~9 _9 }. ^! V
Bit rate : 28.5 kb/s
6 D% S) |9 m5 l6 T& ~: }Count of elements : 2250
- \: L" Z% m1 H& V+ mStream size : 17.1 MiB (0%)9 l8 ]! T& ^' J" S. V& K/ V
Language : Japanese# |, k1 m  C- @7 k
Default : No( I) Z2 _9 x1 M2 a. z
Forced : No( Y' _9 z/ ]% N- p
Original source medium : Blu-ray$ l4 E: A" ~6 A7 c8 i
8 `& ~3 q& }0 C9 N" h6 s" ?
Text #7
5 P; e+ x- g5 @& [' aID : 14  |* Q3 K0 @- s( ]
ID in the original source medium : 4613 (0x1205)
. H% i3 C$ X. ~. r1 F  n/ ^* |Format : PGS- D/ S5 p3 Q7 a6 f
Muxing mode : zlib
# S. D; _$ ~0 y5 y8 q. J  g1 eCodec ID : S_HDMV/PGS
5 K; j3 |6 \* }* o. f8 M$ C+ @Codec ID/Info : Picture based subtitle format used on BDs/HD-DVDs( q$ D8 @) P# A) Z) y
Duration : 1 h 29 min7 z7 O* M1 C, @& b4 B$ [% u
Bit rate : 896 b/s
( Y( T, Y2 M, {& s0 ZCount of elements : 442 l+ C& L( ^* I  z
Stream size : 587 KiB (0%)
% k! P. U4 f" Y: Z; O+ HLanguage : German
. i1 t; o  c# w0 @, aDefault : No
# G  x/ _4 j; U" S% p6 c. X  {; Q8 TForced : No
% i% P# h* b6 S: `# i# Y3 kOriginal source medium : Blu-ray
. ?, L5 B( d9 r3 `$ v* f. c% R! C5 }4 `$ |# ^! r
Menu6 b# c2 C. u# {  f6 k& D2 L
00:00:00.000 : Chapter 01" i' F8 V5 A6 b& |$ Z
00:05:29.120 : Chapter 02
* C$ V" i7 Y. @00:06:48.449 : Chapter 03$ I$ n# j3 z# E
00:08:56.369 : Chapter 04
' X0 H, {1 F* s( }* o' h00:12:43.012 : Chapter 05
/ V) m( Q+ G0 M8 t: K8 x9 |, _00:17:57.326 : Chapter 06
1 ?1 K& p# B( J, h* [' ^3 L0 G& P00:23:47.551 : Chapter 07
. V+ r- N. H& }' M1 ?7 m" w00:25:49.089 : Chapter 08
  b; }5 M7 I, L  ^" _00:27:51.461 : Chapter 09
9 e% \  m4 q+ B( {7 c0 J4 K00:31:07.073 : Chapter 10+ A4 {; N; ^2 N. g* f# b& u
00:34:24.479 : Chapter 11
3 D1 w+ R- ~" O) O, K# W" V00:36:29.896 : Chapter 127 y+ D; t" [* s. }8 y& K1 Z0 w
00:38:11.497 : Chapter 13
6 g, E% b( u/ l  R) ?# h00:42:06.148 : Chapter 14
' q& O' g7 P( ?: Z00:46:10.976 : Chapter 15& T" m* g. M0 j: w; E) B+ G$ P& m0 O/ }, e
00:51:22.245 : Chapter 16
/ f; o( O% n' ~  x00:54:42.445 : Chapter 17) }# U. a! j' i: f
00:56:05.362 : Chapter 18
' k9 Z' {5 ?' @00:57:10.427 : Chapter 19, Z2 a- x# F: V' H/ y, E. |3 y5 \
00:58:06.524 : Chapter 20: {4 t  I, X( L; k
01:00:35.214 : Chapter 215 K; \/ S: I" }' U
01:03:01.068 : Chapter 22* @8 e3 N1 S+ V" X. c: ?; _9 p1 {( h
01:04:28.489 : Chapter 23; ]. H2 m0 K. D
01:07:58.741 : Chapter 24
. k$ I" B' w$ a: D01:11:30.244 : Chapter 253 T7 b4 A# t0 D/ F- U
01:13:54.680 : Chapter 26
. o/ n6 L6 H( L6 @01:23:21.830 : Chapter 27+ x9 R0 s2 N! ~2 ~4 V" ^
01:24:51.294 : Chapter 28
# u8 ?) U& v9 o: b. X' Z. [2 r
游客,查看本帖隐藏内容请回复 | 加入VIP贵宾可免积分免回复 了解详情 | 还不是会员:点击获取邀请码 Invitation Code

76

主题

2758

帖子

1万

积分

Sponsor

金币
1312 枚
体力
3839 点
lanpanshuma 发表于 9 小时前 | 显示全部楼层
啥也不说了,楼主就是给力!6 C+ S3 K, S& _$ J3 T
The decisive Replies sink is I get the sinking feeling great sense of accomplishment!
- i5 c* W) q9 q
该会员没有 ...

本版积分规则

小黑屋|Archiver|蓝光电影资源网

GMT+8, 2021-6-12 20:22

快速回复 返回顶部 返回列表