BluRayCD Forum

 找回密码
 立即注册【分享大片】
查看: 11|回复: 1
收起左侧

[蓝光原盘] 足球尤物/她是个男人 [REMUX无损版] Shes the Man 2006 1080p BluRaycd REMUX AVC DTS-HD MA 5.1-FGT 31.78GB

[复制链接]

5622

主题

5796

帖子

6万

积分

Post Share

金币
12801 枚
体力
19306 点

卓越贡献勋章

黄金嫖客 发表于 前天 17:34 | 显示全部楼层 |阅读模式
When her brother decides to ditch for a couple weeks, Viola heads over to his elite boarding school, disguised as him, and proceeds to fall for his school's star soccer player, and soon learns she's not the only one with romantic troubles.
( @" T+ L8 c4 Z3 W/ X* z
6 S! B: ^3 \: X1 e9 X1 h 01.jpg ; b+ O; d4 s  [$ z

( ~- f! g$ h( E& F0 e9 j◎译  名 足球尤物/假小子/她是个男人/球爱可人儿2 C2 [+ I$ g! @  b/ y' b( I
◎片  名 She's the Man
2 ]6 y, ?6 }3 J' i; n* o◎年  代 2006
  D$ t- |& Z' l! n1 W3 _" L& x◎产  地 美国/加拿大$ ?1 T7 c: R, i- B% f& Z
◎类  别 喜剧/爱情
, b9 i  ~/ U7 ?' f◎语  言 英语2 \* O5 {& }, z9 a$ ~
◎上映日期 2006-03-17(美国)+ M/ H7 q" r. a' D2 K( C
◎IMDb评分  6.3/10 from 148,401 users2 J, K: W6 z$ z7 f. @
◎IMDb链接  https://www.imdb.com/title/tt0454945/
& u3 B& a$ P# i9 x& o1 c$ J8 I◎豆瓣评分 7.3/10 from 59,148 users
  w# K" N) w+ d  l& m8 l◎豆瓣链接 https://movie.douban.com/subject/1466897/$ ^2 O' C  M3 j6 U7 G
◎文件格式 x264 + DTS  , k1 P! S1 v6 ~2 ^" _4 j8 S- G
◎视频尺寸 1920 x 1080( O* ]* M: ~  c$ h
◎文件大小 1DVD 31.78 GiB) ?6 Q" z5 K" C2 Z4 y
◎片  长 1 h 45 min
/ S3 z; M1 g! C' O! t◎导  演 安迪·菲克曼 Andy Fickman
8 g$ ~: V' P- x! D6 a3 g, Q◎编  剧 克尔斯滕·史密斯 Kirsten Smith! q( \$ ]  d' n" j( z
◎主  演 阿曼达·贝尼斯 Amanda Bynes
+ K" A8 O" l& M5 }/ ?1 z5 \8 |+ D       查宁·塔图姆 Channing Tatum
- N$ x, [( t8 E- a, V: U9 k' X       劳拉·莱姆希 Laura Ramsey8 C4 a' Q& \6 G# k- l9 T
       维尼·琼斯 Vinnie Jones
* d2 H0 j9 Y& f2 ]       大卫·克罗斯 David Cross- b' J! ?0 C3 R
       朱丽·哈基提 Julie Hagerty4 f9 s5 |8 B" H1 U5 I9 t0 {
       罗伯特·霍夫曼 Robert Hoffman. H$ E8 }: j# Y5 n5 y" x& i
       亚利桑德拉·布莱肯瑞吉 Alexandra Breckenridge( c' U" R9 e: F3 I0 b; `4 S
       乔纳森·萨多斯基 Jonathan Sadowski
; \9 }+ J+ m  J. o       阿曼达·克鲁 Amanda Crew
& W) d! r$ `4 A. \       杰西卡·卢卡斯 Jessica Lucas. Q: R( t. r% R6 z, l7 _% d+ ?
       布兰顿·杰·麦克拉伦 Brandon Jay McLaren4 l! j. J- z( G
       詹姆斯·施奈德 James Snyder$ f0 h3 c3 k" d* s2 s/ `/ r
       詹姆斯·柯克 James Kirk
1 {: G# A: b" O% T% g; @       艾米莉·帕金斯 Emily Perkins) ~" `, F0 Y  W/ `
       芭芭拉·科特梅尔 Barbara Kottmeier
; h8 ?- K  a4 \       罗伯特·托尔蒂 Robert Torti
# P, C  Z# [6 e2 E# w  A  k  ?       琳达·博伊德 Lynda Boyd
+ T, e' F8 Q3 Q8 t       凯蒂·斯图亚特 Katie Stuart8 a* w+ y6 f$ \$ R* X( n
       Colby Wilson' ~0 G0 F* a! r
       杰弗里·巴拉德 Jeffrey Ballard
+ H* y5 O% `8 t4 k  ^# V+ `- j) o) F       Duncan Pattillo7 I5 h1 [5 S/ X+ ^& F
       Sandra-Jessica Couturier
2 z+ n. ^9 ]% t3 X/ }$ G& F8 i       约翰·派珀-弗格森 John Pyper-Ferguson
  L4 H2 I% s2 m1 Y  G( @4 i       塔尼亚·索尔尼尔 Tania Saulnier" J2 J# v+ B4 N. j/ a) c
. h! U: ^% i5 m* ?+ H  M$ U
◎标  签 青春 | 喜剧 | 美国 | 校园 | 爱情 | 美国电影 | 足球 | 搞笑( }8 }( B2 J- V( _8 x' }+ P1 E% a

7 d' f1 T: O8 `( X' Y  w◎简  介    & u4 f( x/ G0 I& |1 f3 o
' x5 j1 X/ C" I  Y0 [: |6 b9 ^2 i
  维欧拉(阿曼达·贝尼斯 饰)甜美可人,笑容如同一片金色阳光。但她可不是个娇滴滴的小女生。疯狂喜爱足球的她,一直把踢球当作梦想。谁知,可恶的学校竟然取消了女子球队。维欧拉为了继续她的足球梦,乔装成她的双胞胎哥哥赛巴斯蒂去新学校报道,并作为新生加入足球队,准备在球场上战胜那些轻视女孩的男球员们。然而从小女生变成男生可不是一件容易的事,维欧拉故作野蛮的样子着实让人又佩服又好笑。
3 B; r9 b( X7 l, m! m5 U
+ M% q" k+ W% b& z! k1 q) J  在室友杜克(钱宁·塔图姆饰)的帮助下,维欧拉足球技术越来越出色。而不知不觉中,她竟爱上了这个和她朝夕相处的阳光大男孩。令人咋舌的是,学校的“万人迷”奥莉维娅竟然疯狂地为她着迷。一件件突发事件接踵而至,维欧拉不知所措。但她始终不变的,对足球的狂热,促使她硬着头皮也要向前走。爱情,足球,皆大欢喜还是全盘皆输?等待维欧拉,等待你我……- y; \. H3 _2 W2 I5 @( g) I
: x# L9 T0 E; F
  When her brother decides to ditch for a couple weeks in London, Viola heads over to his elite boarding school, disguises herself as him, and proceeds to fall for one of her soccer teammates. Little does she realize she's not the only one with romantic troubles, as she, as he, gets in the middle of a series of intermingled love affairs.! _" l8 d  o  |; e6 F1 ^
, t  }6 n% F8 l* U- C0 j' S
Video, W" Q* l' W, F4 }) F2 M' I" V# V" L
ID : 1' k. [$ i5 m" o3 B. u
ID in the original source medium : 4113 (0x1011): T( z: X% j# ~% y
Format : AVC, J) I. N6 U, o* P6 v$ _& b
Format/Info : Advanced Video Codec
3 Z" [1 C, |5 i1 n" sFormat profile : High@L4.1
+ H" f$ V" W0 D4 W/ ~  `Format settings : CABAC / 4 Ref Frames
) ^' ~) z5 d5 q: p2 HFormat settings, CABAC : Yes; m' A( ?3 J4 T( }% `
Format settings, Reference frames : 4 frames" w1 V% u; h! @* b4 b5 c. ?
Codec ID : V_MPEG4/ISO/AVC: N! m+ J' S; G) h! M
Duration : 1 h 45 min& @+ M5 y. T( i! `" U# x  [& a
Bit rate mode : Variable
3 t% c1 p* d' mBit rate : 37.8 Mb/s) r& N, {1 `" J( t% F% R% O! ?- {
Maximum bit rate : 40.0 Mb/s6 |3 \2 a& Z4 l. a; w# z
Width : 1 920 pixels
. H0 N6 `9 I7 M) J( R2 M! C4 THeight : 1 080 pixels3 H# X1 p# j* ?6 V* Y3 ^- G
Display aspect ratio : 16:9* P$ F* E- z7 M: R/ ]
Frame rate mode : Constant* c" A+ M* e  E; M
Frame rate : 23.976 (24000/1001/189150) FPS
: L5 O+ A' C6 qColor space : YUV- S3 ?' j8 F6 O$ v; X
Chroma subsampling : 4:2:0: l, H4 q! E) B3 D& M' L
Bit depth : 8 bits
5 h- }) z: s/ ^8 ^8 n5 y' R+ \Scan type : Progressive+ V1 P) l, n4 H' x% t$ P$ r
Bits/(Pixel*Frame) : 0.761
5 \* M5 K1 E! ~0 Z$ ?! [( [Stream size : 27.8 GiB (88%)
; g- h: x: D& ^: L; qTitle : Shes.the.Man.2006.1080p.BluRayCD.REMUX.AVC.DTS-HD.MA.5.1-FGT
  W7 @* c- B1 i: T4 eLanguage : English) j- F! L# [' v4 E2 S0 |5 W8 f8 U
Default : No9 u! }; P& D& Y+ _  n& g- [: d
Forced : No
* ~4 p5 v: a* A8 F/ yOriginal source medium : Blu-ray9 J) q% c5 e" o! Y. y0 g2 O+ w2 y. ^/ K
! F6 g: J5 U% t: {
Audio #1
6 m9 `4 c2 T( S) yID : 2
% A" `& o( t) i- p/ [1 M# k4 ?0 n# TID in the original source medium : 4352 (0x1100)4 s+ I* B% P. H
Format : DTS XLL' A7 U2 `) {2 H  X. Q/ z* R
Format/Info : Digital Theater Systems8 R& \: q. s& X; Y& \& }0 P
Commercial name : DTS-HD Master Audio6 @/ y0 c, h/ b9 U
Codec ID : A_DTS' Z& ]! D2 q! \9 n  v
Duration : 1 h 45 min
5 b1 ]3 d$ k$ D: ~0 q" VBit rate mode : Variable
6 O, \4 \; m6 ]  XBit rate : 4 199 kb/s
# M) E% A: o7 WChannel(s) : 6 channels9 Y; U+ ]2 p. D3 M( I
Channel layout : C L R Ls Rs LFE' X6 w' e, I2 I' S+ ~$ I
Sampling rate : 48.0 kHz
$ K) e8 F: e; gFrame rate : 93.750 FPS (512 SPF)
# L4 u0 e& K* ^3 l: ~; n; m* H6 YBit depth : 24 bits/ P  U% u0 B, ?8 k
Compression mode : Lossless' o( w6 k7 W3 \6 }4 T, k2 B
Stream size : 3.09 GiB (10%)
! O8 @# k  ]4 ?( Z! f+ ^) b! oTitle : Shes.the.Man.2006.1080p.BluRaycd.REMUX.AVC.DTS-HD.MA.5.1-FGT- E, N8 p3 g  F) Z* }
Language : English
) y9 L- p) `4 z* g5 j+ hDefault : Yes8 i9 c& q7 P# X
Forced : No
6 ?$ C6 u1 Y: B+ e+ uOriginal source medium : Blu-ray: Y" P; d+ ?  D  R2 Z9 s6 o0 P
  i6 x/ v4 d% l8 N) e. r
Audio #2
5 |! y# r' v3 q; }, bID : 3
; W6 x1 d$ G, k+ x& e" [ID in the original source medium : 4353 (0x1101)  ^% o2 V# k7 p$ x
Format : AC-3
( Z* A( G+ ?# o# g: F' fFormat/Info : Audio Coding 38 X4 `% X8 X, {3 F% o. w. y
Commercial name : Dolby Digital
' Q% ~4 Q( i8 \* L9 zCodec ID : A_AC3/ M; _9 l8 c2 c
Duration : 1 h 45 min3 V. l; W: J. y# O4 u2 d
Bit rate mode : Constant2 F  j% o3 g0 X7 E% _$ q+ f/ O2 T
Bit rate : 640 kb/s
: r6 s$ S7 ~7 d- |& aChannel(s) : 6 channels
0 z3 H8 o  u* m5 ]Channel layout : L R C LFE Ls Rs7 P. O* j& e( F/ p! A, y' c
Sampling rate : 48.0 kHz. u( K' e) q# g: M" d
Frame rate : 31.250 FPS (1536 SPF)1 o" e" |) K5 X# K5 Y
Compression mode : Lossy- T" X- r% w5 v  e+ j
Stream size : 482 MiB (1%)8 |0 O# ^& w% V9 l' o" c
Title : Shes.the.Man.2006.1080p.BluRaycd.REMUX.AVC.DTS-HD.MA.5.1-FGT/ \7 K3 H) s7 S
Language : French: k; }# Y; B: v. M
Service kind : Complete Main
: {8 H( \: f; d; v+ z. \Default : No
. Z* j4 d: @# _+ K4 `3 \Forced : No) j# u+ N( q, l+ A& I* H3 ^
Original source medium : Blu-ray6 M0 @/ p( s# x! \7 l3 W
' w9 p% d! I% X
Audio #3  P* z0 B# F/ ]0 ~0 O
ID : 42 g- T, b/ X4 e! B9 D& h, }8 A# |
ID in the original source medium : 4354 (0x1102)! P4 b9 A; X( r5 @% s
Format : AC-3, k+ C2 V+ l% @5 N/ Y7 l
Format/Info : Audio Coding 3
/ v( I' Z' Y( A9 m, lCommercial name : Dolby Digital
: [# }4 o/ Z4 ?4 ZFormat settings : Dolby Surround0 D+ H; r. Q' w8 y6 j/ R
Codec ID : A_AC3
/ I' ?+ M! R0 }+ f6 F3 X2 |" YDuration : 1 h 45 min
" e6 _; r; Z  [- j! r" VBit rate mode : Constant* K% l+ X$ h" O* O  b
Bit rate : 224 kb/s
6 r+ {  U) R! p; U9 B4 k" E  xChannel(s) : 2 channels
4 t# @. B: T0 b' Z/ P3 P, ^Channel layout : L R
9 h4 Z' ^" }5 y; _' p1 dSampling rate : 48.0 kHz
" G+ ]. \. n! G5 y3 o& w. gFrame rate : 31.250 FPS (1536 SPF)
: |7 c/ k7 Y2 d( M& uCompression mode : Lossy! I/ d$ P1 I, Q7 H, @5 u2 p
Stream size : 169 MiB (1%)
) f* Y/ ^% k! o0 Y7 w) K7 }Title : Shes.the.Man.2006.1080p.BluRaycd.REMUX.AVC.DTS-HD.MA.5.1-FGT
/ [+ H' K2 h5 [; c3 ]Language : English
: A: K* K8 Y9 g( t) eService kind : Complete Main& b% A, b+ P" w% @& N
Default : No( q% K  k7 Z( ]4 N
Forced : No, T* r. l+ R- h
Original source medium : Blu-ray
, R' F% ^7 D# J: J
; f4 q( A' X6 QAudio #4
4 g! m: @6 c% G5 qID : 5
$ E7 ?, f* K( I2 j" g- d# RID in the original source medium : 4355 (0x1103)( ?& z0 r  [; ?3 D2 ~& g
Format : AC-3
$ Q3 x# r. |: O; QFormat/Info : Audio Coding 3
5 L6 k( G& J& l0 tCommercial name : Dolby Digital
$ \/ ?3 V4 ^( k, R) `; YFormat settings : Dolby Surround6 R+ A2 d  N, @$ g
Codec ID : A_AC3  l3 b2 y2 W: Y
Duration : 1 h 45 min% O6 H8 Y4 O1 D/ a4 N: k. r
Bit rate mode : Constant* V) p" ~1 }6 `& b5 H
Bit rate : 224 kb/s
- Y5 T2 u( [' F9 \- pChannel(s) : 2 channels
, O7 s% S6 M* ]0 L: }Channel layout : L R) H1 i5 R5 `0 U) E1 O
Sampling rate : 48.0 kHz; @8 n( b- d  {3 P! F
Frame rate : 31.250 FPS (1536 SPF)5 N6 v1 x; C" d. M3 R5 m% M
Compression mode : Lossy
4 {- \6 C) D( xStream size : 169 MiB (1%): Y! p  V2 K' t) h, s7 O; m( b5 x
Title : Shes.the.Man.2006.1080p.BluRaycd.REMUX.AVC.DTS-HD.MA.5.1-FGT
# z5 ?# m5 ^8 T3 P7 lLanguage : English" P: O- U4 i( z) L& H/ I
Service kind : Complete Main
/ O8 p8 r8 t8 _7 N8 m# \- m/ ~$ [+ UDefault : No
. p1 }4 T7 \  \1 T1 B# r' KForced : No9 i7 P' [) Y" x& r' T/ }
Original source medium : Blu-ray
" W# u  p( k6 y8 Y8 R7 m" o1 O( B. Y
Text #1  C6 H' y* I" B) k# z
ID : 6" w, U) u/ U1 ]6 |
Format : UTF-82 t0 [- U# R" @6 E
Codec ID : S_TEXT/UTF8
0 @7 h* i/ i' C* ?Codec ID/Info : UTF-8 Plain Text
$ r. E* x/ g3 J7 S" Z0 HDuration : 1 h 36 min% I- d. K  L9 l+ ^
Bit rate : 67 b/s) s! U( Q' F" o! e& Z" O' i( U! G
Count of elements : 1589
2 c# c, ?. h: L- W! o1 @% mStream size : 47.8 KiB (0%)
/ `. |5 z4 T3 Y. uTitle : SRT; z! t# f0 I. Q6 f
Language : English
  f8 _3 Q5 h9 W/ Z. kDefault : Yes
, M) m5 _0 q8 S" `+ f, n* d9 DForced : No, p1 t2 ~3 m6 x% M/ ^4 s8 t

9 E8 _: W4 d+ t0 h2 [8 `9 ^" MText #21 d9 T: Z+ _: b
ID : 7. x0 C  q4 E/ E- l0 s6 G! `
ID in the original source medium : 4608 (0x1200)
+ H: |8 H) ~/ ^Format : PGS
# p  z4 ?$ N1 Q4 ~8 |; QMuxing mode : zlib. y$ e+ v* l! W5 ^: V  h
Codec ID : S_HDMV/PGS
2 ~3 y* p$ _- d3 F: ?; QCodec ID/Info : Picture based subtitle format used on BDs/HD-DVDs
' x3 t! @1 {, F& }4 ?4 n  O/ r. {Duration : 1 h 36 min9 ^5 d9 N% e- G/ V' A
Bit rate : 42.8 kb/s
6 ]$ t" x! H7 q- O9 x  aCount of elements : 3196
6 V% j2 A1 w5 L( |' r( VStream size : 29.7 MiB (0%)
) j" k- m  ~0 b  n. @1 B" [# x' VLanguage : English, |+ T3 t0 _+ j% [6 P+ w/ u
Default : No
3 C- r2 m% K9 h3 h1 m+ GForced : No
  }  I4 Z# _2 I; kOriginal source medium : Blu-ray
9 M, U6 {5 N' P: O" L( j& h% ?  _6 A' j8 z+ m8 ~, Y7 i# Z
Text #3
# Y, k" K) E% j+ E! A* @1 S* bID : 84 D' Z6 @! v0 c
ID in the original source medium : 4609 (0x1201)9 h! B$ r3 P, y3 {, I7 }
Format : PGS
6 Y2 Y" I- I9 H( X& OMuxing mode : zlib
9 b# I( _- U2 L& M4 ]4 VCodec ID : S_HDMV/PGS
' n1 S0 N! B: e- M# A, A6 `' XCodec ID/Info : Picture based subtitle format used on BDs/HD-DVDs- s' K; j* i8 R) }- ~
Duration : 1 h 43 min; H1 X( S# j* m; W0 D
Bit rate : 50.9 kb/s
, E, U7 w) R! w1 E7 q% }1 q, ]Count of elements : 3980$ f! ?5 k, _6 Y! V
Stream size : 37.6 MiB (0%)- [" c/ t9 i& N% B2 [; a; |
Title : SDH7 \  e& L2 l2 X
Language : English
8 z6 }7 I) I' l6 m0 W+ ]Default : No! k: Q) j( S# x* y, f
Forced : No/ O7 q! s. B- W: f/ j
Original source medium : Blu-ray
' S6 h3 o" N% s. g8 [& |2 o0 T" \6 j2 v6 L  t' o. d
Text #4
! {( `+ e2 P$ T7 h* @4 G" ?4 G4 nID : 9. X# q2 b. b7 S! X5 X% b0 S
ID in the original source medium : 4610 (0x1202)# C9 A7 `, V1 v7 K3 b
Format : PGS" b8 z, R) Z+ Q) i! X
Muxing mode : zlib: K5 [# J+ l0 J! v1 D
Codec ID : S_HDMV/PGS
  j+ e3 V* ^  {' u+ c- ECodec ID/Info : Picture based subtitle format used on BDs/HD-DVDs% i6 f& A: Z  B
Duration : 1 h 42 min
8 o& O6 \/ U5 `. UBit rate : 39.0 kb/s
' K; c9 N* g6 \( iCount of elements : 3192
  Q) W% K+ E3 N. P, r9 m9 _% ~Stream size : 28.6 MiB (0%): f- e: A7 o+ S* n9 n
Language : French1 ^' z( y& l, ?# G' a2 V
Default : No
. V- X% a/ L6 s! P( F, o; f+ XForced : No0 b" G% {" t# p; d- H* m, J
Original source medium : Blu-ray
& g) e% A+ f( o# G: I2 W/ b# r; W  u* m. G  {" B
Text #5
2 q, ~% a$ @. s, G7 O: r6 z! kID : 10
( H% h! x$ ]' S: G1 ^ID in the original source medium : 4610 (0x1202)
0 y6 l% J2 l. t! vFormat : PGS" W' |+ r7 n" }0 s, |% T
Muxing mode : zlib
" m6 f+ S( x7 e9 H0 }4 t1 y# hCodec ID : S_HDMV/PGS! q" M5 R& S/ U& {8 |) u5 d
Codec ID/Info : Picture based subtitle format used on BDs/HD-DVDs: `  w  y) u" P
Duration : 1 h 0 min
3 ]7 g. h6 h! c) W  |, o. d0 q. UBit rate : 108 b/s
- [5 n. t$ j9 K# YCount of elements : 6
/ L4 o$ o3 N% E- T0 N" AStream size : 48.0 KiB (0%)
8 u) f  ^  l  XTitle : FORCED
% d/ }7 c3 x4 E# B6 e" m+ ELanguage : French
4 I/ l6 W& K( u# j6 x: LDefault : No5 s7 O+ y/ |% e  @/ E% |5 w3 v
Forced : No
+ X8 F$ G) X( h. A+ m$ UOriginal source medium : Blu-ray; D9 Y8 y6 b( h& a8 a

7 X# `, f8 h9 t# k" u6 BText #6
0 A! ?6 S" J6 z/ WID : 11
6 b5 Z! }# v3 Z. [  F6 `: X3 Y& uID in the original source medium : 4611 (0x1203)7 Q' Z3 c9 m7 g6 R4 c% ~" S* y
Format : PGS& n. h! b+ F. p8 Z
Muxing mode : zlib7 X$ Q* d! \9 y8 M! Z! D
Codec ID : S_HDMV/PGS6 F+ g4 ^4 \! {
Codec ID/Info : Picture based subtitle format used on BDs/HD-DVDs
; t# u) W# M% s# @0 BDuration : 1 h 44 min
' K8 C8 W: c! H- g. T" hBit rate : 65.3 kb/s: m  }) }$ |9 m- V7 F$ n' r
Count of elements : 4293
  u: h& a* f1 X& UStream size : 48.9 MiB (0%)
, g* c. B  z* J' d: M5 q5 n9 e2 qTitle : COMMENTARY
% @+ [8 u5 C9 `8 p; z0 KLanguage : English, `; @, `( {* i8 p) l! F
Default : No0 ^# y3 k3 q6 a" Z6 l9 N
Forced : No
) t/ B9 c% P# gOriginal source medium : Blu-ray) j8 M! ]+ D. A) i
: E8 M$ K' {2 ?5 P
Text #7* B9 z5 U& W$ t4 O2 N& T
ID : 12
% C$ A1 ~* W4 L- N5 jID in the original source medium : 4612 (0x1204)* X' u! K* x' Y3 {9 |
Format : PGS
& Z1 N0 [  _5 G( h+ aMuxing mode : zlib! ]7 Z2 r& [, B8 |0 ?& s
Codec ID : S_HDMV/PGS1 ?- z: z( p: G0 }% \$ b
Codec ID/Info : Picture based subtitle format used on BDs/HD-DVDs
) l0 W% @$ h4 o' bDuration : 1 h 44 min+ ?9 U  f/ C3 G5 d- P, `
Bit rate : 61.6 kb/s
# H$ s# R$ j% Y) eCount of elements : 4271; `# f) c  }3 K0 S' e4 B
Stream size : 46.2 MiB (0%)
8 Z. @/ W) F8 ATitle : COMMENTARY# A! [; s6 T6 f! Y  [; W
Language : French
' d5 }8 j, X* tDefault : No
9 Q# |3 X0 D3 M& r1 C. rForced : No
' s% d) h9 z" o+ wOriginal source medium : Blu-ray7 t! H/ {, z+ U* I. m
5 W( ^$ m; o8 z
Text #83 e( G9 ?, Y& `5 o. w2 `
ID : 13
1 X4 k  B3 j/ Z, @2 }0 vID in the original source medium : 4613 (0x1205)
( j6 c7 g( Q7 Q  bFormat : PGS2 @/ q! c6 R3 }  T: ?& e/ `2 y
Muxing mode : zlib. c0 p  W; @% ?0 W# b0 b! m( c
Codec ID : S_HDMV/PGS+ o1 O1 t4 L, A" w1 g# g
Codec ID/Info : Picture based subtitle format used on BDs/HD-DVDs
/ w5 `6 b7 a; R7 v3 t  H  NDuration : 1 h 40 min
9 F  M6 M7 ^1 RBit rate : 50.2 kb/s
: {7 x  `) L; ]: JCount of elements : 2860; g) H8 ~9 Z- d& f+ s/ f$ k! v* w
Stream size : 36.1 MiB (0%)9 G1 W+ Z; p% c3 i, u* U) C
Title : COMMENTARY
* @! P! f) F/ k# l  ^. `9 aLanguage : English
9 T" x2 D. Y! O( @# f' xDefault : No
  U- _- g& G, ?Forced : No
, k" k' j7 S8 g/ @3 a& SOriginal source medium : Blu-ray+ e0 y( v  Q& g, H

$ C$ D" \  C2 V; ]% wText #9# G1 Z/ A4 U8 a5 b0 \# }: S$ @
ID : 14
5 y% v4 `( G: uID in the original source medium : 4614 (0x1206)
/ d9 c0 z3 ~) ^8 y! nFormat : PGS- [+ {& g$ w& R
Muxing mode : zlib
! Z% U# G  G% c  X' p: ^- BCodec ID : S_HDMV/PGS
- ]  D) f6 f, d' TCodec ID/Info : Picture based subtitle format used on BDs/HD-DVDs
, @+ a* X3 _& ?Duration : 1 h 44 min
# m. \- E! Z# R9 w( c" GBit rate : 45.2 kb/s
2 l' _8 Z. U% {6 FCount of elements : 2853" d! z4 r' r; S, C
Stream size : 33.9 MiB (0%)
8 o' `- K2 K" P6 M2 \# @- n' \Title : COMMENTARY
9 {$ _) ]+ I( p: E# m' n! d4 {Language : French
' L( p. L7 o1 Y5 EDefault : No" A+ f. v. q9 w( N! D1 ?, ^
Forced : No( l4 y& q6 M" j% m
Original source medium : Blu-ray5 q( d% l! K5 @
" q+ e1 C" e- y# R
Menu
3 |- G7 ^% C& x00:00:00.000 : Chapter 01" y+ P* t9 h% V- ~2 P
00:05:50.933 : Chapter 021 y! ?6 u& t% {0 s3 k8 r$ B
00:12:14.108 : Chapter 03
9 B& H& S7 w* c# B9 z00:16:57.599 : Chapter 04
: ]0 Z, s3 j: i- _# A7 c00:19:50.272 : Chapter 05( X  @! a2 H- z
00:23:19.231 : Chapter 06, s+ r6 j0 K0 ?& ~
00:28:29.874 : Chapter 07
7 Q. m3 K, Y/ @8 k3 K. l; ?00:32:33.534 : Chapter 08) |$ l% Q* c: J+ @2 H0 J. Z' O
00:38:32.351 : Chapter 097 v/ p( D3 L; k: q7 H, X0 n. U
00:44:29.792 : Chapter 10
+ O; |% ^# O7 p* e  O# ~00:51:38.845 : Chapter 11
7 ?' b( f! H* |# s00:56:14.079 : Chapter 12
/ y- l7 y# x6 ~* G01:02:44.218 : Chapter 13  }+ w, l% N4 ^$ f
01:09:15.860 : Chapter 14
/ Y, ^* J( N3 u2 [7 {01:13:45.379 : Chapter 15
# w& n  U" t; N4 r5 O/ }- d01:18:22.030 : Chapter 16
, E: H& n  z& m& ^01:25:15.151 : Chapter 17
( K$ m8 l: P8 W& o- s% T5 a01:31:18.848 : Chapter 185 p0 R, V8 K- W, r
01:34:48.683 : Chapter 19" w& e: e  x) o) ]: y) c+ x
01:40:29.273 : Chapter 20
She's the Man Blu-ray, Video Quality   # [; X1 A8 v! o; T; ?

; N3 G1 T" U; O# M/ O6 y4 C
2 Q5 [7 x* @4 `, O7 SIt bears repeating that Paramount is releasing some exceptional Blu-rays of late and She's the Man is certainly no exception. This is a gorgeous presentation, handsomely filmic and more than capable of delivering the picture with sure-handed, steady, and highly satisfying detail and color yield. Grain is retained for the duration. It's a fine layer that is consistent in density and flattering to the larger picture, resulting in a pleasing cinematic flavor. It's also sign that the image has not been tinkered with; there is no noise reduction in play, leaving fine details naturally sharp to its film roots. Facial textures are a highlight but so too are odds and ends in dorm rooms, across campus exteriors, and around a carnival grounds midway through the film, to name a few key locations. Every element boasts high quality detailing and natural sharpness. Color output is excellent as well. Tones are bold, firm, and steady in depth and density. There's no fading and no sign of oversaturation beyond a mild uptick inherent to the source. Colors are alive through the spectrum, from colorful clothes to natural greens around the school. Skin tones are perfect and black levels are excellent. Print flaws are difficult to find and encode problems are likewise next to nonexistent. Fans couldn't have asked for more.. T8 D2 z. ~& f# b9 n1 G" k- [

+ H3 _& [& b  p2 XShe's the Man Blu-ray, Audio Quality   - E. c% t, g! `& G- w: ?

& O% a+ _. r9 b7 X/ V# k
# a' U  r6 k( v' ]She's the Man delivers a manly DTS-HD Master Audio 5.1 lossless soundtrack. Listeners will identify the track's excellence from the outset. The opening Pop-Rock tune is quite the energetic little piece of music, spilling through the stage with sharp lyrics, potent guitar riffs, and plenty of full immersion stage engagement and subwoofer extension. Such remains true for the rest of the film. Every musical engagement is alive with verge, vigor, and vitality; listeners will never be left wanting. Further, ambient effects around campus, during soccer practice, in lunchrooms or restaurants, at a carnival, anywhere and everywhere the film goes sees the audio offering a springy sense of place, never overbearing but very well balanced and true. The stage is often fully engaged to fine effect. Dialogue is clean, clear, and well prioritized from its grounded front-center position. This is a very strong accompaniment to the excellent 1080p visuals.
  Y( i* J5 \8 n  ?6 r7 P
游客,查看本帖隐藏内容请回复 | 加入VIP贵宾可免积分免回复 了解详情 | 还不是会员:点击获取邀请码 Invitation Code

76

主题

2758

帖子

1万

积分

Sponsor

金币
1312 枚
体力
3839 点
lanpanshuma 发表于 前天 23:55 | 显示全部楼层
其实我一直觉得楼主的品味不错!呵呵!6 c5 ?* L' c" L" w* @7 P
In fact, I have always felt that the landlord of good taste! Ha ha!5 c: L' ^9 K, T, n9 H1 }
该会员没有 ...

本版积分规则

小黑屋|Archiver|蓝光电影资源网

GMT+8, 2021-6-12 19:58

快速回复 返回顶部 返回列表