BluRayCD Forum

 找回密码
 立即注册【分享大片】
查看: 77|回复: 7
收起左侧

[蓝光原盘] 本能1/第六感追缉令 [REMUX无损重制版] Basic Instinct 1992 REMASTERED 1080p BluRaycd REMUX AVC DTS-HD MA 5.1-FGT 34.63GB

[复制链接]

5807

主题

5981

帖子

7万

积分

Post Share

金币
13374 枚
体力
19739 点

卓越贡献勋章

黄金嫖客 发表于 2021-6-27 18:01:05 | 显示全部楼层 |阅读模式
A violent police detective investigates a brutal murder that might involve a manipulative and seductive novelist.
; P, F2 Y' ~, x$ C: M( v8 F3 m4 Q; q: J/ v9 O7 z) m% B4 D
01.jpg
1 B8 G5 h- @2 i/ K0 W- Y2 y  J" _' [5 m
◎译  名 本能/第六感追缉令(台)
: h* u' v8 q0 L; ~  H◎片  名 氷の微笑 / Basic Instinct
$ D, W) m; o5 }2 B◎年  代 1992  l3 x+ |5 E8 C4 W
◎产  地 美国/法国
, t5 e) e, P7 x: y◎类  别 剧情/悬疑/惊悚
. f+ g+ l" h! I# ]9 q* N◎语  言 英语
3 V8 G- N2 O' I2 S' g* V◎上映日期 1992-03-20(美国)3 {( g/ E$ r2 |! E
◎IMDb评分  7.0/10 from 184,521 users
: f" s- p! l7 i2 R◎IMDb链接  https://www.imdb.com/title/tt0103772/% P% [" J' b1 @9 s' R' ]# S7 |" {
◎豆瓣评分 7.8/10 from 138,104 users, s1 Z$ M( O: @9 H
◎豆瓣链接 https://movie.douban.com/subject/1291869/: l' a5 R9 M7 M5 T3 u
◎文件格式 x264 + DTS6 M& F7 ^: R! N5 R( A# B; h
◎视频尺寸 1920 x 1080) L' `) o/ u3 ^4 K
◎文件大小 1DVD 34.63 GiB# D9 r  R5 [! C2 K4 v) I/ a
◎片  长 2 h 8 min
) R$ _7 {) _+ a) M8 U) E◎导  演 保罗·范霍文 Paul Verhoeven
6 Z; N# i! I& |) L8 ^◎编  剧 乔·埃泽特哈斯 Joe Eszterhas8 Q2 O4 g, ]9 q  y, c0 `
◎主  演 迈克尔·道格拉斯 Michael Douglas
/ r7 e0 Z% ?, E8 ?       莎朗·斯通 Sharon Stone$ K3 C- J0 [3 S( g) Y
       乔治·杜兹达扎 George Dzundza7 w' z( u. @) ]3 j, _; m: y+ g( l7 S
       珍妮·特里普里霍恩 Jeanne Tripplehorn
! t( \5 L1 Y; f* q. e/ ?5 N( r2 y       丹尼斯·阿尔恩特 Denis Arndt
  V1 d/ J; q' g2 N) X       米彻·佩勒吉 Mitch Pileggi; w) ]8 p5 ?7 g" q2 X1 f
       杰克·麦吉 Jack McGee
! X5 _8 ^# ^2 n% [       斯蒂芬·托布罗斯基 Stephen Tobolowsky& Y8 e8 W% H9 }- J  g# J9 s5 h
       丹尼尔·冯·巴根 Daniel von Bargen* C3 d5 O0 M5 Q( q4 ?
       韦恩·奈特 Wayne Knight
' \9 X2 }, W/ e) L7 r8 o) |( M       多罗茜·马龙 Dorothy Malone2 T# @* \% G- `, d
       切尔西·罗斯 Chelcie Ross
' g% ?3 e$ i1 W7 u       布鲁斯·A·扬 Bruce A. Young6 x. m2 @! C% \
       马里·帕特·格里森 Mary Pat Gleason/ {1 _  {6 M7 e3 D2 G" W
       蕾拉妮·萨尔利 Leilani Sarelle
% {7 m' c5 ^: Z3 f; y# d$ N' @9 J; \
◎标  签 情色 | 悬疑 | 美国 | 本能 | 惊悚 | 美国电影 | 经典 | 剧情& e! R. V. {  R  c3 j- X

7 z7 D/ _) s' C% \$ B, u9 j◎简  介
" }  [, u' \7 n! p, }
; G5 H4 y6 X, n( q+ g/ m+ E  退休摇滚明星强尼·博兹(Bill Cable 饰)在性行为的过程中被人用白丝巾捆绑双手后用冰锥残忍刺死。其女友凯瑟琳·特拉梅尔(Sharon Stone 饰)是一名作家,去年出版的小说中就有双手被白丝巾捆绑的退休摇滚明星被女友用冰锥刺死的情节。虽然特拉梅尔通过了谎言测试,但曾枪杀两位游客却被判无罪的尼克·柯兰警探(Michael Douglas 饰)坚持认为特拉梅尔在说谎。因为他自己也曾接受过谎言测试,并且通过了……( U% S" X3 s! B

  i% v8 m% a  c* Q2 V  A manipulative novelist snares a San Francisco detective with her insatiable sexual appetite during the investigation of her boyfriend's murder.
/ v! V: u( f1 K7 S
# L4 {! F& Q8 N◎获奖情况4 }$ y$ [8 y1 M% ^5 V0 I0 k
: E4 P* y! j) `5 v& G* e2 ~
  第65届奥斯卡金像奖 (1993), m. s8 H8 x( q3 f' K& R: ]" s
  最佳剪辑(提名) 弗兰克·J·乌里奥斯特: `& Z4 L) I  Z! M
  最佳原创配乐(提名) 杰瑞·高德史密斯
% A) b% E6 `6 ~  
. \6 y" J+ f% ~' L  第45届戛纳电影节 (1992)
2 y1 k8 E/ c) E  D% k% Z! ~; t  主竞赛单元金棕榈奖(提名) 保罗·范霍文
% E( Q" n' O/ l% t5 i3 w  
; j! W" e! ?" _9 @+ V2 K" g! \, |  第50届金球奖 (1993)
6 `. j* Y, `7 g" e! t+ Y% }  电影类剧情片最佳女主角(提名) 莎朗·斯通
# G$ F, a+ Z: q' U3 i; B  电影类最佳原创配乐(提名) 杰瑞·高德史密斯( n1 p1 t! Y) V9 a9 R. L
  2 R  m+ J# M- c) r* P+ o
  第16届日本电影学院奖 (1993)1 g( x* `; w) o! \* `5 f. U) Y
  最佳外语片(提名)9 n9 X' P0 N' u! `
: m- z; o- u' Z' i/ E& B
Video4 \# z+ u1 D3 Z. I7 d/ Q& k
ID                                       : 1: I# Z! B' g2 R2 O
ID in the original source medium         : 4113 (0x1011)
4 B. j4 R3 y: u5 [$ O1 T7 f+ TFormat                                   : AVC
, N3 w! }; q  [; N' [% vFormat/Info                              : Advanced Video Codec
3 c6 H# l" C1 P4 _0 iFormat profile                           : [email protected]8 q# A. M0 t" r+ x' L- ~
Format settings                          : CABAC / 2 Ref Frames
6 x$ T% A' @- |% l' d7 u! FFormat settings, CABAC                   : Yes
" G# {9 G5 u& ~* v) JFormat settings, Reference frames        : 2 frames
. G, Z  N( }2 K) e' i9 {  T5 uCodec ID                                 : V_MPEG4/ISO/AVC
! O8 W$ \% j8 D. G) WDuration                                 : 2 h 8 min  e$ B1 r4 _: \2 y
Bit rate mode                            : Variable
$ g. c! p& {/ q# F" j- sBit rate                                 : 30.0 Mb/s- N1 U0 V5 }6 s
Width                                    : 1 920 pixels1 {; w; \$ o3 G' i$ e& |. ]2 c6 z
Height                                   : 1 080 pixels% @5 ]! ~0 Q# }% H* {
Display aspect ratio                     : 16:9
: f; E8 O  T/ g: f* |4 l! o) iFrame rate mode                          : Constant
# _) V" o& d9 w' P, C. m' oFrame rate                               : 24.000 FPS
( Q4 m. l1 p6 _3 B6 rColor space                              : YUV
3 A: F4 X' F; q* o3 yChroma subsampling                       : 4:2:0
+ Z/ a' j" x1 o$ b9 iBit depth                                : 8 bits( t3 F( R: o  S2 w
Scan type                                : Progressive4 I# t$ T% l' w
Bits/(Pixel*Frame)                       : 0.602; `3 e5 A" g0 J) I
Stream size                              : 26.9 GiB (78%), f  d# |& G; ?! M: ^
Title                                    : Basic.Instinct.1992.REMASTERED.1080p.BluRayCD.REMUX.AVC.DTS-HD.MA.5.1-FGT
, w5 j' I& O$ q; kLanguage                                 : English7 i# H8 ]7 @9 Q( N# i
Default                                  : No8 N5 Q& a$ z6 }2 N. E0 J4 ~
Forced                                   : No
9 l/ H( c6 e& |: G" kOriginal source medium                   : Blu-ray0 D9 ?1 X8 n/ Q9 H6 ^
! h2 U3 n- `: X) y9 w5 [
Audio #1
& y  r- j' A2 l8 |( U3 P" W' LID                                       : 2
/ D0 i6 Q/ T6 X1 O: ZID in the original source medium         : 4352 (0x1100): F7 O/ F, P: }: Y; K6 L; j0 p
Format                                   : DTS XLL
  ?) Q* b+ F$ u9 V2 T4 F: uFormat/Info                              : Digital Theater Systems
; [! X+ [+ `0 C  ]' J6 ?Commercial name                          : DTS-HD Master Audio8 x) v5 b9 B7 {, A
Codec ID                                 : A_DTS
% h1 z7 p5 u7 Q- l, ^Duration                                 : 2 h 8 min
, E% a1 k) H6 [1 B5 dBit rate mode                            : Variable3 @; m* D# F9 u, }5 ^# Q& ~
Bit rate                                 : 2 415 kb/s, R) R) H! S7 u5 D+ N
Channel(s)                               : 6 channels# H2 J7 q4 e% J
Channel layout                           : C L R Ls Rs LFE, h; n0 U4 n" N* T9 D+ i
Sampling rate                            : 48.0 kHz
' I, a2 \9 h* x& kFrame rate                               : 93.750 FPS (512 SPF)
5 y0 s/ b' b! f7 ABit depth                                : 16 bits
( V" [2 M8 _8 z- jCompression mode                         : Lossless0 D) U( K6 U! T$ S+ Q! A2 @" W
Stream size                              : 2.16 GiB (6%)
6 V# T) M& F2 B/ wTitle                                    : Basic.Instinct.1992.REMASTERED.1080p.BluRaycd.REMUX.AVC.DTS-HD.MA.5.1-FGT" ?5 c. ~1 D8 V" v) c
Language                                 : English3 A, d, P( g. j3 V& e
Default                                  : Yes
- x4 L% l: X1 OForced                                   : No
2 N- ]. m( Z9 e' n; v/ r: IOriginal source medium                   : Blu-ray/ [" K/ d4 O; L5 u% U
( a" u! Z: O1 ]% w9 }- U
Audio #2; p2 F# f1 g+ C: ?. ?$ @2 T
ID                                       : 3/ w3 D& V' `* `* ~4 D8 \# {
ID in the original source medium         : 4353 (0x1101)
. X; d6 R3 Q4 D9 R- MFormat                                   : DTS XLL
& U% I. N' l1 y& z7 Z$ vFormat/Info                              : Digital Theater Systems
4 ^' ?$ v5 j: v: WCommercial name                          : DTS-HD Master Audio
/ `, @& y% Z. R7 tCodec ID                                 : A_DTS( d7 ]% Z. F- L( x8 A! o
Duration                                 : 2 h 8 min5 n, ^! o6 _5 N' N
Bit rate mode                            : Variable% T$ e% H  @* H# I# r
Bit rate                                 : 2 413 kb/s8 W1 X! l# M0 i# j' `2 I- I2 Q
Channel(s)                               : 6 channels
/ y' o3 y* v" J' L  SChannel layout                           : C L R Ls Rs LFE
$ r( Z8 g; @+ N3 o" gSampling rate                            : 48.0 kHz
4 s/ W6 a' |  x* _* y( b- d+ G% J) oFrame rate                               : 93.750 FPS (512 SPF)& i, y. {2 |) l0 l1 _
Bit depth                                : 16 bits0 t) X2 f' g, `6 }& d
Compression mode                         : Lossless4 |) q2 l7 @. n
Stream size                              : 2.16 GiB (6%)2 n, U' g4 S5 t; r+ X) S9 N( M$ h
Title                                    : Basic.Instinct.1992.REMASTERED.1080p.BluRaycd.REMUX.AVC.DTS-HD.MA.5.1-FGT
1 G7 F' i* E+ |+ X! E% r# yLanguage                                 : French  `, y; m: P! y- o1 ~, j9 z
Default                                  : No
8 y0 w- x' {- a1 e% C1 PForced                                   : No# T1 X9 j3 ~; D/ K. ]- a9 Z
Original source medium                   : Blu-ray2 ~8 b3 A3 k) _2 E
0 O* |1 o: {) P
Audio #3
# @2 X; T, `8 Q0 R, |ID                                       : 4
. ~+ `& H! w, X( h- [) j- V( P( ZID in the original source medium         : 4354 (0x1102)
" f1 Q6 a! b6 O( }& b, V+ EFormat                                   : DTS XLL
% H" ~3 ?/ w# f7 t* t7 e5 B- aFormat/Info                              : Digital Theater Systems3 n% K& s0 ]0 [  P+ v/ s$ t# E
Commercial name                          : DTS-HD Master Audio% y% Z# g! k8 L5 C" R1 J
Codec ID                                 : A_DTS1 e: m" t1 Q$ B& r! Q
Duration                                 : 2 h 8 min# l: T; Z' q6 v
Bit rate mode                            : Variable- A7 F$ v$ G7 `  E1 e5 Q
Bit rate                                 : 2 353 kb/s! e/ H4 `  B' W" V1 y# i, s) G
Channel(s)                               : 6 channels
2 i( d/ T- w" x# zChannel layout                           : C L R Ls Rs LFE( z9 u( q+ U) o" W  c
Sampling rate                            : 48.0 kHz
: o2 B& }* }/ B- T# e# N5 Y: xFrame rate                               : 93.750 FPS (512 SPF)0 N3 o* ~3 v: A/ q! c' l) G
Bit depth                                : 16 bits
9 L0 H- A! c3 A3 |Compression mode                         : Lossless8 Y) P; Q, ?9 t
Stream size                              : 2.11 GiB (6%)# I$ \4 b& N" R7 W4 U
Title                                    : Basic.Instinct.1992.REMASTERED.1080p.BluRaycd.REMUX.AVC.DTS-HD.MA.5.1-FGT
- J0 C% h1 r$ k* P7 n1 F( F" ^* |' |Language                                 : German6 C1 s0 u9 b" @$ ~. ^) U1 h& i
Default                                  : No
6 r. N5 P$ G' g! S5 a/ B( E* a) hForced                                   : No
3 Z5 M9 D! H5 O! [* ]& M! p; ^; z$ g0 {Original source medium                   : Blu-ray
" i- a  M6 K: G5 s6 k
# P- U! B% I6 Z# d, W# _Audio #4  A2 T6 Z1 O. S6 ]. S- N6 k' o
ID                                       : 59 t9 S$ _3 s# G& u8 }
ID in the original source medium         : 4355 (0x1103)
/ _( _' n- z6 g0 H+ NFormat                                   : DTS XLL
! \" q$ T, S/ v/ a( u. N3 ^Format/Info                              : Digital Theater Systems
# o1 b6 P5 L, FCommercial name                          : DTS-HD Master Audio
& X3 N: v1 e' c% E) M* zCodec ID                                 : A_DTS- @& \4 Y* j7 c  `- O1 x. D
Duration                                 : 2 h 8 min- g2 |2 `) y( g/ t% ]: x
Bit rate mode                            : Variable+ o1 T3 _& ~7 b1 Z
Bit rate                                 : 1 041 kb/s
7 b+ u! I' B, M4 ~9 UChannel(s)                               : 2 channels
8 e: ~' B  u5 x! ]Channel layout                           : L R2 n; p. l, ^1 y
Sampling rate                            : 48.0 kHz, o0 C, u4 I/ W* R
Frame rate                               : 93.750 FPS (512 SPF)
- ]2 s/ v! E/ o; yBit depth                                : 16 bits$ W, n& N6 Y  b$ q  q  X
Compression mode                         : Lossless& x- y: n) c( y2 V
Stream size                              : 955 MiB (3%)
/ d$ r6 X) J0 J9 m3 C! eTitle                                    : Basic.Instinct.1992.REMASTERED.1080p.BluRaycd.REMUX.AVC.DTS-HD.MA.5.1-FGT& n0 z0 H  T. d8 X0 O7 ]7 D  V5 p
Language                                 : German- ^' J9 D2 {4 \% N4 W7 l" Q
Default                                  : No
; J; p: o4 D- k. M, i) l& \) DForced                                   : No
5 ]9 m! f9 L, ]5 Z2 Z8 _4 J& l+ MOriginal source medium                   : Blu-ray- S% A. ~9 \1 m, q% v

* X2 Q' N: G' T: FAudio #5
  ]; E4 \! T" B: SID                                       : 6& X% J* m! F; @) K; a# ~1 }
ID in the original source medium         : 4356 (0x1104)! Z( J' }* w4 ?- J
Format                                   : AC-3+ H9 ^, A3 H- I  l1 g2 Z+ ?9 L
Format/Info                              : Audio Coding 3
' |; E/ B3 \+ y, K( D' Y9 \7 x3 ]+ xCommercial name                          : Dolby Digital9 H# m& d/ O8 _$ o' J
Codec ID                                 : A_AC38 v& ]! s9 c% n7 G* b
Duration                                 : 2 h 8 min
& d, N1 Q. g. b" ?! D* e* nBit rate mode                            : Constant
  d; B% j, _' r+ u7 P1 Z( A6 [Bit rate                                 : 192 kb/s
4 K8 `2 L0 r+ k: m! uChannel(s)                               : 2 channels  D% @& p# a; f% w+ i
Channel layout                           : L R
5 i7 f( C8 ]- z3 [: fSampling rate                            : 48.0 kHz, I6 P/ S1 _+ W( R4 {
Frame rate                               : 31.250 FPS (1536 SPF)
( _1 }. i( I* T) G5 jCompression mode                         : Lossy! @3 `9 _2 Y7 |. a  b# V1 E
Stream size                              : 176 MiB (0%)
2 c- K. Y. o1 W5 i# w0 t6 _Title                                    : Basic.Instinct.1992.REMASTERED.1080p.BluRaycd.REMUX.AVC.DTS-HD.MA.5.1-FGT: C' ~! K% x3 S/ H/ B
Language                                 : English
# c4 f7 T* X% o2 V! d  ]Service kind                             : Complete Main
* ]% s9 a3 z$ z, [; E! K3 U$ NDefault                                  : No7 X) r: t. F, g& X
Forced                                   : No, [9 L9 d; u0 L% A, s; o4 s& M5 e/ s
Original source medium                   : Blu-ray' `% D+ l& b3 x2 M
/ O9 W% {9 v3 {
Audio #6' X/ B9 ]0 u  l: T" C9 y
ID                                       : 7! [, S# y+ j6 j/ `* p( Z6 g
ID in the original source medium         : 4357 (0x1105)0 i* C# a: i  S
Format                                   : AC-3; }, I! [6 s5 x5 U9 v. U5 r! `
Format/Info                              : Audio Coding 3
9 V' d8 i0 Y: g" o! B2 ]Commercial name                          : Dolby Digital
9 m; m6 B! |# Y- |$ D" L& h, PCodec ID                                 : A_AC3
) H  ^7 u. @- `; n% H& dDuration                                 : 2 h 8 min
8 q1 i1 i2 c. q1 nBit rate mode                            : Constant
5 _7 R$ o# J' ]2 T, b9 Y$ D7 x# BBit rate                                 : 192 kb/s$ ?" G% G$ ]4 Z1 A: y* y3 V- ~
Channel(s)                               : 2 channels
! A1 C3 Z6 p0 p+ iChannel layout                           : L R6 j  H$ G% M: Y3 p9 \4 v
Sampling rate                            : 48.0 kHz$ X% F& @4 `4 f; s: _1 S- Z
Frame rate                               : 31.250 FPS (1536 SPF)/ a4 p- c& s4 s. R* J
Compression mode                         : Lossy
1 Q0 s6 j" i0 n5 D  QStream size                              : 176 MiB (0%). F) ^* N6 B6 _, N' a6 O/ M
Title                                    : Basic.Instinct.1992.REMASTERED.1080p.BluRaycd.REMUX.AVC.DTS-HD.MA.5.1-FGT
4 v$ r2 g% t( l9 k* Y" xLanguage                                 : English1 M8 `: F, X3 V9 D
Service kind                             : Complete Main
; G5 m: y. _* B5 W0 X, k& k" J0 [Default                                  : No
* C9 K7 f  b% GForced                                   : No3 }- K# ]: \4 K; S
Original source medium                   : Blu-ray
9 P$ r! }% j/ L% p3 k
! d: `/ f. W, hText #1
7 D5 B* e% |# D" `3 i# ^( HID                                       : 86 T; x3 ?, I: o! P1 e6 c  |
Format                                   : UTF-8, A/ x7 W1 D: b- [8 R" ~
Codec ID                                 : S_TEXT/UTF8
/ ^4 P3 h5 O$ V6 w7 OCodec ID/Info                            : UTF-8 Plain Text
  _$ k* P7 M0 y1 p. O, b9 BDuration                                 : 1 h 58 min
& G  U2 \. C. }Bit rate                                 : 52 b/s
. J8 \5 H5 L+ w+ aCount of elements                        : 1301
6 w' H3 V: A+ a: K8 X' H+ _Stream size                              : 45.2 KiB (0%)
- c1 v; t( }. x. bTitle                                    : SRT6 ?7 \: b$ _3 ^" F' \6 ]
Language                                 : English
2 |* H+ q" ?, F" u3 yDefault                                  : Yes5 ?' F4 Q. f1 y( O% B7 C
Forced                                   : No7 i1 |8 `8 `& @$ y3 n# P8 O

7 H4 T/ Y" @1 V! F2 n3 BText #21 \- o6 h6 L2 n5 c
ID                                       : 9' _2 I1 \" A3 u7 d5 B
ID in the original source medium         : 4608 (0x1200)! s) l  Q0 k/ D* ?
Format                                   : PGS
# f* b: W: o* X5 E3 |Muxing mode                              : zlib
& a. x* w$ ]+ e# H  o3 V# i  K+ yCodec ID                                 : S_HDMV/PGS2 o8 E: V2 T, U
Codec ID/Info                            : Picture based subtitle format used on BDs/HD-DVDs
" e7 P& Y1 o6 [* h/ D6 U5 _Duration                                 : 2 h 2 min
: E. ^4 H  X1 L$ X# TBit rate                                 : 32.3 kb/s
6 p, Y8 q; d4 \; z6 |# @Count of elements                        : 2918' @+ r6 F3 I! m1 |" E  L, C
Stream size                              : 28.4 MiB (0%)
: t9 r7 f4 m/ j$ @3 Y4 D; }Language                                 : English3 t) L& |5 x3 _- E
Default                                  : No, r% F$ n/ H6 q" r( J, j' s
Forced                                   : No
) i. f8 P% E3 O; T$ ?8 ]7 x( ]3 COriginal source medium                   : Blu-ray- Q5 B" }, `+ e
9 h, D( F& Q% @$ Z
Text #3. _) k! m: {+ Z* _
ID                                       : 10
3 N# R+ B% Y! y$ ^/ nID in the original source medium         : 4609 (0x1201)3 ~, ?( }2 q4 M
Format                                   : PGS
. ?  X. {6 U& F# a" b  _Muxing mode                              : zlib
& I' S% J6 s/ y/ ~2 c1 f- }Codec ID                                 : S_HDMV/PGS' u( b& G0 F. K& i2 P
Codec ID/Info                            : Picture based subtitle format used on BDs/HD-DVDs
1 e+ Y0 h; y( l  eDuration                                 : 2 h 3 min3 B+ E$ F+ [7 T6 H; d. u6 a
Bit rate                                 : 23.4 kb/s2 T1 g" x+ x/ Y
Count of elements                        : 2340
1 j" E5 s1 ]( m( G  V: LStream size                              : 20.6 MiB (0%)- ]+ [# q, n! |0 N: ?0 V0 [2 A
Language                                 : French
* p# _% ]( e+ I) ~% WDefault                                  : No1 s1 x! z  t2 f* u. Y. h7 ]* p: T
Forced                                   : No
: W$ B8 A% f3 R  f1 m, ^0 I8 XOriginal source medium                   : Blu-ray& v4 e) l6 {7 k

% N  H# i/ {: g5 dText #4
, `6 F3 D  L8 c# ]ID                                       : 112 G2 V" l2 r' `. ]
ID in the original source medium         : 4610 (0x1202)
/ g8 Y" h, z5 g- e$ uFormat                                   : PGS  S5 \# e" |/ X
Muxing mode                              : zlib
) L( o( E, X4 VCodec ID                                 : S_HDMV/PGS
: }" m. Q: `- F  @1 b! WCodec ID/Info                            : Picture based subtitle format used on BDs/HD-DVDs
$ _, E5 }; P. T. t+ vDuration                                 : 2 h 4 min, T" _7 p7 l" m  p+ t$ }$ W
Bit rate                                 : 23.8 kb/s
5 S: _/ U5 @: ?! d) pCount of elements                        : 2614$ i; I! h- o& Z- L
Stream size                              : 21.3 MiB (0%)4 U, N/ c# F+ z
Language                                 : French
2 y. B! P5 J  u' P' qDefault                                  : No5 z7 `  ]+ \/ h" b
Forced                                   : No
' n. n+ q, c( T! t. WOriginal source medium                   : Blu-ray
/ J6 v3 D$ G" v) p- X" d
8 ?' _5 h% U& H0 F# N! f; S1 Z6 IText #5
* u1 y5 o$ ]+ \* P* k0 gID                                       : 12
7 a, |: C' ?( m# PID in the original source medium         : 4611 (0x1203)
; |4 j2 u1 |+ sFormat                                   : PGS
4 V7 j2 c3 k/ U# E' i1 gMuxing mode                              : zlib5 P0 k% z% p# B6 ^/ `8 A% D
Codec ID                                 : S_HDMV/PGS, n2 ~5 ]3 P; P- F5 ]
Codec ID/Info                            : Picture based subtitle format used on BDs/HD-DVDs. R- d5 r5 v5 `0 s9 K7 c1 K
Duration                                 : 1 h 26 min, `' |* i& J& Z8 G8 b
Bit rate                                 : 398 b/s
+ W& ~0 t# i/ q" t: \* WCount of elements                        : 32/ y3 Y; W: T& d4 ]% T
Stream size                              : 253 KiB (0%)' ]; I$ A( h& |- y# R( U
Language                                 : French
4 O& v' v5 A/ `9 bDefault                                  : No6 m; X8 _2 Q; o8 @; c
Forced                                   : No
6 E- T8 \. r/ `$ kOriginal source medium                   : Blu-ray
; ?! f+ o# s, I* o% Q) }9 m8 ^7 ~1 t8 S. H( K$ \4 c9 P- c# X0 M
Text #6$ `" n+ G) K6 E7 B9 z3 b6 R9 \
ID                                       : 131 q8 G' G4 w; M
ID in the original source medium         : 4612 (0x1204): F) y% n5 z% d5 K; N7 u
Format                                   : PGS
- S9 [( V: h4 K4 \6 c6 [Muxing mode                              : zlib) _) n% m6 A% _
Codec ID                                 : S_HDMV/PGS
* n$ A* n1 a! m5 \Codec ID/Info                            : Picture based subtitle format used on BDs/HD-DVDs
% Q$ g7 y6 S( u$ t* ~Duration                                 : 1 h 59 min0 P1 X. k4 [6 q) F4 d5 n
Bit rate                                 : 27.6 kb/s1 K; x% o; p3 Q" B" [' @
Count of elements                        : 2010
, p* ^, g1 z) SStream size                              : 23.5 MiB (0%)$ B* n7 z4 m; Z! P) L
Language                                 : German
0 ?% z9 T7 c* D- B* }Default                                  : No
/ R0 j+ ~1 E9 g' T- N3 o8 MForced                                   : No
4 K9 R7 Z$ D# v8 ?: N# W3 F# dOriginal source medium                   : Blu-ray
% l' |* X3 d7 ~1 I, z$ {* z8 Y: R8 c! T: s% I, v3 ^
Text #7# _5 l* i" s4 w  n. B
ID                                       : 141 t& Q$ [; x" L. G# k
ID in the original source medium         : 4613 (0x1205); Y$ Y, n  a: x
Format                                   : PGS  S, A$ s! e$ e; f# S+ p3 U
Muxing mode                              : zlib, n6 Q+ H/ M* h4 L
Codec ID                                 : S_HDMV/PGS. D- O2 w+ b- C0 N! K. d. ]+ p! S. ~* e
Codec ID/Info                            : Picture based subtitle format used on BDs/HD-DVDs; V3 E0 j2 `; H" L+ `( W, F: X8 I
Duration                                 : 1 h 50 min' G4 l; a7 l4 t3 F
Bit rate                                 : 661 b/s6 g/ I( {6 Y* e, C0 P5 e
Count of elements                        : 46
5 F2 G7 R" ]7 I9 w; O1 pStream size                              : 534 KiB (0%), T; w$ j# e4 T5 |6 y
Language                                 : German
( M+ ^8 \6 C" p. n( @Default                                  : No# w. m8 E. c6 a& b
Forced                                   : No
5 w+ ]  f& ]& m% E5 dOriginal source medium                   : Blu-ray
$ c% B1 L/ W' x0 i6 F0 ]
! V: Z* S% K" \: `" d9 d1 V: A$ FText #8
$ z6 f" F1 j# l% OID                                       : 15  R) \# V2 h* R0 z4 d! z
ID in the original source medium         : 4616 (0x1208)
. ?# [9 K; u: W  c) e& iFormat                                   : PGS7 j! U, q$ T  Z; Z. X* l
Muxing mode                              : zlib
) m. s3 C6 r# w# N% TCodec ID                                 : S_HDMV/PGS3 [; E8 b$ j. L8 a) h# e  |
Codec ID/Info                            : Picture based subtitle format used on BDs/HD-DVDs
$ P; g7 ~; E0 V1 N" l! j: b; mDuration                                 : 2 h 8 min
2 C! F& A  P  l& \4 r' g" m; OBit rate                                 : 43.5 kb/s
3 {: U$ m: b5 D* }Count of elements                        : 34004 o8 W+ ~0 ^- i* r' i
Stream size                              : 39.8 MiB (0%)
8 l0 A( I+ J9 MLanguage                                 : French
9 A& P- O/ z0 r/ Q4 WDefault                                  : No
$ r2 y2 p6 t0 \. u" @" Z8 ]3 yForced                                   : No
+ Z& Z* D9 }0 @( gOriginal source medium                   : Blu-ray% q3 X3 q( P" H3 _! x* F9 m
4 O, ^" u1 V' m2 u9 _. Y
Text #9
- X; U6 [3 q6 \ID                                       : 16
  u- z, \4 c# nID in the original source medium         : 4617 (0x1209)
$ [5 I: a/ R4 ~9 H! MFormat                                   : PGS
; T8 A; ?7 T6 sMuxing mode                              : zlib$ N9 Q& j/ _5 }4 b4 k2 Z2 W
Codec ID                                 : S_HDMV/PGS: r  D1 l$ p  W' L
Codec ID/Info                            : Picture based subtitle format used on BDs/HD-DVDs1 ]- Z+ ?3 O; L0 B: n0 R9 w7 Q
Duration                                 : 2 h 8 min) t$ }% W4 S$ g2 M# q5 D
Bit rate                                 : 46.5 kb/s9 Q# B+ v# h: a5 _2 L# f
Count of elements                        : 3840
; P$ ?! {' j3 v4 h. e& t7 _8 \- yStream size                              : 42.6 MiB (0%)8 s' L. m  W$ _2 C$ h+ |
Language                                 : French
7 `# D* P0 ]6 r$ W5 hDefault                                  : No
( |- s6 @2 A& w" J1 {Forced                                   : No& u9 O0 {5 w6 `% t& [8 k7 ?
Original source medium                   : Blu-ray
# \' ?9 }; X4 i' e$ A3 ]; b/ |4 B* M; ~! u
Menu2 _; H3 a* [& j5 A9 N
00:00:00.000                             : Chapter 01: W4 j# P7 E/ t/ |5 m9 k4 X8 Z
00:07:21.708                             : Chapter 026 \& D& r# }" t2 |
00:21:00.750                             : Chapter 033 o& @; v, ~: }4 _. J
00:32:17.875                             : Chapter 04
4 g& H0 h  \2 Q( C4 F1 c# m: O00:40:02.500                             : Chapter 050 E( Y) X; B5 \* R1 A" J
00:51:31.041                             : Chapter 064 P$ k: P$ s* J5 b$ {
01:02:05.125                             : Chapter 07
' I( L3 [1 b# k& }$ z01:08:07.208                             : Chapter 08
& Q% _$ S( C8 _0 g* n01:20:41.375                             : Chapter 09' s- k0 i6 d3 y$ P8 @
01:30:34.500                             : Chapter 10; \. T- I# w# n
01:46:00.500                             : Chapter 11/ k- [& r9 Q5 o
01:51:07.125                             : Chapter 12

' M9 V* Z) d1 B, F
游客,查看本帖隐藏内容请回复 | 加入VIP贵宾可免积分免回复 了解详情 | 还不是会员:点击获取邀请码 Invitation Code

31

主题

1667

帖子

9108

积分

Sponsor

金币
1284 枚
体力
4554 点
QQ
shiji1973 发表于 2021-6-27 18:30:24 | 显示全部楼层
感谢分享精彩电影

0

主题

13

帖子

184

积分

Sponsor

金币
123 枚
体力
33 点
kccylhh 发表于 2021-6-27 23:19:25 | 显示全部楼层
感谢分享精彩电影

76

主题

2994

帖子

1万

积分

Sponsor

金币
1440 枚
体力
4226 点
lanpanshuma 发表于 2021-6-28 05:17:24 | 显示全部楼层
看了LZ的帖子,我只想说一句很好很强大!""$ v" V! D+ n5 M. P! r, z5 n
Bluraycd.com movie updates really fast, also did not release issued, whether you believe it or not, anyway, I believed!

0

主题

100

帖子

637

积分

Sponsor

金币
72 枚
体力
320 点
zzk980220 发表于 2021-6-28 15:46:46 | 显示全部楼层
每天都来蓝光论坛看看,我爱蓝光电影。9 K9 n* ^* r% F9 b% |  D+ A
Blu-ray Film Forum: I will always support you!( s4 z) F. |5 _

0

主题

19

帖子

199

积分

Sponsor

金币
105 枚
体力
54 点
qiuleng 发表于 2021-7-1 20:42:56 | 显示全部楼层
zaikankankankankankankan

0

主题

406

帖子

1553

积分

Sponsor

金币
17 枚
体力
718 点
指环王170406 发表于 2021-7-3 09:46:18 | 显示全部楼层
这么好的帖子不回对不起自己!
+ E6 q( C3 r$ V' @' o- Wbluraycd forum, a lot of Blu-ray movies!
1 O0 i5 K( n" B3 A0 u$ Q

本版积分规则

小黑屋|Archiver|蓝光电影资源网

GMT+8, 2021-8-5 22:39

快速回复 返回顶部 返回列表