BluRayCD Forum

 找回密码
 立即注册【分享大片】
查看: 18|回复: 4
收起左侧

[蓝光原盘] 海绵宝宝3:营救大冒险 [REMUX无损版] The SpongeBob Movie Sponge on the Run 2020 1080p BluRaycd REMUX AVC DTS-HD MA 5.1-FGT 25.86GB

[复制链接]

8213

主题

8407

帖子

6万

积分

Forum Moderator

金币
11998 枚
体力
10677 点

卓越贡献勋章

24小时 发表于 2021-7-22 07:36:43 | 显示全部楼层 |阅读模式
After SpongeBob's beloved pet snail Gary is snail-napped, he and Patrick embark on an epic adventure to The Lost City of Atlantic City to bring Gary home." w8 i+ g0 `5 g+ |
  D7 r# x. n* C6 v/ a8 Z3 ]  @

1 q* l9 `: C9 l+ `3 b- ~5 `7 l( a0 g  _
◎译  名 海绵宝宝:营救大冒险/海绵宝宝:奔跑吧(台)/海绵宝宝:急急脚走佬(港)/海绵宝宝3$ m) v' p$ Q$ h7 U8 \
◎片  名 The SpongeBob Movie: Sponge on the Run / It's a Wonderful Sponge / Spongebob Movie 3 / SpongeBob Squarepants 3
2 h- a. @5 W/ X/ G/ n* A◎年  代 2020
. n8 i/ ]9 |2 E5 [' V+ D3 p◎产  地 美国/韩国/墨西哥/日本/西班牙
; z' p0 g# u, S; ~- z8 R◎类  别 喜剧/动画/冒险
; c7 \5 _" U5 C$ j* t# \◎语  言 英语/西班牙语/阿拉伯语# S9 G- S+ I$ |
◎上映日期 2020-11-06(中国大陆网络)/2020-08-14(加拿大)5 p! t9 H# Y! }9 R
◎IMDb评分  6.0/10 from 14,022 users5 x7 }  l3 W* h" T
◎IMDb链接  https://www.imdb.com/title/tt4823776/( z; a/ V) M# f( Z
◎豆瓣评分 6.2/10 from 8,905 users7 v  m2 c: G  w- O
◎豆瓣链接 https://movie.douban.com/subject/26662159/5 {6 q; ^8 t. ]6 J, m" c% B6 {
◎文件格式 x264 + DTS# _' B1 W. Q1 ?
◎视频尺寸 1920 x 1080
7 w9 [$ i# M& S+ f" ?1 p◎文件大小 1DVD 25.86 GiB5 ]3 W/ J( r4 c3 c) Q" t
◎片  长 1 h 31 min
( F! |* ~$ t$ \8 @# e! l◎导  演 蒂姆·希尔 Tim Hill2 k; k8 A- H: B1 F1 ~$ g
◎编  剧 蒂姆·希尔 Tim Hill
4 O( p: a# w* |* v' j! F* l       乔纳森·阿贝尔 Jonathan Aibel5 E# \* ^7 l' X, I7 Q& d$ p1 x
       格伦·伯杰 Glenn Berger1 [+ l5 A  F# F# d/ l: u
       史蒂芬·海伦伯格 Stephen Hillenburg. g8 _4 l6 {  F1 G; N3 w
       保罗·提比特 Paul Tibbitt
; P* I2 F2 U, z0 n) j# c◎主  演 基努·里维斯 Keanu Reeves
8 P6 W/ q9 m# a; k2 G5 w0 Q* ]# ?       奥卡菲娜 Awkwafina
6 V, R/ O! w  U$ ]       克兰西·布朗 Clancy Brown- G- J1 j! Q$ @1 V% D5 C; t3 m! g5 j
       汤姆·肯尼 Tom Kenny
  ?) \, _4 v7 I       比尔·法格巴克 Bill Fagerbakke
9 V* r, H% ]1 Y2 y; {       罗里·艾伦 Lori Alan& P/ T" ?% K8 c. V
       劳伦斯先生 Mr. Lawrence2 k7 n' z* F4 `. j$ E9 i
       玛丽·乔·卡特利特 Mary Jo Catlett& E! ~1 M0 a9 T5 B0 `# z  t8 _
       罗德格尔·邦帕斯 Rodger Bumpass/ b+ B+ m* O! K) V
       吉尔·塔利 Jill Talley, n* G$ k/ }% P" \1 R) E
       卡罗琳·劳伦斯 Carolyn Lawrence
: [5 \" j1 {3 N% z+ d- Y       维罗妮卡·阿利奇诺 Veronica Alicino+ }+ P$ w( f6 Y9 W% _* ?$ A

8 t- {) `& ^* T% P◎标  签 海绵宝宝 | 动画 | 喜剧 | 美国 | 2020 | 3D | 派拉蒙 | Nickelodeon
9 `) t; ^) c4 o2 Y1 }+ ?- E3 \) ~7 w6 X& {; C( @6 l! f
◎简  介   
& G6 Q  d8 o7 e& G) M
" p) ]8 B' t1 x: R8 R+ |* ~4 @  《海绵宝宝:营救大冒险》讲述了海绵宝宝心爱的宠物小蜗被绑架后,海绵宝宝和派大星前往失落的大西洋城展开营救冒险的故事。在这场充满危险又妙趣横生的营救行动中,海绵宝宝和他的朋友们用实际行动证明了友谊的力量无限大!
) L% \8 b) r' p" O* j( ~" {. o/ j0 b' Q; _$ A
  After SpongeBob's beloved pet snail Gary is snail-napped, he and Patrick embark on an epic adventure to The Lost City of Atlantic City to bring Gary home.( L2 N" D% l. h" t- w( F& A4 z

3 M- ?( b, p0 Q1 M9 Y) r1 \◎获奖情况   / o, G& J0 j, D& c9 v0 u$ G5 o
" X$ T# I8 _: m) |4 D1 k1 Q
  第19届美国视觉效果协会奖 (2021)" }! n2 r& B/ f* Z( G6 e; c
  最佳动画电影CG动画角色(提名)
8 c+ I6 Q" V$ K" y( o
" Q0 ~  L6 B% p
Video0 S8 Y& H9 q6 J2 t
ID                                       : 1
# ?! j& m; t7 c+ e# L0 eID in the original source medium         : 4113 (0x1011)0 ~$ z, w, }' R9 k1 ]3 r
Format                                   : AVC5 }$ M+ Z0 l, ^) w/ q
Format/Info                              : Advanced Video Codec
0 j, p1 Z$ ?. ?: {0 [Format profile                           : [email protected]% D# Z; I( o, l# Z' \
Format settings                          : CABAC / 4 Ref Frames
( J9 G1 I/ z# g! |! \3 GFormat settings, CABAC                   : Yes/ V, o' y& M: T, N9 j9 }, m* A
Format settings, Reference frames        : 4 frames' H) M8 \# [9 Q& d1 G7 |5 v5 e1 y
Codec ID                                 : V_MPEG4/ISO/AVC
$ D3 |+ b& W3 B2 O0 Q  VDuration                                 : 1 h 31 min
% O* n7 j9 Q- y3 {0 A( y8 F% Y. \Bit rate mode                            : Variable
5 |6 k* @+ \8 V% BBit rate                                 : 29.6 Mb/s
* c5 A6 f. ^* f5 J  u5 nMaximum bit rate                         : 32.1 Mb/s
/ e+ Y& L+ f  T6 l; Z6 IWidth                                    : 1 920 pixels$ d# M5 Z; {) C6 \, V. @
Height                                   : 1 080 pixels, J- S/ s) z- |
Display aspect ratio                     : 16:9
+ A3 U2 C: Q/ G4 w( e/ k: i0 RFrame rate mode                          : Constant4 G( Y0 q# J. t* R, M2 Z
Frame rate                               : 23.976 (24000/1001/189150) FPS
- t3 V+ M: f0 y/ E1 uColor space                              : YUV
# h" R; w: S- A$ d8 |Chroma subsampling                       : 4:2:05 H' f, n' I3 I1 \  t, ^0 B
Bit depth                                : 8 bits6 k. u  L! M9 G5 l, q/ ^
Scan type                                : Progressive
) {! k0 P, c" e% XBits/(Pixel*Frame)                       : 0.5964 l8 W7 C7 B; ^: p, x$ @2 w8 J
Stream size                              : 18.9 GiB (73%)
: s2 |; @% C3 C0 fTitle                                    : The.SpongeBob.Movie.Sponge.on.the.Run.2020.1080p.BluRayCD.REMUX.AVC.DTS-HD.MA.5.1-FGT
- e( O. G/ F7 d0 V) E4 ?* }Language                                 : English$ ~; B" O* d0 s( z
Default                                  : No4 W2 ~% V+ x" j9 P! A0 G
Forced                                   : No
3 i1 Q; }# Y2 d5 M' l, tOriginal source medium                   : Blu-ray
! C: s- w: p! M( i/ H/ A8 |7 ], I: K
Audio #1
) d9 |3 G! S9 s; ]: IID                                       : 2
; R3 ?4 m4 {9 o4 n; P& g1 W: M, iID in the original source medium         : 4352 (0x1100)
* _$ j# a. p3 Y2 H5 O/ S$ hFormat                                   : DTS XLL& i2 Z4 \+ t, U' }" n
Format/Info                              : Digital Theater Systems
5 `( e5 F8 ]& D" u7 y. i& s. ~Commercial name                          : DTS-HD Master Audio# |* n) z, B! A: d8 P' ]
Codec ID                                 : A_DTS" v3 I- Z0 L  o  C  H) A
Duration                                 : 1 h 31 min
5 S3 N: B8 h  |, e0 ?6 ZBit rate mode                            : Variable* ~, _9 v/ F) L, O; s
Bit rate                                 : 3 660 kb/s
. a5 Y* W! a3 W7 y/ LChannel(s)                               : 6 channels5 U9 k7 h1 R$ ~, C6 T8 y* d
Channel layout                           : C L R Ls Rs LFE( ~& `' l' s/ b
Sampling rate                            : 48.0 kHz7 _, H+ _3 X8 u1 s8 x% B
Frame rate                               : 93.750 FPS (512 SPF)
* t8 p: l! I5 V5 ]3 j: {# k  h. D$ YBit depth                                : 24 bits! }3 r( S( Q3 {* i- o2 k9 g5 C% l9 v
Compression mode                         : Lossless
% P5 i) u# U5 g4 D% ?1 IStream size                              : 2.34 GiB (9%)) F# C3 E4 Q7 \! E- w- w' j
Title                                    : The.SpongeBob.Movie.Sponge.on.the.Run.2020.1080p.BluRaycd.REMUX.AVC.DTS-HD.MA.5.1-FGT
! d! g% n) ~. ]2 lLanguage                                 : English
$ [- m, n5 e2 U  V/ oDefault                                  : Yes6 v+ Z8 a1 x- O  V. t4 E
Forced                                   : No/ a8 p% `5 O3 K- A7 c% T
Original source medium                   : Blu-ray
* a& ~  T/ ~3 |3 F: T
. H* S- Y* t: ?3 i5 I# p% AAudio #2! }# y+ P. W& J! N' s, [
ID                                       : 3, I/ A8 ^3 a/ J: z- X+ _
ID in the original source medium         : 4353 (0x1101)
0 t  ?6 j' ?$ T3 sFormat                                   : AC-3
' q- D) S, ^: X3 I9 aFormat/Info                              : Audio Coding 3
+ I2 I3 b( n7 lCommercial name                          : Dolby Digital
9 Y8 S* Y/ q. tCodec ID                                 : A_AC3
7 R, H: P  u% k" oDuration                                 : 1 h 31 min4 Z& b  J# X0 B- _7 ~) h" e
Bit rate mode                            : Constant
% M1 z# D. R5 I7 x6 Y0 G) g. iBit rate                                 : 640 kb/s4 K: Z( |6 E  \: ]& S
Channel(s)                               : 6 channels
' j/ ~* [' V3 `( ~4 A% FChannel layout                           : L R C LFE Ls Rs
* ^$ U1 [5 l& m- h0 i  qSampling rate                            : 48.0 kHz( `7 S5 f0 r2 L) T4 j2 u
Frame rate                               : 31.250 FPS (1536 SPF)
4 m" L  J+ o7 x6 b# c# ]Compression mode                         : Lossy$ O' Q* }( E4 x- s/ K( f6 p! @
Stream size                              : 419 MiB (2%)
6 c3 q( M8 a, ?Title                                    : The.SpongeBob.Movie.Sponge.on.the.Run.2020.1080p.BluRaycd.REMUX.AVC.DTS-HD.MA.5.1-FGT
$ j) ^& j/ b" e6 XLanguage                                 : English
9 |3 N' Q9 v4 u: n' X! |; AService kind                             : Complete Main; Z1 l8 k8 H6 F4 n% {
Default                                  : No1 ~6 q6 p0 w* q
Forced                                   : No% t  ]4 {+ y& O$ {9 J
Original source medium                   : Blu-ray/ |$ C$ g3 l  P3 Y8 ]$ T

& r8 f1 [" [3 P: \) |Audio #3/ b; h9 D+ b- |
ID                                       : 4# U2 ?: o/ f+ K* Z6 S0 O. k
ID in the original source medium         : 4354 (0x1102). }# v2 ~9 g* A4 E+ S
Format                                   : AC-37 D) v! F4 c" ?! h" s
Format/Info                              : Audio Coding 3
: b4 x$ x4 T$ o6 @8 a4 hCommercial name                          : Dolby Digital
% k0 |) X- Z& nCodec ID                                 : A_AC3. b& a4 J7 D1 j( K" A% Y
Duration                                 : 1 h 31 min
9 m# S2 }( O( Y0 bBit rate mode                            : Constant# L9 N2 C, @, J9 s. X# a* \( u8 U
Bit rate                                 : 640 kb/s  a  w6 N2 G" Z' k4 b( }
Channel(s)                               : 6 channels
0 o) M% Q$ b% T9 [% P$ X  f8 A* nChannel layout                           : L R C LFE Ls Rs, u& ?! f( ]6 H2 [& f: @
Sampling rate                            : 48.0 kHz
) B" G' e* t: Z/ b5 _. ^; }Frame rate                               : 31.250 FPS (1536 SPF)
3 D" F6 m+ X% F8 ~* ]8 J0 UCompression mode                         : Lossy
, ~* o, u5 J$ _2 _8 KStream size                              : 419 MiB (2%); I2 V$ R& S: Q- P& @+ d* s; O, D
Title                                    : The.SpongeBob.Movie.Sponge.on.the.Run.2020.1080p.BluRaycd.REMUX.AVC.DTS-HD.MA.5.1-FGT
2 v, \- S$ a8 d( RLanguage                                 : Danish
/ P6 o$ S' @8 j" d. a; IService kind                             : Complete Main" Q( u. W/ n  x# _. ^9 M
Default                                  : No
6 [) h+ G% _: G: WForced                                   : No
' C5 a0 w! B  S% N5 mOriginal source medium                   : Blu-ray( j$ w+ p6 z, W6 b7 r4 y& O

5 v5 Z& `* H" G1 j0 jAudio #4
3 R5 e$ \# G1 S8 a. i1 ?+ MID                                       : 50 s. I; L2 b* z0 R
ID in the original source medium         : 4355 (0x1103)
% Y8 }* ^$ E  |( X) uFormat                                   : AC-30 s: z+ E/ o# Q3 l3 a& s
Format/Info                              : Audio Coding 30 r7 u" E/ }% v
Commercial name                          : Dolby Digital/ C- y0 R: }/ f+ s/ v' u# S: [
Codec ID                                 : A_AC3
* i# A& }, j5 `) ZDuration                                 : 1 h 31 min" i# F" [/ s* v6 w/ C# b
Bit rate mode                            : Constant
5 k# @/ C  b1 W7 b& }/ R' A- i% TBit rate                                 : 640 kb/s! |8 I4 n9 Q% r2 v1 d
Channel(s)                               : 6 channels% _+ o) X8 R. ?7 C% Y  v
Channel layout                           : L R C LFE Ls Rs" X. c( f3 J; f8 [' A
Sampling rate                            : 48.0 kHz  k/ V5 _: P/ ], i; _
Frame rate                               : 31.250 FPS (1536 SPF)" M: z  _" d# x3 p
Compression mode                         : Lossy$ p, A4 W$ b6 I) W% I
Stream size                              : 419 MiB (2%), c1 |6 `6 H3 W0 P  n3 |
Title                                    : The.SpongeBob.Movie.Sponge.on.the.Run.2020.1080p.BluRaycd.REMUX.AVC.DTS-HD.MA.5.1-FGT
4 a7 ?$ O8 x* M5 n  {. h% yLanguage                                 : German
1 D3 J2 B! o' l/ J1 LService kind                             : Complete Main  l. R% F, y. l$ V
Default                                  : No
) ]9 ~% N3 M& l- K# d& ^5 F  gForced                                   : No
3 x4 R8 p( q/ X3 ~2 SOriginal source medium                   : Blu-ray
# s% n6 E3 X. z1 h9 q
: A4 e9 i8 {/ Y' Y1 _Audio #5$ l# F+ W1 e' S2 ^/ q' i+ d
ID                                       : 6
* @0 Z* k3 @+ X3 K3 ]  ~! aID in the original source medium         : 4356 (0x1104)2 j4 J+ L, S/ U4 d' \
Format                                   : AC-3
( D! \! K+ j' m/ rFormat/Info                              : Audio Coding 3! c; e0 i' Q( T# g
Commercial name                          : Dolby Digital! D5 s% L) b% _
Codec ID                                 : A_AC3
4 g; K0 c- o. X- zDuration                                 : 1 h 31 min
& {- d& n4 q/ g6 I) ?8 q6 E) [9 V9 C, `Bit rate mode                            : Constant7 S! Z/ y( `) t: l4 v
Bit rate                                 : 640 kb/s
# m8 R6 O( }1 \2 R7 N" rChannel(s)                               : 6 channels+ {4 \' I1 ]4 Y- M1 E/ T
Channel layout                           : L R C LFE Ls Rs' r3 ]1 G. ~! Y+ C7 _% ^
Sampling rate                            : 48.0 kHz" Z( Y, X4 n. e  }% t3 E
Frame rate                               : 31.250 FPS (1536 SPF)
( T+ \7 P$ M" C. a8 mCompression mode                         : Lossy9 X2 ]' o. w+ y0 w4 e
Stream size                              : 419 MiB (2%)/ s% W, Y+ O6 T/ u# `( D& w5 L
Title                                    : The.SpongeBob.Movie.Sponge.on.the.Run.2020.1080p.BluRaycd.REMUX.AVC.DTS-HD.MA.5.1-FGT: T6 M, Y$ D- |/ n9 x. ~
Language                                 : Spanish) B3 A% _% W; \) T
Service kind                             : Complete Main  g+ }) z9 I+ {( V; m9 q
Default                                  : No
/ l  f1 [6 g/ z. nForced                                   : No+ i8 ?! w+ x6 x- [5 {. M  t
Original source medium                   : Blu-ray
0 X) @& e9 C5 R( i( k; m/ J- Y! b
9 {8 y+ i1 ?" @+ mAudio #6+ b9 d2 d: u0 f7 o% T5 t
ID                                       : 7; M# [  [5 y0 y3 l. W8 k. h
ID in the original source medium         : 4357 (0x1105)
2 R& P$ c( r; f6 j4 \- G& \Format                                   : AC-30 k+ D# o: v. N" R! s( J: a* I6 V
Format/Info                              : Audio Coding 3) |2 F/ z6 l- o3 H3 W
Commercial name                          : Dolby Digital# Y1 l# g3 q  A1 Q. z. _
Codec ID                                 : A_AC3- y- ~0 Y$ e& f: e  u
Duration                                 : 1 h 31 min( U& R$ m5 M. E4 Y# B$ r% n4 `  i
Bit rate mode                            : Constant
! f/ Y: }! u( r1 c6 QBit rate                                 : 640 kb/s$ I& g- t) M/ F* ]7 S/ {
Channel(s)                               : 6 channels( [$ g+ T9 R# ^& n0 ]
Channel layout                           : L R C LFE Ls Rs
- ]! {! Q  P+ B( d  `$ Q; k# sSampling rate                            : 48.0 kHz
7 b( B1 U8 z% |Frame rate                               : 31.250 FPS (1536 SPF)% ]+ r9 n' S. A+ X6 F( B5 Q
Compression mode                         : Lossy* r3 Z2 U$ z( _0 m1 m# \; q
Stream size                              : 419 MiB (2%)
! v; D: A8 V7 `. m5 U' uTitle                                    : The.SpongeBob.Movie.Sponge.on.the.Run.2020.1080p.BluRaycd.REMUX.AVC.DTS-HD.MA.5.1-FGT
) i' A7 G$ s# _+ g- t6 V* d& ~Language                                 : Spanish
9 m  N0 H1 ~- y7 f1 k+ d# ^2 q1 IService kind                             : Complete Main
/ H" R* D& L0 }+ W. n5 \  ]Default                                  : No
. }# u8 u% _$ E  Y2 v  ZForced                                   : No$ w5 F: K( I4 u  h# W, r
Original source medium                   : Blu-ray
% M0 A1 ?0 C0 C
5 Z% o/ d' d' E( nAudio #74 B4 m6 f5 U! i: P
ID                                       : 85 b" A( B" x2 p
ID in the original source medium         : 4358 (0x1106)* U  Z9 M1 k' H2 T
Format                                   : AC-3" k/ u6 _3 h. {2 d5 E! x# u
Format/Info                              : Audio Coding 3
0 A3 e/ f1 _3 Q8 mCommercial name                          : Dolby Digital
; W  V) w. J2 M9 ACodec ID                                 : A_AC30 U# Z7 |$ c, e, b5 d: y
Duration                                 : 1 h 31 min
$ a3 d$ A. E, z, n9 y1 _Bit rate mode                            : Constant
; U& X6 V( A7 S5 t6 D- c. Y" Y( zBit rate                                 : 640 kb/s: i8 X1 `# j+ q! H( q9 g) ~) l
Channel(s)                               : 6 channels
8 V! a( O6 m6 nChannel layout                           : L R C LFE Ls Rs
5 r5 P3 v# X: OSampling rate                            : 48.0 kHz% |. O  m2 y1 j/ F% V0 S% _
Frame rate                               : 31.250 FPS (1536 SPF)
; d! Q/ c, V$ ~" YCompression mode                         : Lossy5 Z! l# G& K) e
Stream size                              : 419 MiB (2%)
) O  k2 M  N, }) ~Title                                    : The.SpongeBob.Movie.Sponge.on.the.Run.2020.1080p.BluRaycd.REMUX.AVC.DTS-HD.MA.5.1-FGT# a$ ?, M9 Q/ Z' Y/ y# Z
Language                                 : French. b" c2 M4 `0 N6 E4 f
Service kind                             : Complete Main0 C" A" }, a5 O2 e* h8 i  Q1 P; D
Default                                  : No" E; w- {" J: Q1 b% Z
Forced                                   : No. U2 _) o" w& y. e
Original source medium                   : Blu-ray
5 A% c9 T4 c* s" X3 x! a0 L2 C3 _, Q4 Q& ^4 O1 B
Audio #8
, M' ^0 Y9 Z4 E" c; gID                                       : 9
" @) B  s( e* b  z7 XID in the original source medium         : 4359 (0x1107): f+ P- P8 t6 n  C% F- H
Format                                   : AC-36 C# U6 ^1 H. C( K
Format/Info                              : Audio Coding 3
6 W4 {$ X) u5 H4 _% ACommercial name                          : Dolby Digital5 Q$ _% O2 E/ B
Codec ID                                 : A_AC38 p# J- ~; i' o2 [
Duration                                 : 1 h 31 min) _/ Q" w' X  U# k- M8 k' G
Bit rate mode                            : Constant
4 B+ e! S: ^9 xBit rate                                 : 640 kb/s" V) V( Z. }0 y0 x
Channel(s)                               : 6 channels
5 H# N: Z. F" gChannel layout                           : L R C LFE Ls Rs4 K# z' ^& C2 b
Sampling rate                            : 48.0 kHz
& ~3 p% C# R3 f# U4 f0 HFrame rate                               : 31.250 FPS (1536 SPF)
  y' ?. Q& C' j$ K3 b% K0 j; o6 aCompression mode                         : Lossy
$ L5 y. d1 k3 N3 J$ ]Stream size                              : 419 MiB (2%)
; ?7 K( F+ l5 H) I0 KTitle                                    : The.SpongeBob.Movie.Sponge.on.the.Run.2020.1080p.BluRaycd.REMUX.AVC.DTS-HD.MA.5.1-FGT: S/ y+ f% b% J& E0 V" h
Language                                 : Italian  r3 `5 s# _' E7 D
Service kind                             : Complete Main! }% P$ _, s/ O; K
Default                                  : No
8 ~' Q" n. c5 W- U! DForced                                   : No
0 \# n4 h6 j5 K/ q3 gOriginal source medium                   : Blu-ray
  V/ `5 a; Q% c$ c
; ~/ N% u: }' T6 R. CAudio #9: [7 D& C  Y% s' b# P# R
ID                                       : 10
6 [! S7 X$ v* |/ i% F* HID in the original source medium         : 4360 (0x1108)
2 Y; N3 Y, ?/ G  M0 ?Format                                   : AC-37 w2 R+ q0 _3 Z- Y
Format/Info                              : Audio Coding 3; L5 V: h! r) [7 A8 j9 ]
Commercial name                          : Dolby Digital
* l* L7 X' F; P+ i. ^! bCodec ID                                 : A_AC3. X, }" `# B8 x( ?* |* w
Duration                                 : 1 h 31 min" }" K  o" a3 v
Bit rate mode                            : Constant
, |; O* P$ z4 zBit rate                                 : 640 kb/s( J, K. n8 ~2 A& H4 w
Channel(s)                               : 6 channels3 h. J! ?" S3 _8 _& k' c+ n! C
Channel layout                           : L R C LFE Ls Rs; ^9 |& l# X  m9 q+ b
Sampling rate                            : 48.0 kHz$ r! A% g8 _" k! G3 z
Frame rate                               : 31.250 FPS (1536 SPF)3 K2 @2 D& d  O) y0 y7 Q1 x
Compression mode                         : Lossy
6 y. s' j: A. `/ w. f$ W$ nStream size                              : 419 MiB (2%)
( b6 a  X  b9 y! m' q7 O3 pTitle                                    : The.SpongeBob.Movie.Sponge.on.the.Run.2020.1080p.BluRaycd.REMUX.AVC.DTS-HD.MA.5.1-FGT* b+ G- P# t8 ?; x8 ]  _
Language                                 : Japanese; K7 M) V5 m( w: F& h" U
Service kind                             : Complete Main
6 T6 ~. V0 o, o1 TDefault                                  : No
: s& M9 b; l$ u, {Forced                                   : No
/ \+ n5 e$ Q5 A8 iOriginal source medium                   : Blu-ray4 B! N0 m( i4 K# L

( S, N& V0 K# R0 p0 EAudio #103 J( [# c7 U' z, K: f: A& q& [
ID                                       : 11
) ~% v7 o( P: u5 D) VID in the original source medium         : 4361 (0x1109)
0 l) D- J% Q0 B0 sFormat                                   : AC-3! x* G  [3 W$ ?3 k) B3 l
Format/Info                              : Audio Coding 33 j  ]3 d! A2 r0 |, E1 F
Commercial name                          : Dolby Digital. `) X; h8 U/ D. r# C6 Y
Codec ID                                 : A_AC3) ~* j- f+ e) j$ P/ M
Duration                                 : 1 h 31 min% U3 M0 f. n0 Q6 D6 ?! b2 p
Bit rate mode                            : Constant* i# p* ]  W8 Z! i
Bit rate                                 : 640 kb/s# J: O6 L- I+ |3 B" u
Channel(s)                               : 6 channels
$ K0 E6 o$ H) U; s) k- w" YChannel layout                           : L R C LFE Ls Rs
) _3 N& N% {; x. C/ `% CSampling rate                            : 48.0 kHz
8 G" ~# _  V" m8 o4 ]+ p9 ?  i' F# kFrame rate                               : 31.250 FPS (1536 SPF)
  @# J/ p, X; k5 i2 s! dCompression mode                         : Lossy
1 \4 Y; G$ U0 s4 o# r$ }" QStream size                              : 419 MiB (2%)
# u- Y8 T% G4 H! z  cTitle                                    : The.SpongeBob.Movie.Sponge.on.the.Run.2020.1080p.BluRaycd.REMUX.AVC.DTS-HD.MA.5.1-FGT8 i: b* d. a( G: P( z( x
Language                                 : Norwegian
) b6 k  k: B, ^7 J9 g4 nService kind                             : Complete Main  x* `0 I& `4 d1 ~
Default                                  : No9 I4 I: U5 e$ e( M+ ~. ?% H
Forced                                   : No
7 Y- w: Y& _* g" }8 jOriginal source medium                   : Blu-ray* M4 r5 ^* ~& n; G6 x8 E$ e
( N& ~8 c" c/ B) M4 s6 w$ P
Audio #115 j* Q  ^) e8 c
ID                                       : 12% r" y2 J7 Z$ _9 c, M
ID in the original source medium         : 4362 (0x110A)
* \; ?) W9 E8 N. jFormat                                   : AC-3
3 K: p/ V: t) z6 f" C1 c5 ^Format/Info                              : Audio Coding 3# D/ u4 x4 e9 B( z5 I
Commercial name                          : Dolby Digital" F+ P" z5 D: V" ^/ ^5 B
Codec ID                                 : A_AC3
/ R8 b2 \4 F. G, S  r0 TDuration                                 : 1 h 31 min4 o$ f, [; P8 a  V2 x
Bit rate mode                            : Constant+ D) r! x2 r1 ~/ Q# }$ w
Bit rate                                 : 640 kb/s
1 x  H. Z' ~) C1 O4 A7 Q9 ]# LChannel(s)                               : 6 channels
% j  j4 J) ~6 IChannel layout                           : L R C LFE Ls Rs+ \+ Y" i- n. d6 F: e4 X
Sampling rate                            : 48.0 kHz
, c1 g5 ~( ]3 I3 z; M- }  V6 T9 ?Frame rate                               : 31.250 FPS (1536 SPF)
) j: y2 C2 f5 ~5 |9 C/ VCompression mode                         : Lossy- m8 C; _; E1 ^" e- l8 \
Stream size                              : 419 MiB (2%)
- L0 y+ u) ?' R6 fTitle                                    : The.SpongeBob.Movie.Sponge.on.the.Run.2020.1080p.BluRaycd.REMUX.AVC.DTS-HD.MA.5.1-FGT, r# Y8 a% t1 `2 k' @- C6 Y$ P) H
Language                                 : Finnish# f0 n& m+ J7 i
Service kind                             : Complete Main( H: |- d& v% Q4 k$ {; R8 v0 u: t
Default                                  : No, f% q) z. C8 v1 p' h) r
Forced                                   : No
! H% J! g/ w7 y* I! N' FOriginal source medium                   : Blu-ray
" p% x) n" i+ I6 H2 ?
) h$ j% v) X$ I0 b# ^6 uAudio #124 {7 [: C; ^3 m6 k- z) F
ID                                       : 13- U- h! {, Z0 e( N7 t
ID in the original source medium         : 4363 (0x110B)
$ o$ R* @8 g/ I3 P6 X' }0 n- qFormat                                   : AC-3' T$ x+ a3 Y7 p( D+ S8 g
Format/Info                              : Audio Coding 3& P- e) I& P) J& j7 X3 b
Commercial name                          : Dolby Digital! E% Y: D% j0 i% w) s
Codec ID                                 : A_AC3. }3 f5 W) n4 {+ U1 r
Duration                                 : 1 h 31 min
$ e' h0 g5 a8 F6 dBit rate mode                            : Constant
1 `" m' h! j2 }3 @  [Bit rate                                 : 640 kb/s2 M, t( M' J* R3 I- L3 J1 Q7 F
Channel(s)                               : 6 channels% Z+ I3 H$ L+ n/ o$ f* k) t
Channel layout                           : L R C LFE Ls Rs
8 E: N  v4 p& G# JSampling rate                            : 48.0 kHz8 v5 A& W, U- T6 s
Frame rate                               : 31.250 FPS (1536 SPF)
% h! F. _" V1 N8 M; qCompression mode                         : Lossy  b; L3 ], u0 G& z% R
Stream size                              : 419 MiB (2%)- U- Q* `! ?& n0 j
Title                                    : The.SpongeBob.Movie.Sponge.on.the.Run.2020.1080p.BluRaycd.REMUX.AVC.DTS-HD.MA.5.1-FGT
2 ]4 j8 t4 F/ a- vLanguage                                 : Swedish
1 @. Z* z8 Y& m6 IService kind                             : Complete Main( r  i- V' C$ c) }5 }1 `1 K
Default                                  : No" E+ L4 v4 H+ S$ v0 C
Forced                                   : No! O% t3 s6 n# _) E6 Z2 g
Original source medium                   : Blu-ray
+ z) H  S4 e" g' d6 C- k. i' a! Q
Text #12 O6 m' _" e3 {$ v
ID                                       : 14
! a; G5 C& ]+ ^% ^1 s: C$ wFormat                                   : UTF-8
( S( {- d* R4 E* z+ ECodec ID                                 : S_TEXT/UTF8
0 `6 j+ o9 k* w' UCodec ID/Info                            : UTF-8 Plain Text
8 U& p+ N" U5 r3 q! y, m* fDuration                                 : 1 h 22 min0 O( s$ D0 e6 q/ b. S# x! m7 }
Bit rate                                 : 64 b/s
0 t7 t0 R" A) {# _* Y2 _Count of elements                        : 12933 Z- M4 g# T$ u2 g+ f
Stream size                              : 38.7 KiB (0%)
1 a! x2 \. u/ C  ?  n9 ZTitle                                    : SRT" S6 b6 T' f3 `/ K5 O2 Z! j6 T% V
Language                                 : English5 P9 }$ k$ x' n
Default                                  : Yes
3 x  h/ L# O+ G5 U2 f$ b, B, q' N* fForced                                   : No
2 B' A0 O% H9 Z2 [; f
. N& m" l. Z+ p) ~% k/ ]. u! pText #2
: U4 ^+ x# l: K( {ID                                       : 15' U& x( m9 f8 K' F5 ~3 |* ]
ID in the original source medium         : 4608 (0x1200)
/ e# E9 p0 U# tFormat                                   : PGS
. o+ b- `0 }+ TMuxing mode                              : zlib5 B# M% e5 }  U
Codec ID                                 : S_HDMV/PGS) v0 K) m" j+ E  D" w& b
Codec ID/Info                            : Picture based subtitle format used on BDs/HD-DVDs8 z& R0 m9 ~8 d2 T( D+ S/ J
Duration                                 : 1 h 22 min
" H( y; i& A( x0 _Bit rate                                 : 41.8 kb/s
' S- c* p1 E! y! J0 @$ X) FCount of elements                        : 2598
. R. c; b+ C$ I( ~Stream size                              : 24.5 MiB (0%)) y5 T' p( g3 ?1 `/ \1 a# I
Language                                 : English  f# Z. T  W& i0 q% {+ w
Default                                  : No9 B& K. w* n' y, Q0 ]$ \
Forced                                   : No' P; M% t- W: w
Original source medium                   : Blu-ray
$ ~: [3 y( i- v& I2 f5 b3 c: V. A
Text #3, a4 M3 F* w9 E$ G- |3 b! }
ID                                       : 16
4 f7 l% n# n. L- z+ ?ID in the original source medium         : 4609 (0x1201)8 w  F6 N2 V% r. N
Format                                   : PGS
# S6 i( i5 `# v3 vMuxing mode                              : zlib  S2 _, A" L3 v9 B7 {. r3 b+ ?
Codec ID                                 : S_HDMV/PGS
$ @/ _( O, O4 [Codec ID/Info                            : Picture based subtitle format used on BDs/HD-DVDs  B1 d- I3 [4 h8 ?; P
Duration                                 : 1 h 29 min
) `4 E, b+ q) P; d+ _Bit rate                                 : 48.0 kb/s
# z3 ^0 O4 Y" U# P  X, y1 ?Count of elements                        : 3318& m1 v3 c5 M& ]6 B2 d( P* q+ |
Stream size                              : 30.8 MiB (0%)% y1 Q, j* W/ `6 g/ b
Language                                 : English
) \3 ?8 P# d  }/ K1 c  \2 c5 V9 v/ }Default                                  : No
  M- R: h  ?$ E" FForced                                   : No
- X5 X0 k# e+ r7 p! Z& ROriginal source medium                   : Blu-ray
. Y, N" J) q& |% e. o% N: o& O: M* n' u8 b
Text #4
! d, Z5 t/ j" |) W2 vID                                       : 17: |$ H" |$ i' h
ID in the original source medium         : 4610 (0x1202)
3 h, a& r9 |& hFormat                                   : PGS2 \. |% j& J/ t* W5 a4 q' B
Muxing mode                              : zlib
  u$ o  n0 n  BCodec ID                                 : S_HDMV/PGS: \" T' P6 W# x; p) g8 R
Codec ID/Info                            : Picture based subtitle format used on BDs/HD-DVDs2 _  K2 Q1 E  _# ]- O; G4 j
Duration                                 : 1 h 31 min' A! X* A( U( A  i2 T) }/ Z( @
Bit rate                                 : 31.1 kb/s
% ?& r" Z8 W0 r* [Count of elements                        : 2602( {. i  O+ t- C: t- f1 }
Stream size                              : 20.3 MiB (0%)
5 w& r& |7 s1 c  e- M- \1 ?& @Language                                 : Danish
* Q) P9 S) m1 l5 x4 Y* U; ODefault                                  : No% M8 y# o0 L9 S! D
Forced                                   : No$ R+ ^& {, S1 s  w, {
Original source medium                   : Blu-ray
: L2 X5 V/ [3 [' z$ y  f, U
; }* E& Q8 G4 X3 ^- G5 l0 FText #5! o# O' f0 D$ K' l* c
ID                                       : 18! ?$ t9 c. {% X' G  |( g/ ~
ID in the original source medium         : 4611 (0x1203)
) T6 o; p; h4 A$ ]! kFormat                                   : PGS
* |; ?# L! v8 C8 mMuxing mode                              : zlib
5 p$ j! A9 i0 d! ]+ sCodec ID                                 : S_HDMV/PGS
/ j% s) M4 |/ x% F2 Z7 r1 aCodec ID/Info                            : Picture based subtitle format used on BDs/HD-DVDs& S) t5 B" S  Q2 P: W
Duration                                 : 1 h 31 min. M+ P2 i9 e2 s. [, d# f  i3 c
Bit rate                                 : 38.6 kb/s
- ^; Q! L6 D6 v$ A8 \, V" Y+ `Count of elements                        : 26200 o/ c6 ?. T# b- W
Stream size                              : 25.1 MiB (0%)
" w  a/ K5 l- cLanguage                                 : German
1 N- p6 A+ m. O* r$ HDefault                                  : No# {* H1 S- x  L& t3 W
Forced                                   : No
) ^$ Y+ d( K: t3 R; M1 y7 @Original source medium                   : Blu-ray* |3 a9 [& W' l5 U% G( [( Q
( r( {, ]( A( V3 ~, X
Text #65 w  Y# l) s5 L7 Y, y) v
ID                                       : 19$ t  v$ o. ?- y, k+ E7 ]
ID in the original source medium         : 4612 (0x1204)6 b1 ^" L% H  Q; p6 r6 F2 b
Format                                   : PGS5 o/ w4 {/ w, m+ d! B& P
Muxing mode                              : zlib
6 }- o* [, @, v0 R, j3 }) O* sCodec ID                                 : S_HDMV/PGS
% `) e  O& d- [" T7 QCodec ID/Info                            : Picture based subtitle format used on BDs/HD-DVDs
3 k, X, }7 `! B9 jDuration                                 : 1 h 31 min
: g7 I$ A& ~( W1 B( {6 o0 W) k' v' ]Bit rate                                 : 37.0 kb/s* }, X, g0 `3 I3 q: g9 h
Count of elements                        : 2660
$ R* Y1 h! K' Z! j1 ZStream size                              : 24.1 MiB (0%)
; z  Y! L" x: x. tLanguage                                 : Spanish5 l/ l3 @" O" S  c
Default                                  : No
# y; A6 k) u% l4 s/ r% U& fForced                                   : No
4 C9 q0 b: A* x, \& f9 E- H2 E& tOriginal source medium                   : Blu-ray
$ R( M$ L( a; _( R9 s/ U* \) O0 d4 _( _( P: Y+ `
Text #7  r7 [; E& t0 w) z. p& i
ID                                       : 20
* l6 O3 \! o: G' NID in the original source medium         : 4613 (0x1205)% J; d1 i% G- f) H  N+ c6 T
Format                                   : PGS
* U; e7 _2 G$ v) K, o/ aMuxing mode                              : zlib! L- X2 F9 D, M4 E* i
Codec ID                                 : S_HDMV/PGS/ b( ^  O2 z, w/ s8 b% v$ ?) a
Codec ID/Info                            : Picture based subtitle format used on BDs/HD-DVDs
( s/ e/ t; Z/ ]5 ?: s+ G. t" SDuration                                 : 1 h 31 min
2 v$ i& }5 O5 P( @Bit rate                                 : 37.1 kb/s
8 Q9 q$ f+ x( a7 ^) y' }Count of elements                        : 24681 e+ ?4 I4 B0 O& p. F' t0 E
Stream size                              : 24.1 MiB (0%)
7 C; Y. \8 R: H' pLanguage                                 : Spanish) t+ z1 s3 H4 D+ r7 I) X$ x
Default                                  : No
) h5 z. G2 ?# I* H1 OForced                                   : No" ^+ J- W( T8 [; D
Original source medium                   : Blu-ray
1 _6 L& r. o) R4 E: ^# I% j0 V, I. R2 p& j  X
Text #8
( L! t% @0 G0 w0 d& g5 o: BID                                       : 21* M1 i( v! v# {7 A; B
ID in the original source medium         : 4614 (0x1206)' R& ~. B7 \7 T, `8 {5 I% V3 w- a
Format                                   : PGS& O) o) h3 `4 p
Muxing mode                              : zlib6 b+ j/ K* W  M# ~) {4 B6 R6 l
Codec ID                                 : S_HDMV/PGS
- Z- i3 e- t- S; X  ]7 Q  \Codec ID/Info                            : Picture based subtitle format used on BDs/HD-DVDs" r& W+ s( g6 t* t5 T% s
Duration                                 : 1 h 31 min
3 P3 m, p5 M4 O  P2 ^2 h9 s+ Y5 bBit rate                                 : 31.7 kb/s( e" x) y$ \; y8 V3 Y2 H/ |( p
Count of elements                        : 2744
* B! V+ w& o# ^  T8 t7 B1 NStream size                              : 20.6 MiB (0%)9 X8 `- `4 _8 o/ @
Language                                 : French; B+ K- I( f8 t+ g9 j6 q
Default                                  : No. d! e! _2 N/ B3 W) m2 J
Forced                                   : No
: o, T9 k! k) w! x: GOriginal source medium                   : Blu-ray' u3 ?0 r' m  ~2 Z5 a

+ Y3 j& p$ E3 l* oText #99 j: Y: A/ J0 h% K, z- T
ID                                       : 22
% E) x( ~& [" Z  ]ID in the original source medium         : 4615 (0x1207)
- c0 x( O  y  ]Format                                   : PGS
; A) h4 {8 B6 A% }+ X1 AMuxing mode                              : zlib
$ \0 }% c+ m+ `* K6 p2 KCodec ID                                 : S_HDMV/PGS
& g) L, _0 ]+ i# H( iCodec ID/Info                            : Picture based subtitle format used on BDs/HD-DVDs
0 z6 R1 T8 Z- p% c' Y; oDuration                                 : 1 h 31 min' ]6 U/ A3 ^  q$ k8 l+ d3 S( ^- k
Bit rate                                 : 38.1 kb/s. u+ Z3 t0 c! F9 \& O$ v" }
Count of elements                        : 2474
. E  U( t7 H8 x5 eStream size                              : 24.8 MiB (0%)
! X! e6 g6 ?3 o2 |* uLanguage                                 : Italian
: f2 h  }9 Y. k# z6 ~Default                                  : No' n9 }; \4 e* V8 I. u! M
Forced                                   : No5 i6 D2 l3 w7 i/ A$ O0 h
Original source medium                   : Blu-ray7 v; m) O) ~. ~- B

9 g; i5 w0 W2 |6 E2 q( W# [3 y8 b0 `, wText #10
0 ]/ M6 X) s0 |7 v$ [! CID                                       : 23
, k% O& k6 P' H3 S1 ZID in the original source medium         : 4616 (0x1208)* [, x. }7 F: p
Format                                   : PGS
* U4 L* A, l+ h( [6 q8 IMuxing mode                              : zlib$ I, r5 O) q8 S
Codec ID                                 : S_HDMV/PGS
. F, \% c8 }( iCodec ID/Info                            : Picture based subtitle format used on BDs/HD-DVDs3 m" n" e0 U# I( e% L
Duration                                 : 1 h 22 min
% L, {$ w# _  U: i, {Bit rate                                 : 33.1 kb/s
- T& s% ^5 t3 y- Z3 {0 VCount of elements                        : 2770' l" y) \( d: V1 L
Stream size                              : 19.6 MiB (0%)
( f! ~: \, ?+ ]Language                                 : Japanese& t5 }% E( }0 j! u$ K1 W$ x/ ^2 T( \
Default                                  : No
! F, k0 w) |4 ~* |Forced                                   : No
) i, M2 ?" W6 C3 ?5 b% s6 }, ?Original source medium                   : Blu-ray' }$ r6 v& k( b

  ]$ }4 h) s* p& e, KText #11  ~. A7 q4 I, A( v
ID                                       : 241 v2 @( W- S! X! `! B+ W
ID in the original source medium         : 4617 (0x1209)
$ L3 S, [1 b% x+ G1 HFormat                                   : PGS
3 @2 p3 p2 [- ?% jMuxing mode                              : zlib
' [: f1 D& Q; w% JCodec ID                                 : S_HDMV/PGS, P3 v" z7 D) O% ]( `
Codec ID/Info                            : Picture based subtitle format used on BDs/HD-DVDs
9 v# ^6 ~& b) E& z+ p" C2 ~Duration                                 : 1 h 31 min
* f: j3 p% r: }  ^1 H; \. O! O+ d; M# FBit rate                                 : 36.1 kb/s
0 |# g2 j" B! u/ n" C' X! H0 N  _Count of elements                        : 2662
& h* ?0 U/ [9 ?0 p2 {Stream size                              : 23.5 MiB (0%)
3 E; M* P1 C; j' a$ E' M- dLanguage                                 : Norwegian% [9 z' ?2 C6 l+ @9 T5 U: `$ D! v' k9 [
Default                                  : No
- P! J; c' d& rForced                                   : No
* M  \. W- i. d! C- aOriginal source medium                   : Blu-ray, J0 w6 J. E1 [. g" w/ O- ?6 D
( ^" ?0 o4 D1 S" ^7 L
Text #12
$ p7 n2 t1 B8 S+ E, ~& _ID                                       : 25
) Y7 O! g+ g1 D5 W! ?ID in the original source medium         : 4618 (0x120A)
, P  {% b7 W9 ?: XFormat                                   : PGS/ R8 N- F' `  h. ~% Z3 ^! s
Muxing mode                              : zlib2 C1 }, K$ B- P5 D
Codec ID                                 : S_HDMV/PGS
3 {8 [& M/ U* J" eCodec ID/Info                            : Picture based subtitle format used on BDs/HD-DVDs
! k5 D. d4 L( `- G# n5 nDuration                                 : 1 h 31 min0 h# m" x" z! y5 q- ]$ |- V3 w  f
Bit rate                                 : 34.6 kb/s9 U+ l: H. f1 [* p$ m, E
Count of elements                        : 26747 x3 O) i/ q0 h! a! S' P+ K
Stream size                              : 22.5 MiB (0%)
1 N2 a3 t. Z# P# {9 h) ]# [Language                                 : Finnish
  M% G; [% B- w- C- E9 jDefault                                  : No
+ L4 q0 w2 r1 r( \' b1 m5 BForced                                   : No
, d# ~, l* m$ k  O! u2 f& bOriginal source medium                   : Blu-ray4 D" s5 O6 z! b7 }" T

( _' {: C6 y% O( E9 |1 c7 aText #13
8 d5 D1 ]* K' S/ ]* [% c; r) ]ID                                       : 26
" J9 f( B7 ~+ J8 w- i* c) jID in the original source medium         : 4619 (0x120B)
! M  T6 f9 n# ~6 \" ?) hFormat                                   : PGS
( L  K1 U0 M# Y) J6 q$ x$ pMuxing mode                              : zlib
6 T* i& ~5 Y) F+ q# pCodec ID                                 : S_HDMV/PGS% {* W. B. ?1 c2 Z# y; o
Codec ID/Info                            : Picture based subtitle format used on BDs/HD-DVDs
, ?* u% E6 M1 X8 E1 l* b9 q" k3 SDuration                                 : 1 h 31 min( |# F1 X/ O0 g0 {4 |9 P
Bit rate                                 : 36.5 kb/s
) }- \+ d" G$ h" |Count of elements                        : 2666: F1 U. R0 X  _. J  s' s
Stream size                              : 23.8 MiB (0%)
: k4 N! x% G2 `9 a  MLanguage                                 : Swedish. I* \( l  I1 m9 A# t
Default                                  : No
9 a& r' Y( p9 |Forced                                   : No+ d& o+ n9 j5 p. G
Original source medium                   : Blu-ray9 u3 Y" ]9 o% e/ ^& {1 a* X
7 \; w2 ~7 G) s+ M6 S" a) |
Text #14
  F; E7 d+ y: o' ~( n9 h0 wID                                       : 27& ^. D  f! W* D' z% _, @5 `0 y
ID in the original source medium         : 4620 (0x120C)
' q# S8 Y# ?0 C8 g9 J# M, jFormat                                   : PGS; j0 _- Z! Q* j, @( }
Muxing mode                              : zlib) V7 O/ z: Z7 ^
Codec ID                                 : S_HDMV/PGS
! l5 ^$ F: I/ D* w) @Codec ID/Info                            : Picture based subtitle format used on BDs/HD-DVDs: A8 v; l2 y9 L: q! a8 n% V, X, d
Duration                                 : 1 h 15 min
+ X4 o0 X% r) ^/ E8 F1 H. t/ T( H/ wBit rate                                 : 382 b/s+ {2 w# u1 K5 d
Count of elements                        : 343 Z1 p- ?) T% y: e
Stream size                              : 212 KiB (0%)& j) D' j2 g- }0 [2 |
Language                                 : Japanese
5 M( m3 L5 q/ R' h; RDefault                                  : No$ p) W" M$ R& f: M0 b
Forced                                   : No
/ ^$ d; L# ]8 B. M4 I6 g5 EOriginal source medium                   : Blu-ray. j0 h8 ^( Y) m- M; ^

% R# e0 y! H  Z5 O% FMenu
8 i* y3 O& O" r- f/ H0 u00:00:00.000                             : Chapter 01
& S2 o' k- C' S, E3 y  B00:05:09.350                             : Chapter 02, Y& L- d$ U9 O3 n( P6 ?+ x) j
00:11:36.112                             : Chapter 03
0 P( o6 T0 k# z00:15:04.528                             : Chapter 04
$ X& w4 E$ v, t6 I1 R00:20:24.932                             : Chapter 05, C8 S) |( e9 W" r2 q
00:24:46.443                             : Chapter 06  w8 F) `* J/ S2 K0 U# ]; y% G
00:31:37.061                             : Chapter 07
: `5 _% l2 ~% @  W! |' a00:39:54.975                             : Chapter 08/ |+ K) Y) a' o* [, U' ?: ]
00:44:42.513                             : Chapter 09. L0 e/ ^. }; j  c/ ]1 J2 v
00:52:46.830                             : Chapter 101 K: e" A% n4 F! M& r
00:57:14.389                             : Chapter 112 ^8 q9 v# ?4 u/ z3 D' V
01:05:13.075                             : Chapter 12; ?" D! o3 O7 {7 X
01:12:37.227                             : Chapter 13) [1 W! @3 Z3 j$ [" k
01:21:06.361                             : Chapter 140 F# T/ I% }1 b, T) {4 [" N5 \9 o
01:22:49.673                             : Chapter 15

' t3 w  g3 P/ C: n8 _. M
游客,查看本帖隐藏内容请回复 | 加入VIP贵宾可免积分免回复 了解详情 | 还不是会员:点击获取邀请码 Invitation Code

76

主题

2994

帖子

1万

积分

Sponsor

金币
1440 枚
体力
4226 点
lanpanshuma 发表于 2021-7-22 09:28:47 | 显示全部楼层
楼主发贴辛苦了,I*老*虎*U!
: s% B9 r0 N. ~! x& WAfter reading the posts have nothing to do I Amoy posts!/ x+ p2 O' A/ G. H9 f* w8 d; h

75

主题

305

帖子

3753

积分

Sponsor

金币
560 枚
体力
2427 点
conanmc 发表于 2021-7-22 17:35:15 | 显示全部楼层
每天都来蓝光论坛看看,我爱蓝光电影。
# P4 ~( r' k  x+ [Not see, I am a novice, the inadequacies of the first Please bear with me!! j" k' Z" Z4 e, m7 J" v
每天都来支 ...

0

主题

112

帖子

567

积分

Sponsor

金币
141 枚
体力
180 点
lfvvzc 发表于 2021-7-23 19:37:33 | 显示全部楼层
这么好的帖子不回对不起自己!8 F' ^4 C) ]5 _  `) _* B
In fact, I have always felt that the landlord of good taste! Ha ha!  L, H' Z4 `, u1 y* Q

0

主题

92

帖子

372

积分

Sponsor

金币
49 枚
体力
132 点
fankyxie 发表于 2021-7-28 20:06:48 | 显示全部楼层
果断回帖,如果沉了就是我弄沉的感觉很有成就感!
* O' B4 F& b8 ~) g1 B0 }6 mbluraycd forum, a lot of Blu-ray movies!
; w: |6 ?% V5 g" B

本版积分规则

小黑屋|Archiver|蓝光电影资源网

GMT+8, 2021-8-5 23:39

快速回复 返回顶部 返回列表