BluRayCD Forum

 找回密码
 立即注册【分享大片】
查看: 94|回复: 9
收起左侧

[蓝光原盘] 人之怒/运钞车 [REMUX无损版] Wrath of Man 2021 1080p BluRaycd REMUX AVC DTS-HD MA 5.1-FGT 35.10GB

[复制链接]

8213

主题

8407

帖子

6万

积分

Forum Moderator

金币
11998 枚
体力
10677 点

卓越贡献勋章

24小时 发表于 2021-7-22 08:07:12 | 显示全部楼层 |阅读模式
The plot follows H, a cold and mysterious character working at a cash truck company responsible for moving hundreds of millions of dollars around Los Angeles each week.
# g' R! O" t8 w; ?9 K4 {4 F. w$ v9 A6 Y5 [; f- e; _/ @; E% \. `

8 L& e% M4 \1 |0 V$ d+ V+ e
" v. D- t; E2 V% S* y8 m2 B: v4 X◎译  名 人之怒/玩命钞劫(台)/运钞车; h4 A0 i/ k3 K  S. H' w
◎片  名 Wrath of Man / Cash Truck1 i; c5 H4 @) y/ Z* g' f
◎年  代 2021
5 \% C' D* i! Z; b; D6 {3 A. c◎产  地 美国/英国
8 O& r; V) l" Z% J  ?) t4 K◎类  别 动作/犯罪' c( _; S/ I6 X7 M; M' w! N
◎语  言 英语
9 E' w* u- U3 t$ {◎上映日期 2021-05-10(中国大陆)/2021-04-22(俄罗斯)/2021-05-07(美国)
5 k. V  j4 w' K◎IMDb评分  7.2/10 from 72,270 users' z; c5 v2 y2 }
◎IMDb链接  https://www.imdb.com/title/tt11083552/
4 j8 E5 V( \- L9 G# d. f  K◎豆瓣评分 6.8/10 from 87,379 users- N4 g, v$ Z) j
◎豆瓣链接 https://movie.douban.com/subject/27046740/
- p0 `2 ]: H  E, j+ Y◎文件格式 x264 + DTS
- c5 W+ D1 y0 a- A◎视频尺寸 1920 x 1080
: r9 T; |0 f/ z7 T' V5 A5 l& w0 V) C  {: v◎文件大小 1DVD 35.10 GiB% N  k8 S' R& F) U
◎片  长 1 h 58 min
4 |2 M2 g) A+ A- _  `4 z◎导  演 盖·里奇 Guy Ritchie
& q0 s+ f5 l4 p& o2 `. i, X0 b! {8 n◎编  剧 尼古拉斯·布赫里夫 Nicolas Boukhrief1 K  B! w3 D1 c  V" D5 i& n4 r$ I
       艾瑞克·贝斯纳 éric Besnard. F3 }4 R/ P6 g
       盖·里奇 Guy Ritchie
7 B! E8 @5 G3 _7 o4 @       马恩·戴维斯 Marn Davies
$ R, J, S/ T/ a7 I) L4 J3 b3 u4 o, Z       伊凡·阿特金森 Ivan Atkinson
/ |6 B" J+ b; r- S! M◎主  演 杰森·斯坦森 Jason Statham. F: X- ~% W9 h% }, r6 A
       霍特·麦克卡兰尼 Holt McCallany% I3 c2 M+ u4 G+ R" j
       罗奇·威廉姆斯 Rocci Williams1 r8 a# @) U3 b9 K# E$ T4 I: X
       乔什·哈奈特 Josh Hartnett+ Z, M8 @* ~# n+ m
       杰弗里·多诺万 Jeffrey Donovan, y$ V  R8 X7 I% x+ e7 u; B  y& f
       斯科特·伊斯特伍德 Scott Eastwood6 I# ?) P/ n7 X1 J( D. Z9 x! h
       安迪·加西亚 Andy Garcia" w  C0 D: j/ E4 e& ?( w
       道比·欧帕瑞 Deobia Oparei
9 R' l/ x  E) m- f5 g! N       拉兹·阿隆索 Laz Alonso+ r) a5 N2 [, E& S
       劳尔·卡斯提洛 Raúl Castillo9 [4 W6 I0 o  d/ s
       克里斯·雷利 Chris Reilly
( x, Y8 E; _$ A/ \+ W       埃迪·马森 Eddie Marsan
# i( T! A9 i* ]8 \- {4 G9 D       尼芙·阿尔格 Niamh Algar- Q+ c- L. r% Z0 |7 q. X
       塔格·墨菲 Tadhg Murphy5 k- H. x" l( q5 k1 [0 R$ L1 K! ?
       马克·阿诺德 Mark Arnold  U  M% O  A: z6 s5 l* Y6 s/ a
       亚历克斯·费恩斯 Alex Ferns5 ^( o* I" t% @3 R- g1 W" z
       乔什·柯德雷 Josh Cowdery$ Z9 @. w" L( y$ ]
       杰森·王 Jason Wong+ J. X" \' @" X  s) d* Y
       罗伯·德兰尼 Rob Delaney
# [* N& b% I/ J* }       伊莱·布朗 Eli Brown5 [5 D* `6 c# S7 ^' Q7 ^
       凯瑞·莎勒 Kerry Shale, ^$ p# u/ U3 Z2 w. z- D
       卡梅伦·杰克 Cameron Jack0 T1 l  g/ X. K4 D1 _1 i1 c% b
       达雷尔·席尔瓦 Darrell D'Silva
1 Z$ p& J9 U' R/ ]5 x       巴布斯·奥卢桑莫昆 Babs Olusanmokun
* I. ]! I3 S$ }6 `. I8 w       多米尼克·托马斯 Dominique Thomas
7 I7 F/ b1 L1 X+ l! _       琳·勒内 Lyne Renee
4 L, c# h6 f7 z; k. n, M6 M! f       蕾贝卡·卡尔德 Rebecca Calder
6 B$ |: n" A3 u$ w2 S: V. w3 d       伊芙·麦凯林 Eve Macklin
' n* O& Y6 i$ @! ~6 E& D       詹姆斯·沃伦 James Warren
4 b' V7 Q  j; q( p$ f, c  ^/ ~       史蒂威·戴维斯 Stevee Davies- e4 U, R% H8 n8 c- g7 T. G. b  h6 s+ @
       蒙塔娜·曼宁 Montana Manning3 c9 Y/ d( P' j+ U6 J8 b. p
       安东尼·莫利纳利 Anthony Molinari  i2 x* E  O- K! x0 L: c7 k
& R% n" u7 U/ j& t" C3 P- G
◎标  签 犯罪 | 动作 | 美国 | 2021 | 剧情 | 悬疑 | 黑色幽默 | 英国
3 Q& ~& G0 x# k. K: T: [. @6 U, i; R: e
◎简  介   # `4 x* a+ ~3 b

) K. U4 D; \4 l& A; U6 R  在一次全副武装的运钞车劫案中,梅斯先生(杰森·斯坦森 饰)的儿子作为案发目击者被劫匪杀害。怒火中烧的梅斯为报丧子之仇,化身H卧底成为运钞车安保,试图找出杀害他儿子的劫匪以及与劫匪暗中勾结的安保公司内鬼。
6 l$ O1 [7 ^/ d: `0 p
& _7 K3 L8 Y  k. T( Z3 D  The plot follows H, a cold and mysterious character working at a cash truck company responsible for moving hundreds of millions of dollars around Los Angeles each week.0 Y# M% F% k8 j
& c4 i& S/ Z, N) K7 N9 d" f9 \$ T2 v
Video" D: }" d3 ~& b* R' r
ID                                       : 1, f9 p: G8 N* _! j% C8 D0 H& ]
ID in the original source medium         : 4113 (0x1011)* K& ~) X. [$ {9 _- l4 {. q: x
Format                                   : AVC1 I/ E! ?$ s7 N- q
Format/Info                              : Advanced Video Codec, `- f% k* }  h# g- l# `8 j2 W
Format profile                           : [email protected]
$ N- z9 v, l* Y9 i5 [" gFormat settings                          : CABAC / 4 Ref Frames
# w/ w; G' H9 Z+ o8 N& U" gFormat settings, CABAC                   : Yes* ~0 S0 v( Z  U) o2 T- j( P
Format settings, Reference frames        : 4 frames' K$ A" \3 I' j: c$ p9 g! E
Format settings, GOP                     : M=3, N=12
) \7 D; n7 h) w+ TCodec ID                                 : V_MPEG4/ISO/AVC" @* K: `" o0 i$ n- i3 V3 N8 p
Duration                                 : 1 h 58 min' b+ ]5 n$ Q( [! r. S  q! D& q0 x: ^& P
Bit rate mode                            : Variable
4 Y* L" L- l! b- o/ V4 QBit rate                                 : 37.9 Mb/s8 u7 I, N/ V# U5 u- ^3 N
Maximum bit rate                         : 39.5 Mb/s
/ \2 C3 c/ A9 |" m3 `3 DWidth                                    : 1 920 pixels+ b+ P' u5 I+ _$ |: _1 O
Height                                   : 1 080 pixels
- }# K2 J& r  ?2 @0 u& `Display aspect ratio                     : 16:9
. C: B0 K1 m) MFrame rate mode                          : Constant
& P% V3 J' y* {( w+ w, {3 SFrame rate                               : 23.976 (24000/1001/189150) FPS
/ f1 x' {; D: ^1 j3 x; [; i( \* OColor space                              : YUV
8 q9 W( Q: n9 ?8 W4 oChroma subsampling                       : 4:2:0  N% s8 G/ w9 c! y' K3 b: k$ a
Bit depth                                : 8 bits
' |3 K9 Q1 N" E" O+ TScan type                                : Progressive
8 ~  Q/ Y  _8 N$ X9 @Bits/(Pixel*Frame)                       : 0.763
+ a/ ?3 I/ D9 d/ V, TStream size                              : 31.5 GiB (90%)7 z1 _; z$ t: S$ f6 }5 T
Title                                    : Wrath.of.Man.2021.1080p.BluRayCD.REMUX.AVC.DTS-HD.MA.5.1-FGT6 z7 |; z( N* e$ t
Language                                 : English! ?) x& V& E+ T& g) L1 i
Default                                  : No# k3 _  v5 H. l. K3 k: B$ j
Forced                                   : No
& E2 {4 M. R, X6 J/ H$ k+ fOriginal source medium                   : Blu-ray
; K: c! P/ s2 f6 d0 B, N6 ?1 v' A. p2 v% ^3 M) [' }# B
Audio #1
, `3 r" J4 @: Z: a% F4 CID                                       : 2* u& U. I/ _, f. Y
ID in the original source medium         : 4352 (0x1100)# m" ~3 f( ?3 j9 e9 `' s- ~  R( [
Format                                   : DTS XLL
# ~) `/ Y0 ~% v: WFormat/Info                              : Digital Theater Systems) G9 E1 S  [2 H% w) [6 l
Commercial name                          : DTS-HD Master Audio
5 N1 I* Z9 Y- CCodec ID                                 : A_DTS0 P; q: t5 Z8 d5 ]
Duration                                 : 1 h 58 min
/ ]1 h0 l# B) m% J: DBit rate mode                            : Variable$ ?8 L+ V3 i' M$ H' _5 p
Bit rate                                 : 3 673 kb/s
/ b) ]4 B6 [( x/ HChannel(s)                               : 6 channels+ i  Z  ^% a8 d; V$ d
Channel layout                           : C L R Ls Rs LFE
% k8 b, g6 J3 y1 vSampling rate                            : 48.0 kHz7 b( N: s9 I" U
Frame rate                               : 93.750 FPS (512 SPF)
: R+ ~. k3 H0 O! N* R* {Bit depth                                : 24 bits! w2 l! z; D3 o7 m  \- Y0 a
Compression mode                         : Lossless
# c5 Y) L! i& w: sStream size                              : 3.05 GiB (9%)1 i) U! f/ U7 T1 Q
Title                                    : Wrath.of.Man.2021.1080p.BluRaycd.REMUX.AVC.DTS-HD.MA.5.1-FGT
% H" l# c- @0 Q3 b$ r; F( E/ ZLanguage                                 : English3 v' ]3 F# N8 U" Y& U9 y
Default                                  : Yes
. l8 f0 y9 m, U! Y! Q0 pForced                                   : No3 {( |- ~2 q$ x# Q
Original source medium                   : Blu-ray! K0 p" Y6 y9 h1 w2 X0 @

; O: S3 M3 l6 D- c" x% k& h2 hAudio #2; j) O/ r  s! V9 U5 u
ID                                       : 3
$ d! O- |$ B% \, f$ zID in the original source medium         : 4353 (0x1101)
$ o0 h" W& @) X2 V( TFormat                                   : AC-3/ |# `9 b( t& v* X0 ~( t9 U
Format/Info                              : Audio Coding 3- k% k4 y! h0 _) W' E8 R/ u
Commercial name                          : Dolby Digital  z& `7 V. J; d, i7 r# Q
Codec ID                                 : A_AC3
2 \& p$ ~) F, E/ x# wDuration                                 : 1 h 58 min
0 p. v  ~/ C2 T4 T% L9 }Bit rate mode                            : Constant
+ U% p5 j" g+ ]2 k2 W- tBit rate                                 : 640 kb/s
; v3 h+ H0 G% @( N# r0 Y7 i5 jChannel(s)                               : 6 channels
+ n# q; w: p9 G0 ^& BChannel layout                           : L R C LFE Ls Rs
2 o& ]1 h1 ^  GSampling rate                            : 48.0 kHz1 T, E6 W+ p, V! w! v; h
Frame rate                               : 31.250 FPS (1536 SPF)" k" b4 A7 ^& C/ f9 E3 F9 F1 R
Compression mode                         : Lossy
2 U% c! C8 Y+ U$ }" kStream size                              : 544 MiB (2%)
% n$ P/ j  M5 Y9 F* m8 T1 uTitle                                    : Wrath.of.Man.2021.1080p.BluRaycd.REMUX.AVC.DTS-HD.MA.5.1-FGT
: t/ A8 U' u' w$ m% `; ZLanguage                                 : English
& ]+ \5 i6 r, R, _& @1 IService kind                             : Complete Main" u4 i7 W6 h/ |' [3 v% \
Default                                  : No4 A* F( |; ]2 t. n# z
Forced                                   : No" y0 O" B4 j1 {" P$ Z) e% v- ~
Original source medium                   : Blu-ray
+ C. o2 c3 h% _# z$ U
3 x. h4 n/ R+ [" vText #1
  p8 i5 H# S( M  YID                                       : 4; `$ y' Q' n" g" o( c) q# p/ ^
Format                                   : UTF-8
; U" _: ~5 p' W5 |Codec ID                                 : S_TEXT/UTF80 o" k2 G7 a" n% c
Codec ID/Info                            : UTF-8 Plain Text
" q+ x  H4 u6 U- V% dDuration                                 : 1 h 50 min
& k+ i8 i! |7 y$ z5 `! kBit rate                                 : 55 b/s
9 f6 x1 L+ V% I8 Y* T. B* R8 F3 FCount of elements                        : 1402' M% g6 ^4 g0 d7 s
Stream size                              : 45.3 KiB (0%)$ W) f2 y  M1 H. L% G$ a0 _+ k7 P
Title                                    : English-SRT
1 ~' S, y+ v' N8 q( a$ \Language                                 : English
: [2 w9 D% M3 ^$ [2 f8 t6 T) F% VDefault                                  : Yes( H6 X, z8 r+ ]" v7 @
Forced                                   : No$ S5 J% y: O3 z

" [3 b; k- W$ g' r3 BText #2& z# S2 _8 x! |6 I9 f1 t
ID                                       : 5
" c2 c( Q: g$ z8 u% AID in the original source medium         : 4608 (0x1200)
# b/ c5 L4 C0 S: X* @Format                                   : PGS
& R* X) ]. m8 kMuxing mode                              : zlib
$ C: ?/ f& M1 e) h9 qCodec ID                                 : S_HDMV/PGS
# w" Z+ v7 T: ]8 D* t! mCodec ID/Info                            : Picture based subtitle format used on BDs/HD-DVDs
1 ~# @; p2 u8 b8 jDuration                                 : 1 h 51 min
* G( {2 |( Y2 X+ v0 P' W: qBit rate                                 : 36.2 kb/s
' |5 h8 l% Y6 LCount of elements                        : 30208 \. a2 \; q  P5 g! i2 U
Stream size                              : 28.8 MiB (0%)$ c4 M$ A" G+ r% {; ]/ |4 Y
Title                                    : English-PGS
- u, C, n3 m" c. v' vLanguage                                 : English
. Q# }2 F# c: C; |; J  ?Default                                  : No
# r( G; R9 u$ t% D& s5 Z# o, J, \Forced                                   : No
( s7 q* T# n/ X6 ~8 M, W8 D4 `Original source medium                   : Blu-ray
4 Y" {6 L. S) Q" ]. s* M' w: k( T. e/ L6 i: q
Menu
  d! n+ _: y1 I00:00:00.000                             : Chapter 01
( }9 O* ]' ?# `8 C00:05:55.563                             : Chapter 029 U. ^! i, w& ~8 X, P3 T
00:13:08.120                             : Chapter 032 F4 |: ?4 s0 n* _" j3 r- }, f! _
00:19:51.523                             : Chapter 04
3 o* f9 m6 V3 g; d00:29:30.435                             : Chapter 05
$ @" g6 R" r; ]; f00:38:33.227                             : Chapter 06
- W+ k1 _% j' s) p" ~! y00:47:33.684                             : Chapter 07+ B% |: g. {3 _4 ~- }, E: e
00:55:34.998                             : Chapter 082 g- u/ _4 |4 n' z$ J
01:02:41.299                             : Chapter 09
* c- m7 _9 c5 X* f+ |2 W* |01:10:36.106                             : Chapter 10
1 }) b) g! Z) R% ~! |& c01:19:03.530                             : Chapter 11
; e, K! ?4 k% Q; C% C( C. N; C01:25:57.819                             : Chapter 12
9 R: @% H4 z: [& C6 a0 x01:34:15.358                             : Chapter 136 a2 F5 p" k( }2 r
01:44:04.988                             : Chapter 14
( ?0 M& h5 C, v0 a01:53:04.444                             : Chapter 15
, x% a$ f% U6 Q7 K. ^# ?- o6 l
游客,查看本帖隐藏内容请回复 | 加入VIP贵宾可免积分免回复 了解详情 | 还不是会员:点击获取邀请码 Invitation Code

76

主题

2994

帖子

1万

积分

Sponsor

金币
1440 枚
体力
4226 点
lanpanshuma 发表于 2021-7-22 09:30:35 | 显示全部楼层
看了LZ的帖子,我只想说一句很好很强大!""
, d' d6 K' V  B! b至少是现在,我一天没有访问蓝光电影论坛就不爽!At least now, my day did not visit the Blu-ray Film Forum on unhappy!
8 ]% ?, Y4 m- Z, y7 o2 V

0

主题

406

帖子

1553

积分

Sponsor

金币
17 枚
体力
718 点
指环王170406 发表于 2021-7-23 21:41:33 | 显示全部楼层
啥也不说了,楼主就是给力!$ R- [0 M$ ]- n1 C
bluraycd forum, a lot of Blu-ray movies!
5 f  Y- C& Z8 F& D0 `2 x

0

主题

121

帖子

652

积分

Sponsor

金币
2 枚
体力
403 点
splj100200 发表于 2021-7-27 14:35:37 | 显示全部楼层
五星推荐!!!重要的事情说三遍,好久没看如此走心,又上头的燃片了,真是酣畅淋漓

0

主题

121

帖子

652

积分

Sponsor

金币
2 枚
体力
403 点
splj100200 发表于 2021-7-27 14:37:12 | 显示全部楼层
暗夜幽灵的现身 一直到影片结束,杰森·斯坦森扮演的主角H依然身份成谜。

0

主题

68

帖子

251

积分

Sponsor

金币
14 枚
体力
101 点
qiusefengye 发表于 7 天前 | 显示全部楼层
楼主就是给力

2

主题

253

帖子

1390

积分

Sponsor

金币
291 枚
体力
641 点
QQ
ccfys888 发表于 7 天前 | 显示全部楼层
每天都来蓝光论坛看看,我爱蓝光电影。8 o4 }4 J% r8 L4 j/ b
bluraycd forum, a lot of Blu-ray movies!5 f$ e% `0 b8 u4 q% Y

0

主题

24

帖子

215

积分

Sponsor

金币
91 枚
体力
74 点
swdsprit 发表于 5 天前 | 显示全部楼层
看光头秒天秒地~

0

主题

73

帖子

517

积分

Sponsor

金币
191 枚
体力
176 点
aacq 发表于 前天 22:30 | 显示全部楼层
郭达斯坦森的片子要支持一下的,谢谢楼主分享精彩电影

2

主题

253

帖子

1390

积分

Sponsor

金币
291 枚
体力
641 点
QQ
ccfys888 发表于 昨天 14:08 | 显示全部楼层
啥也不说了,楼主就是给力!
/ Z6 q/ I. c, N# v0 Z8 Xbluraycd forum, a lot of Blu-ray movies!. ~5 ]/ T0 ]& y* B* L6 d$ z6 p' l( l9 k

本版积分规则

小黑屋|Archiver|蓝光电影资源网

GMT+8, 2021-8-5 22:34

快速回复 返回顶部 返回列表