BluRayCD Forum

 找回密码
 立即注册【分享大片】
查看: 232|回复: 10
收起左侧

[4K极清电影] 人之怒/运钞车/玩命钞劫 [4K REMUX无损版] Wrath of Man 2021 2160p BluRaycd REMUX HEVC DTS-HD MA 7.1-FGT 72.22GB

[复制链接]

5627

主题

5975

帖子

6万

积分

Forum Moderator

金币
4583 枚
体力
25985 点

卓越贡献勋章VIP蓝光勋章

迅雷电影 发表于 2021-11-3 21:20:12 | 显示全部楼层 |阅读模式
The plot follows H, a cold and mysterious character working at a cash truck company responsible for moving hundreds of millions of dollars around Los Angeles each week.
) J, k( r! \3 E- C. u$ h
4 w4 K" x+ k& x& o9 X8 m 01.jpg
" y1 s2 g  S! F7 R3 D' ^" X9 v6 P1 `( q6 o, m5 M( |( L7 b; P5 g  [. |
◎译  名 人之怒/运钞车/玩命钞劫(台)7 l/ J/ r" i$ p
◎片  名 Wrath of Man / Cash Truck
8 Y- ?) `  a: V/ {+ ~$ D◎年  代 20212 d, r( u- I) V* P0 A
◎产  地 美国/英国
; v$ T- i; K: L, c; i$ v0 ?& @0 q6 w& y◎类  别 动作/犯罪
! {$ A- t# G6 Z8 X! ?% p) b◎语  言 英语
0 e. U! {" l0 ^" W. d" o◎上映日期 2021-04-22(俄罗斯)/2021-05-07(美国)/2021-05-10(中国大陆)- o& a2 @1 s$ \7 [% j+ O' i
◎IMDb评分  7.1/10 from 120,311 users
1 L" \, v0 q9 N  `% b, e◎IMDb链接  https://www.imdb.com/title/tt11083552/
3 f& F6 l4 v* U◎豆瓣评分 6.7/10 from 127,489 users
  J' x, D/ c- a$ I; e◎豆瓣链接 https://movie.douban.com/subject/27046740/
: f9 W& K# q/ I4 T7 [4 _◎文件格式 x265 + DTS
% r5 Z; |2 [( R" Q6 x◎视频尺寸 3840 x 2160, p0 x, R" i8 b& Z# P
◎文件大小 1DVD 72.22 GiB
0 k& D; J. c) o# R+ x◎片  长 1 h 58 min9 b: J4 I( j0 h( J
◎导  演 盖·里奇 Guy Ritchie
$ X6 D3 C/ [0 c9 }" K( h◎编  剧 尼古拉斯·布赫里夫 Nicolas Boukhrief; l  b! r, w: S) G7 k: \5 L
       艾瑞克·贝斯纳 éric Besnard! m- e. i! A* ~7 A
       盖·里奇 Guy Ritchie
1 S0 i% T( m3 I) G- s& X# i7 P# M       马恩·戴维斯 Marn Davies
: |8 n1 O; a7 L! A3 I! S$ ~6 v: S' K       伊凡·阿特金森 Ivan Atkinson: Q, Y' f( E0 r: ?( N$ y
◎主  演 杰森·斯坦森 Jason Statham
. m6 u9 q6 R6 j* _' W       霍特·麦克卡兰尼 Holt McCallany; p# t: c( W5 ]1 H3 ]7 r
       罗奇·威廉姆斯 Rocci Williams, y% g2 {  Q& e# A& t! J6 B) K
       乔什·哈奈特 Josh Hartnett
  V0 C1 W; F+ |, q" v& w       杰弗里·多诺万 Jeffrey Donovan- h1 }# u  C; K* B
       斯科特·伊斯特伍德 Scott Eastwood
  S3 s3 m! g6 ]8 I' r# A, J1 x       安迪·加西亚 Andy Garcia
2 z  c4 V. _4 a9 u  w) M, u6 d$ J7 o       道比·欧帕瑞 Deobia Oparei7 x7 f, s% }  x7 l7 K0 Q
       拉兹·阿隆索 Laz Alonso/ ]0 z! n7 ?+ O; H1 V
       劳尔·卡斯提洛 Raúl Castillo1 m3 M- t) N% L) N( }
       克里斯·雷利 Chris Reilly
) S7 E) \7 s4 Z5 v5 {. v       埃迪·马森 Eddie Marsan$ l& V1 p* c1 o. x6 f; [
       尼芙·阿尔格 Niamh Algar
) T& \0 U. v7 V0 d       塔格·墨菲 Tadhg Murphy4 i1 n7 H( }$ [6 D* [# |' O
       马克·阿诺德 Mark Arnold5 S3 W' l  ^9 I. S5 ^9 A6 c
       亚历克斯·费恩斯 Alex Ferns3 \0 ]$ G% u# f' o4 M' F/ M/ H
       乔什·柯德雷 Josh Cowdery/ ~$ ?0 t* i5 [3 ]/ A- v& }
       杰森·王 Jason Wong
1 J+ T1 O) Y! T. ~: g       罗伯·德兰尼 Rob Delaney/ ?# H5 w; C# \. u2 c9 `' n
       伊莱·布朗 Eli Brown
* ~2 c/ p9 X# _; D( z       凯瑞·莎勒 Kerry Shale# Q: j  L6 H1 T6 C8 ]; B/ \
       卡梅伦·杰克 Cameron Jack
" c: z3 j: H7 u! F  {8 ]6 y# B, _2 L       达雷尔·席尔瓦 Darrell D'Silva- |" N3 ^" |9 H) H
       巴布斯·奥卢桑莫昆 Babs Olusanmokun
; f( V9 S8 \" Y; w- j( g% ^       多米尼克·托马斯 Dominique Thomas/ D1 D  a; |4 Q
       琳·勒内 Lyne Renee! N! M  u5 h! F6 P# i% d
       蕾贝卡·卡尔德 Rebecca Calder
0 r7 I3 C) n' i" L       伊芙·麦凯林 Eve Macklin
  |% ~/ V: X  x2 ^       詹姆斯·沃伦 James Warren/ R$ [1 a7 q5 U0 f3 s/ i  l( v) d
       史蒂威·戴维斯 Stevee Davies0 f! w. [# R+ V* S# @, u
       蒙塔娜·曼宁 Montana Manning/ m, v) U$ E$ h. ~
       安东尼·莫利纳利 Anthony Molinari
' r3 ~2 |1 t9 P5 }% X2 N" p3 b8 F' L& B+ }+ o8 a5 x# b
◎标  签 犯罪 | 动作 | 美国 | 2021 | 剧情 | 悬疑 | 英国 | 黑色幽默! ]- n5 D$ U7 y" f1 h1 t+ f, W7 f2 E

5 \' K: j. t  Z$ Y◎简  介   
, O5 z5 T( S6 O) t" n, k: S
; X* }1 z6 u' W2 k9 z  在一次全副武装的运钞车劫案中,梅斯先生(杰森·斯坦森 饰)的儿子作为案发目击者被劫匪杀害。怒火中烧的梅斯为报丧子之仇,化身卧底成为运钞车安保,试图找出杀害他儿子的劫匪以及与劫匪暗中勾结的安保公司内鬼。
3 l3 C+ P3 e6 I3 I* _1 e: f, l
- O; V# a2 V& ^4 Z  The plot follows H, a cold and mysterious character working at a cash truck company responsible for moving hundreds of millions of dollars around Los Angeles each week.0 E& \9 E& J$ N6 P4 p3 v4 N

& r0 I& p$ e! P0 e+ ^/ a
Wrath.of.Man.2021.2160p.BluRayCD.REMUX.HEVC.DTS-HD.MA.7.1-FGT 72.22 GB
; `7 S9 P( |8 U2 l* P6 ]& g5 V8 A
2 N  t& I/ {, X! D. V0 ^- ~% kVideo
! x6 H' D2 N( F" a& _9 OID                                       : 1
8 R4 ?+ ~3 V, SID in the original source medium         : 4113 (0x1011)
+ `2 C) `- p. Q. A- J9 H& A* O! BFormat                                   : HEVC
( M4 ~* m3 b8 s7 B0 ]Format/Info                              : High Efficiency Video Coding
" q6 h4 A* Q4 a. A) V9 nFormat profile                           : Main [email protected]@High" X, n$ X4 z7 ^2 l3 f
HDR format                               : SMPTE ST 2086, HDR10 compatible
) U! J4 |' y  g. w# [; jCodec ID                                 : V_MPEGH/ISO/HEVC# `6 O$ j7 x# S) k
Duration                                 : 1 h 58 min7 H+ k; g6 [2 `- e# a
Bit rate                                 : 76.0 Mb/s/ F( x  f8 W3 f' r9 W, i7 T
Width                                    : 3 840 pixels8 G/ k7 N4 _" E4 ~0 o# `! N
Height                                   : 2 160 pixels
2 u  C# L6 ?; H4 k1 S; I" fDisplay aspect ratio                     : 16:9
* Q# s! \  Y+ Y( w1 VFrame rate mode                          : Constant9 {# }) _5 p3 T! @8 M
Frame rate                               : 24.000 FPS
: o( [5 h, F) w8 d' |" o0 e' z" {! GColor space                              : YUV6 Y( c0 S* F$ X8 B) Z# a
Chroma subsampling                       : 4:2:0 (Type 2)) u, _% ]7 m% |) k" Y. W
Bit depth                                : 10 bits
1 a# i3 }. x  KBits/(Pixel*Frame)                       : 0.382
; D; q  V4 v" |6 {: IStream size                              : 62.9 GiB (87%)
; s8 r& k( i' ^% N- s( D) ]Writing library                          : ATEME Titan File 3.9.4 (4.9.4.12)      
# R0 M% k* N4 q5 X3 oLanguage                                 : English
! C* Y' l7 [% h; g2 c7 }5 G0 WDefault                                  : No2 g% ]+ a- u" b$ X2 j/ Z
Forced                                   : No
& v' s: R' }4 n( sColor range                              : Limited
0 J1 d/ r3 @% {6 e% u, \Color primaries                          : BT.2020! o' s! p8 t/ h- J' _  u
Transfer characteristics                 : PQ# m5 M' L1 n3 L  |# k8 o
Matrix coefficients                      : BT.2020 non-constant- d! f7 o$ w7 M% e9 ~/ f% Y2 \* [
Mastering display color primaries        : BT.2020" Y3 K4 z5 W  B& V: L
Mastering display luminance              : min: 0.0050 cd/m2, max: 1000 cd/m22 y6 f) x: P5 C4 _; d" z
Maximum Content Light Level              : 832 cd/m23 e9 o8 H9 P# b
Maximum Frame-Average Light Level        : 166 cd/m2" a* _2 l3 o1 a2 s% |5 o
Original source medium                   : Blu-ray; A9 B# h1 w* o' X2 t- C& N/ p8 t8 P

  P( g5 n9 r. |Audio #1
( h+ v2 ^  b+ DID                                       : 2; _) W; B/ r1 i2 g
ID in the original source medium         : 4353 (0x1101)
7 Z" l2 q! I0 @6 Z) C5 OFormat                                   : DTS XLL
- Y- b8 _, t, ~2 N0 l* L5 v: CFormat/Info                              : Digital Theater Systems
8 X. h6 ^9 \6 _. E  q6 tCommercial name                          : DTS-HD Master Audio' V7 I; Q; C9 T% G
Codec ID                                 : A_DTS& u! {2 u! I( p7 [5 D/ g
Duration                                 : 1 h 58 min9 E2 ^/ u6 H1 H+ K. t. s
Bit rate mode                            : Variable
: `- V$ |) c  q0 y: `" q9 {Bit rate                                 : 4 934 kb/s  G% h6 ]. k. F$ @# O. o
Channel(s)                               : 8 channels% Q  g/ w# W& `
Channel layout                           : C L R LFE Lb Rb Lss Rss
. ]# U# P# U( I/ H- w" p" m) j; mSampling rate                            : 48.0 kHz4 i) U  f" h9 p
Frame rate                               : 93.750 FPS (512 SPF)' s5 n8 H/ ]4 |" c8 c7 {
Bit depth                                : 24 bits, X' ~2 T" l8 ~0 p6 U# Q- f2 g" B
Compression mode                         : Lossless8 G6 }) [! \. a1 X  p3 B
Stream size                              : 4.08 GiB (6%)
. F1 p. t" H9 {) m& e/ X" BTitle                                    : DTS-HD MA 7.1( w* T" j' Y* ^& u9 t
Language                                 : English6 s4 Q) S7 w: q1 @
Default                                  : Yes
( z2 d( _! n, M. e$ F% iForced                                   : No
% F6 ~5 s( o: m; ~2 ]Original source medium                   : Blu-ray) f' j, @% H$ q  P" w% d
7 b5 R6 _; S2 {1 w
Audio #2
5 N" s* N9 _; ^; s  Q  n# O! m- t  i0 RID                                       : 3
3 L& r: j4 m; ~Format                                   : AC-3
  E) m: v( Q9 N" P: T3 J' T6 rFormat/Info                              : Audio Coding 33 c5 `) y0 d1 B  S
Commercial name                          : Dolby Digital
- U1 s3 T- Y$ W4 eCodec ID                                 : A_AC3
0 I! y% a1 F6 J7 n. _. iDuration                                 : 1 h 58 min9 N0 ^; Y) N6 {& I3 U
Bit rate mode                            : Constant% T: x$ W2 P$ T% a& X  d$ V! i& E
Bit rate                                 : 640 kb/s0 q) L. Y* ?) F  j1 ]2 V
Channel(s)                               : 6 channels
5 x9 c7 C/ `: [2 `' oChannel layout                           : L R C LFE Ls Rs* O# h, s9 C. O' I3 m2 t6 n* t
Sampling rate                            : 48.0 kHz; A# J4 K+ x, N2 [! {% C% {/ ]
Frame rate                               : 31.250 FPS (1536 SPF)7 s* w; S' i8 J
Compression mode                         : Lossy
8 e& ^( D7 i5 W& P' IStream size                              : 542 MiB (1%)  n6 H9 F' Q, X) E/ O# p. e
Title                                    : DD 5.1; i5 V' u0 l* ^5 T* _# {
Language                                 : English/ u; Z5 M, f  O! V7 h9 s) i* N( W- \
Service kind                             : Complete Main
( b) A9 Z$ K" A% RDefault                                  : No* B) e8 Y5 c7 x  M8 H' O
Forced                                   : No, D# a' b# e5 @

  ?  r/ U1 N+ \( b; I+ [6 \Audio #3
2 ^! U; m+ B9 S. M7 R# g( i' ?8 r& cID                                       : 4+ f/ }$ A6 J/ Q/ _! v- p
ID in the original source medium         : 4352 (0x1100)
# h6 J/ @. _- B, V3 }" D; gFormat                                   : DTS XLL) D+ P( H, y/ K0 ?8 \' U3 W
Format/Info                              : Digital Theater Systems9 L) _" E$ I' [! U3 c9 b3 C
Commercial name                          : DTS-HD Master Audio
; _1 s1 {8 r( K5 T8 u5 lCodec ID                                 : A_DTS
4 U; Z2 M0 G0 z; Q) R$ JDuration                                 : 1 h 58 min! `& N% Z8 z' d( p6 `: s5 d. x
Bit rate mode                            : Variable
0 r& ~5 C% p  Z( c& G9 b% X9 ~9 eBit rate                                 : 4 959 kb/s
) A* }) i6 p8 d6 o3 r2 G0 K; i6 B2 p! eChannel(s)                               : 8 channels
- N; X& S! S+ `& L6 h4 s: xChannel layout                           : C L R LFE Lb Rb Lss Rss/ D, T0 T1 i: I, [) }$ Z& m$ {' e" x
Sampling rate                            : 48.0 kHz
/ D9 ^  a, W4 v  Z/ y3 U* z  t4 AFrame rate                               : 93.750 FPS (512 SPF)
# Q0 `) f8 u  `! F" J0 t! M* NBit depth                                : 24 bits
& @+ _( S/ V% YCompression mode                         : Lossless
+ t8 }$ C& {6 b, {Stream size                              : 4.10 GiB (6%)$ u; w( U0 z% D* D2 ^
Title                                    : DTS-HD MA 7.1
5 r- n) j! R2 ^% Q; GLanguage                                 : French
! z& b! E+ M; e5 E7 A+ a5 XDefault                                  : No% q* Y" W' u( O
Forced                                   : No
. J; d0 S/ F" }6 }% ?Original source medium                   : Blu-ray
' n% N* r  e, \! t! b" {7 M
3 g; [( N5 _- N; d+ BAudio #4
# G5 z6 E( T+ I& M/ zID                                       : 5
% }* g% q3 x& n6 [" L7 u: a; KID in the original source medium         : 4354 (0x1102)- r8 M. G5 q5 \- h  o/ u
Format                                   : DTS+ F+ u$ A0 r5 o' @3 u
Format/Info                              : Digital Theater Systems! t/ S7 ^% i/ Y
Codec ID                                 : A_DTS
* y9 a) `) M8 m. Z! S9 T0 iDuration                                 : 1 h 58 min6 H6 h: c4 K8 _* z# C6 s) H
Bit rate mode                            : Constant
0 C7 |3 }0 x: D5 f% c  @0 P4 DBit rate                                 : 768 kb/s
. O( f8 u: G* m/ O: d; W* kChannel(s)                               : 2 channels
# N/ X  I0 z& oChannel layout                           : Lt Rt' N/ E- t  t$ C6 L. \$ d$ _! |5 k
Sampling rate                            : 48.0 kHz8 O9 b, r7 n& j6 z
Frame rate                               : 93.750 FPS (512 SPF)8 `1 G& e- z2 Z3 F1 O! G
Bit depth                                : 16 bits
* S1 p9 K" w( H* v' K2 d4 ZCompression mode                         : Lossy
. y6 c& s. s1 u( Y) _Stream size                              : 650 MiB (1%)3 N3 Z. ]6 s  _  M3 |# W/ C# E0 w
Title                                    : DTS 2.0; d% B2 _7 i, a# U) a4 t& l
Language                                 : French
1 p" [/ o- d) Z! ]' d+ K0 H4 TDefault                                  : No: L% [2 t; `! R9 ?  l: r" u* M  f
Forced                                   : No1 J& J7 E6 l( j% V. P
Original source medium                   : Blu-ray
  A* L5 L, z% Q. O& E* Q9 j* J+ X  F" e% U; z7 q+ P* }8 I
Text #13 ]' N# W, g0 ?# M# @' {
ID                                       : 6
) _$ F, J. `0 d4 p8 R+ xFormat                                   : UTF-8/ k; p& _. N* Q7 W& E9 T- @
Codec ID                                 : S_TEXT/UTF8- {  ?& q' o/ a: w* f
Codec ID/Info                            : UTF-8 Plain Text
# P( V) u( F% dDuration                                 : 1 h 50 min8 r8 I  i& P/ [( D/ e
Bit rate                                 : 55 b/s
+ K" ~# J% W, K3 XCount of elements                        : 1402- m! Z$ ~7 V: S5 c
Stream size                              : 45.3 KiB (0%)
2 `' r+ v, |: `- O) \+ JTitle                                    : SRT! ]. i9 w1 E+ T4 M; l2 M
Language                                 : English; |: |) c! \4 V1 {$ k/ t
Default                                  : Yes' j1 \) ?, p! C2 W2 S
Forced                                   : No
" m- m( k- g3 m# F7 b! }/ ]
# q) Y4 r, G& }" xText #2
1 I; g$ Q  m1 p5 a) e* T% FID                                       : 7. v* J. C. {+ w3 }7 j! A
ID in the original source medium         : 4768 (0x12A0)
1 h& o: q: Q1 H4 U3 \Format                                   : PGS: ]- e) C  A& Z8 E" D
Muxing mode                              : zlib
. R$ v, ?) \8 {- j  c  l3 WCodec ID                                 : S_HDMV/PGS% ^" X; ?/ Y" ?% A; X
Codec ID/Info                            : Picture based subtitle format used on BDs/HD-DVDs
* o% L! J. L/ K6 d" Z; ODuration                                 : 51 min 29 s
" K2 R5 e9 O" p+ bBit rate                                 : 222 b/s
0 n. I0 A& u  T; x$ f- K/ ^/ O$ B% fCount of elements                        : 14
" F3 O$ ?+ R  L) O# l9 `  \$ I# l% CStream size                              : 84.0 KiB (0%)
- _$ _  h, _8 ^6 }Title                                    : FORCED) g- h3 A2 J: Z
Language                                 : French6 _3 K" O- A/ U' K% F. X
Default                                  : No
% A! r+ D' J* @  ^5 e' \* pForced                                   : No. }( @" C$ r) l  h0 Q
Original source medium                   : Blu-ray
/ h) {% b0 K" t* y8 L6 @% L( y, q+ l# h1 ?3 ^
Text #33 A% M' h7 h$ L
ID                                       : 8* z) ]4 H# v( l
ID in the original source medium         : 4769 (0x12A1)
  G- I+ j. G$ h$ |6 ^4 w! ]. CFormat                                   : PGS& J) y4 d2 g" z5 M& Y
Muxing mode                              : zlib
9 E5 W/ o! a8 v) WCodec ID                                 : S_HDMV/PGS
7 \) M" {$ K0 d0 O0 u- W7 |Codec ID/Info                            : Picture based subtitle format used on BDs/HD-DVDs
8 ^* |5 ^: s& u! e8 VDuration                                 : 1 h 57 min
3 s) \5 M, Z( ^& Q! y* C* _. PBit rate                                 : 22.7 kb/s
2 b* x: L7 _: G9 V9 O/ _Count of elements                        : 2982
' @6 L" X) g$ ?( EStream size                              : 19.1 MiB (0%)
4 G$ ]& w$ Z  b9 T) WLanguage                                 : French
  O  X; S* h4 N: M6 ^Default                                  : No+ A2 H* Y7 X: e, r' e
Forced                                   : No
/ A8 Y! c/ O: K( BOriginal source medium                   : Blu-ray, Q* h8 F4 |' k9 D7 i6 l" p" [  w

, g& D5 b9 n& j: u) O& z( T3 TText #4
9 @: M, ^2 o% d0 P+ MID                                       : 9
7 J* ]3 q. |6 O, R1 b3 i4 Q  lID in the original source medium         : 4770 (0x12A2)! V2 E# m5 Q' L
Format                                   : PGS
, u5 O# t5 e8 P! U- |. OMuxing mode                              : zlib
1 F4 c7 H( h# E; a7 jCodec ID                                 : S_HDMV/PGS' J0 u+ {( _" @/ e8 M+ r+ @
Codec ID/Info                            : Picture based subtitle format used on BDs/HD-DVDs
- w+ N2 o  I% L4 nDuration                                 : 1 h 58 min! }; T0 z# P- h9 J5 X. ~" x
Bit rate                                 : 29.6 kb/s
5 j0 u- S& ^3 |3 f3 CCount of elements                        : 4104( z( \: g+ f0 U. _
Stream size                              : 25.0 MiB (0%)
0 ^0 {# N- P, ?8 q" ?5 E6 FTitle                                    : SDH- Q: E* P% B" k( N: g
Language                                 : French
0 i$ h6 v4 m! M$ J2 @Default                                  : No
& l% E  A5 m. o8 h6 `; yForced                                   : No4 Y1 k  S( `2 h3 K& D* X2 R, \
Original source medium                   : Blu-ray
% Q! v( U9 |; S7 i1 E5 |! s# f, y$ O& t* M) \, @! [
Menu" w$ x) F! G, I; |
00:00:00.000                             : en:Chapter 01
3 z/ d5 F4 S$ M1 {: `, |. G00:05:38.750                             : en:Chapter 022 ~& \; r+ Q1 i- v7 m  k
00:12:51.083                             : en:Chapter 03
* j! H4 l. w4 R* o00:19:34.333                             : en:Chapter 04
) L0 q; [6 P3 b00:25:38.541                             : en:Chapter 05$ v3 W" q1 P5 s9 }5 l# b
00:31:49.208                             : en:Chapter 06  m+ O6 V. M' O* s
00:38:14.916                             : en:Chapter 07: k# C( Q1 e; g$ g% d2 ^
00:47:14.833                             : en:Chapter 08! l# h+ i8 l: l% z" h
01:02:21.208                             : en:Chapter 09  D- o5 I+ L* s& C5 L9 a
01:10:15.750                             : en:Chapter 10
; J$ ]/ i, r, T( A01:17:16.291                             : en:Chapter 11
4 G! X; f7 {7 G3 J01:24:52.333                             : en:Chapter 124 M* p+ b8 f1 W5 A" ?4 `
01:31:42.083                             : en:Chapter 13
' L& r6 `2 N5 j/ C' i# t/ E/ l01:40:03.416                             : en:Chapter 14
9 v# b1 |- x4 W$ T- C( f' x: Q% w01:46:51.333                             : en:Chapter 15! x: O) Q5 r7 b1 P% R+ S$ N) E
01:52:40.625                             : en:Chapter 16

- I' u( @) d1 D, U7 J- ]
游客,查看本帖隐藏内容请回复 | 加入VIP贵宾可免积分免回复 了解详情 | 还不是会员:点击获取邀请码 Invitation Code

0

主题

53

帖子

319

积分

Sponsor

金币
52 枚
体力
145 点
xaland 发表于 2021-11-3 22:49:30 | 显示全部楼层
新片,不知道怎么样
8 n4 i; C( J- e8 O; c) _! c& N4 F

77

主题

3618

帖子

1万

积分

Sponsor

金币
1918 枚
体力
5205 点
lanpanshuma 发表于 2021-11-4 07:49:22 | 显示全部楼层
Bluraycd又有新电影发布了,激动中……!7 u( q0 e; f8 ]9 U/ z
Blu-ray Film Forum: I will always support you!) ^1 o( W( e5 L1 m" S

283

主题

586

帖子

3512

积分

Sponsor

金币
571 枚
体力
1725 点
zhangwenbin 发表于 2021-11-4 08:43:33 | 显示全部楼层
[4K极清电影] 人之怒/运钞车/玩命钞劫 [4K REMUX无损版] Wrath of Man 2021 2160p BluRaycd REMUX HEVC DTS-HD MA 7.1-FGT 72.22GB
蓝光论坛里

283

主题

586

帖子

3512

积分

Sponsor

金币
571 枚
体力
1725 点
zhangwenbin 发表于 2021-11-4 08:50:59 | 显示全部楼层
[4K极清电影] 人之怒/运钞车/玩命钞劫 [4K REMUX无损版] Wrath of Man 2021 2160p BluRaycd REMUX HEVC DTS-HD MA 7.1-FGT 72.22GB
蓝光论坛里

4

主题

1240

帖子

3946

积分

Sponsor

金币
43 枚
体力
1426 点
QQ
davidqin 发表于 2021-11-19 08:48:58 | 显示全部楼层
楼主发贴辛苦了,I*老*虎*U!2 u, D& I, V+ d5 ]
Thank you for sharing such a good resource polite reply, very sorry for myself!5 X8 G% t* o$ }

0

主题

25

帖子

232

积分

Sponsor

金币
121 枚
体力
60 点
青青翠竹 发表于 2021-11-22 12:57:27 | 显示全部楼层
Bluraycd又有新电影发布了,激动中……!
9 l- l' ?" j( n/ u+ {Blu-ray Film Forum: I will always support you!$

0

主题

25

帖子

232

积分

Sponsor

金币
121 枚
体力
60 点
青青翠竹 发表于 2021-11-22 13:06:58 | 显示全部楼层
人之怒/运钞车/玩命钞劫 [4K REMUX无损版] Wrath of Man 2021 2160p BluRaycd REMUX HEVC DTS-HD MA 7.1-FGT 72.22GB: x* h8 u3 L/ K- t2 ?3 [
https://forum.bluraycd.com/thread-52122-1-1.html. ^9 o/ \  n  Y; z
(出处: BluRayCD Forum): W6 i1 e0 }. H3 W. F

0

主题

116

帖子

754

积分

VIP Primary

金币
191 枚
体力
334 点
QQ
yu592102540 发表于 7 天前 | 显示全部楼层
感谢楼主分享 谢谢

2

主题

358

帖子

2052

积分

Sponsor

金币
368 枚
体力
1016 点
QQ
ccfys888 发表于 5 天前 | 显示全部楼层
这么好的帖子不回对不起自己!4 F* i- R0 E# J5 |/ t7 L
The decisive Replies sink is I get the sinking feeling great sense of accomplishment!( ^  h& z  }* B# Z8 U/ ^

本版积分规则

小黑屋|Archiver|蓝光电影资源网

GMT+8, 2021-12-3 00:25

Copyright © 2001-2022, Tencent Cloud.

快速回复 返回顶部 返回列表