BluRayCD Forum

 找回密码
 立即注册【分享大片】
查看: 21|回复: 2
收起左侧

[蓝光原盘] 爱之咒:黑色婚礼 [REMUX无损版] Dark Spell 2021 RUSSIAN 1080p BluRaycd REMUX AVC DTS-HD MA 5.1-FGT 27.48GB

[复制链接]

8213

主题

8407

帖子

6万

积分

Forum Moderator

金币
11998 枚
体力
10677 点

卓越贡献勋章

24小时 发表于 2021-7-22 08:59:04 | 显示全部楼层 |阅读模式
01.jpg " I9 H2 L: X+ y7 K

8 w& ]/ `+ I5 q◎译  名 爱之咒:黑色婚礼/爱的咒语/ \0 Q% D) m$ F! k- c/ r: J4 d. T
◎片  名 Приворот. Черное венчание / Privorot. Chernoe venchanie / Love Spell. The Black Wedding / Dark Spell
+ U0 W! l) ^; F; M◎年  代 2020
; w  U' x/ C3 p6 c◎产  地 俄罗斯9 y2 V7 @$ Z$ {
◎类  别 爱情/恐怖2 `& ?# f9 A" W4 u: F1 y2 u( w$ L: p
◎语  言 俄语0 E9 a# a7 r2 s8 X9 e8 {
◎上映日期 2021-02-18(俄罗斯)
' E7 Y. ^3 B& |. e% Z: k, F# W◎IMDb评分  4.2/10 from 197 users
1 w2 A2 n8 d2 G) E& B; c9 l- q◎IMDb链接  https://www.imdb.com/title/tt12057168/
8 v6 Y% M5 v2 C. y◎豆瓣评分 4.7/10 from 141 users# f9 O( j& l: K  o
◎豆瓣链接 https://movie.douban.com/subject/35138026/5 V2 T; q, t  L$ i6 A
◎文件格式 x264 + DTS
$ ?1 d2 R8 ^) p2 w( U◎视频尺寸 1920 x 1080# x/ y* V7 I: |& F/ q; F
◎文件大小 1DVD 27.48 GiB# r4 e- @2 L: N* W9 a6 t
◎片  长 1 h 32 min
9 m( W. U& y& e% L% h; \◎导  演 Svyatoslav Podgaevskiy% ]- E/ {* |* ^$ m+ n9 F
◎编  剧 Svyatoslav Podgaevskiy
2 N+ `( q# |+ g  z; j; t       伊凡·卡普托诺夫 Ivan Kapitonov
: r! t4 S3 c# B7 `1 J; l       纳塔莉亚·杜波瓦亚 Natalya Dubovaya
0 \1 p) h  M  P  {( I* z. u  D: ?◎主  演 亚娜·延扎耶娃 Yana Enzhaeva8 [* d- ?* \% i& \( f
       康斯坦丁·贝洛沙普卡 Konstantin Beloshapka
/ k, V8 w$ b- e- ~, k8 B7 Y' Z       Ilya Yermolov8 j/ ^2 i- Q5 N* d
       Varvara Borodina' {( C% Z" a4 ], i7 a9 ?7 P
       伊格·克里普诺夫 Igor Khripunov0 L( T) Y% ]2 H7 K% ~1 I; u, K
       萨比娜·阿赫梅多娃 Sabina Akhmedova) G. @- }, {: \# j1 N
       Kristina Marandy- b/ s  e/ v8 I/ S; X# }2 z
$ u/ G2 _7 P$ T4 T8 U/ A7 N$ ]
◎标  签 俄罗斯 | 恐怖片 | 爱情 | 恐怖 | 2021 | 2020( t4 S8 k. r& Q7 z9 ]

  ]: K6 M: L, f# n: N8 Q6 n! f◎简  介     
5 ?# Z; a& F* C. E- q  G5 d3 P+ i  C! W4 C1 L
  “黑暗咒语”讲述了一个名叫珍雅的女孩因爱上离开她的丈夫而痛苦不已的故事,所以她决定把他带回来。绝望的女主人公施放了一种叫做“黑色婚礼”的咒语,这是一种魔法仪式,以其强大的力量和不可逆转性而闻名。仪式结束后,她心爱的丈夫回来了,尽管他的爱变得更像是一种痴迷:他甚至准备杀死珍雅,以免把她给任何人。当疯狂的丈夫死了,咒语就不会停止:因为即使死亡也不会把那些被黑婚恶魔订婚的人分开。& c0 t; x- T6 j
4 j, `1 ]5 T+ ?* W3 b; C6 }) ?
  Dark Spell is a story about the girl named Zhenya who suffers from being in love with her husband that has left her, so she decides to bring him back. Desperate heroine casts a spell called "Black Wedding", which is a magical ritual known for its great power and irreversibility. After the ritual, her beloved husband comes back, although his love becomes more like an obsession: he is even ready to kill Zhenya, so as not to give her to anyone. When the maddened husband dies, the spell does not stop: because even death will not part those who were betrothed by the demon of black wedding.2 p- v4 }! ?$ g3 s) H) o3 y
Video
7 P' A; X4 I# \( y5 mID                                       : 1
- L, X1 `4 O2 x7 FID in the original source medium         : 4113 (0x1011). K$ S& [1 O9 @1 _" J, T* E
Format                                   : AVC
9 L2 R' {% y8 s; M4 |) t" P0 ZFormat/Info                              : Advanced Video Codec% r/ b8 o' L8 W2 E+ a/ ^) r( a
Format profile                           : [email protected]- T- |) X& g' e
Format settings                          : CABAC / 4 Ref Frames
" \$ l- q2 v! r" v$ BFormat settings, CABAC                   : Yes4 b1 X+ j  `6 A- ?* k! V. e2 H7 p
Format settings, Reference frames        : 4 frames
% ]! k8 n: W# [1 j  x; a+ `Codec ID                                 : V_MPEG4/ISO/AVC
" R3 I  e- T* H. B: q, JDuration                                 : 1 h 32 min
" e  \7 U; s6 a2 jBit rate mode                            : Constant
& `- X$ w% M/ @8 n+ g6 ~9 JBit rate                                 : 31.8 Mb/s
& L4 B# R0 m# G; c- v4 C$ QNominal bit rate                         : 34.0 Mb/s
: M6 R) N% L+ RWidth                                    : 1 920 pixels
/ ~) O. _- L: s# @Height                                   : 1 080 pixels5 S& x1 k; u" @3 ~
Display aspect ratio                     : 16:9
9 g) M% v+ h: i/ N+ f: E9 lFrame rate mode                          : Constant
# b0 i" ]8 l+ g" k+ A, g! XFrame rate                               : 23.976 (24000/1001/189150) FPS
/ X0 O/ c8 X$ r! b2 y8 ]. x3 \Color space                              : YUV
0 I7 {; ~5 Y$ G9 ]# B8 BChroma subsampling                       : 4:2:0
1 E  _; U  Q! B( u/ x/ n; }Bit depth                                : 8 bits0 E) x- k. c0 ?( {& s2 j) {
Scan type                                : Progressive, R! H7 d1 }1 G- F  |  \
Bits/(Pixel*Frame)                       : 0.639
* d* t( [1 B1 F( ?6 zStream size                              : 20.6 GiB (75%)
( L) n8 L' g  h: ATitle                                    : Dark.Spell.2021.RUSSIAN.1080p.BluRayCD.REMUX.AVC.DTS-HD.MA.5.1-FGT) E8 R1 n( ?7 p6 b9 ^
Language                                 : English! A8 f, L/ M" @8 h& G1 e  A! {2 b. I+ M, h
Default                                  : No
6 I: M  X9 n' O" i* MForced                                   : No
" ^7 Q4 R* L1 p/ B. B) jOriginal source medium                   : Blu-ray
" _7 G2 O' M2 B7 x' T0 a; B0 m# q- s1 n' w1 x8 x! E: w8 v
Audio #1
! t5 P% o$ w3 Y% FID                                       : 2
6 }$ j7 ]$ D+ y/ A( R  Q* yID in the original source medium         : 4354 (0x1102)
$ @/ a& E2 q' D* W3 ?! DFormat                                   : DTS XLL3 x/ ^9 w3 O# n+ s) d) [0 q: r* D
Format/Info                              : Digital Theater Systems
) r6 Y0 ?. s+ U% E  [Commercial name                          : DTS-HD Master Audio/ t: B9 J% ?5 T: o& D" d6 a7 ?! g
Codec ID                                 : A_DTS: T" u. i: a0 L- C4 c
Duration                                 : 1 h 33 min/ @+ {  U" _* C! `( t; r& T
Bit rate mode                            : Variable
0 e5 i) [. \5 s, D7 l' T" f6 hBit rate                                 : 2 823 kb/s# S6 `3 @) L2 r3 O4 g+ v
Channel(s)                               : 6 channels& D0 V% ~! Z2 M3 \9 ~6 N. L
Channel layout                           : C L R Ls Rs LFE& j( d, y/ m2 J& \0 H$ W- {( ]
Sampling rate                            : 48.0 kHz
! t5 D9 s$ @5 v5 u8 QFrame rate                               : 93.750 FPS (512 SPF)
9 ^5 A6 Z! c' r4 SBit depth                                : 24 bits8 v! n- o) u! s/ z- a* k
Compression mode                         : Lossless* A$ L; F2 ~" f+ \) c
Stream size                              : 1.83 GiB (7%)
& `$ @0 h, \- O4 I/ zTitle                                    : Dark.Spell.2021.RUSSIAN.1080p.BluRaycd.REMUX.AVC.DTS-HD.MA.5.1-FGT
9 ?7 {- W: @) P: q+ V0 RLanguage                                 : Russian5 {; q8 o  [! h3 E2 ?
Default                                  : Yes
7 F8 H1 G1 l  r/ ], B) u# RForced                                   : No
, s+ P/ @# a1 ~6 w5 f: QOriginal source medium                   : Blu-ray
: m5 L9 W- T4 E
/ ], q, V4 ?$ N2 X3 M: e5 x0 HAudio #2
' y' K) ?. p5 cID                                       : 3% Q9 t3 S4 l$ r
ID in the original source medium         : 4355 (0x1103)0 g! _3 i& M$ r& S  x7 R
Format                                   : DTS XLL
" B2 G: P+ D  `* W5 FFormat/Info                              : Digital Theater Systems, k3 D: d  P! [2 b& K
Commercial name                          : DTS-HD Master Audio
1 e! l3 d1 ?0 J& g5 iCodec ID                                 : A_DTS
: e3 \7 T8 r% w) aDuration                                 : 1 h 33 min
- L0 f9 s1 @& u  B( S1 y: v& ]% f9 \Bit rate mode                            : Variable+ m9 h* _6 P+ S
Bit rate                                 : 1 695 kb/s
1 x& p! i* E2 y' a& lChannel(s)                               : 2 channels; @5 F6 O- D+ c9 H, r
Channel layout                           : L R7 K! d1 b1 {; |: W
Sampling rate                            : 48.0 kHz
/ O* m( R8 s$ E6 @& j" X* \: JFrame rate                               : 93.750 FPS (512 SPF)
! q; d- a( @9 A! EBit depth                                : 24 bits( H4 ~/ n6 _6 h7 G0 w
Compression mode                         : Lossless
$ k2 n2 \: W6 e: [/ O/ \8 iStream size                              : 1.10 GiB (4%)
- C2 }5 n  @6 U$ H1 }* d/ o0 RTitle                                    : Dark.Spell.2021.RUSSIAN.1080p.BluRaycd.REMUX.AVC.DTS-HD.MA.5.1-FGT
5 X  `3 W; u* W3 e2 ]" a0 i* K& ^Language                                 : Russian( R2 f; D; l! ]
Default                                  : No- w1 V+ l' U+ C, X, x4 L# J" L: Q
Forced                                   : No) \2 c( y8 P5 `9 ^# L3 Z( x
Original source medium                   : Blu-ray9 a( F& R+ p8 A' N0 m
7 i: x( L5 s3 Q9 W! H
Audio #3! E1 @7 B$ u# H+ q" ?
ID                                       : 4
$ R" v3 i' W+ z' F: ]% l% f. w5 W9 e& MID in the original source medium         : 4352 (0x1100)
' `! [. r; S" K% O" mFormat                                   : DTS XLL6 e# Z" @6 |' |' w5 d4 h5 m
Format/Info                              : Digital Theater Systems
% T1 d. N7 v1 ?. ^$ C/ I7 oCommercial name                          : DTS-HD Master Audio) s0 l& k9 Y0 t9 i# J9 p( V' {6 w- `
Codec ID                                 : A_DTS% |: A6 Q( Z2 y! U0 X  }+ P: N
Duration                                 : 1 h 33 min0 {% E' O, H/ |/ i! w  x; {3 Y
Bit rate mode                            : Variable- I, e8 l, D. o. j) f* P
Bit rate                                 : 2 818 kb/s4 T: d6 n- O) {- n
Channel(s)                               : 6 channels
1 |/ \/ n% S. e0 v6 e7 ~* G1 AChannel layout                           : C L R Ls Rs LFE9 F/ H( [) x- Z% F4 _
Sampling rate                            : 48.0 kHz: d1 K+ t% b, E1 T1 @- G' T& M
Frame rate                               : 93.750 FPS (512 SPF)3 K- j& b7 Z" ~+ Z" C
Bit depth                                : 24 bits
. P5 T% U. g7 u6 y. dCompression mode                         : Lossless
/ H5 n; Q/ J% m  ?& g; |0 jStream size                              : 1.83 GiB (7%)
  D8 V( M% s( v+ V& dTitle                                    : Dark.Spell.2021.RUSSIAN.1080p.BluRaycd.REMUX.AVC.DTS-HD.MA.5.1-FGT( P' u$ J4 v* [# h" J
Language                                 : English
, i  e  g4 z( e. L* [- nDefault                                  : No
- P4 h' M2 }6 X# {. C, |/ j& w0 FForced                                   : No
+ C" L8 p/ N6 H  wOriginal source medium                   : Blu-ray. b! p7 V) _' n: v& u

( M( h5 e1 K% |/ I- B# @. kAudio #4
6 Z, N( \( A1 X3 C+ pID                                       : 5
: w/ J& b$ w4 [* \; ^; iID in the original source medium         : 4353 (0x1101)- \2 i" {; K, U  I5 c2 O
Format                                   : DTS XLL
! a( j1 N* c2 O, ^+ o0 q6 H$ a6 y( UFormat/Info                              : Digital Theater Systems
0 O0 a* a$ z/ fCommercial name                          : DTS-HD Master Audio" \7 D& M4 Q1 P2 V7 M5 Z) T
Codec ID                                 : A_DTS
. C5 ~( h  j" l4 LDuration                                 : 1 h 33 min" p! F$ Q& Z2 E1 }; v- u" \6 I, G
Bit rate mode                            : Variable
& i9 S' P- h4 a) }" |Bit rate                                 : 1 643 kb/s3 I9 C* J# x2 x+ l
Channel(s)                               : 2 channels& I$ O0 W. [: A- A- V; [# Q) n
Channel layout                           : L R4 h3 [# V& A$ Q' M) j8 D$ }/ b0 h
Sampling rate                            : 48.0 kHz
: o/ s* h% Z$ D4 E4 s' b& v; dFrame rate                               : 93.750 FPS (512 SPF)6 b* q) ~, A9 T4 G! k; w+ u7 Z$ @0 I
Bit depth                                : 24 bits1 O$ i1 p8 [$ `. f3 D' C- A& B
Compression mode                         : Lossless
' s) u# [& F8 I9 M5 s% E9 r( d; A. uStream size                              : 1.07 GiB (4%)% f4 u2 P; x7 Z  ~2 y1 f+ `. A
Title                                    : Dark.Spell.2021.RUSSIAN.1080p.BluRaycd.REMUX.AVC.DTS-HD.MA.5.1-FGT
8 z! w; u+ s9 c  U' {! mLanguage                                 : English9 ~( I/ u# e" f6 Q4 _  Y! l: I
Default                                  : No  A$ {$ v1 ]+ R* X0 L  q
Forced                                   : No/ M2 z' X9 Y& C& B: D, y
Original source medium                   : Blu-ray
3 ~, v/ W# E. n0 g! y  B# [/ n$ w7 y8 _+ I% `) g
Audio #53 Y) t& I) v3 |  c! O$ e5 t
ID                                       : 65 A' S" a% K. b
ID in the original source medium         : 4355 (0x1103)
. v: w) q% {% J/ h6 PFormat                                   : DTS0 a$ Z' I( E: h4 U
Format/Info                              : Digital Theater Systems2 E( Y; B8 |9 n; l
Codec ID                                 : A_DTS% X2 _9 b. F% z  D
Duration                                 : 1 h 33 min1 S# _" L* z3 K( n8 e& {
Bit rate mode                            : Constant6 \% D$ X& [6 ~2 H# v- h
Bit rate                                 : 1 509 kb/s  g2 Q( l1 H. s. j" a" k
Channel(s)                               : 2 channels
9 i$ G+ d; P; x+ R* M( |Channel layout                           : L R6 A/ x1 S  d0 H6 o7 G! W
Sampling rate                            : 48.0 kHz2 D# f) Z$ y# z% ~
Frame rate                               : 93.750 FPS (512 SPF)
4 h) r4 f# M: \/ Y) KBit depth                                : 24 bits
6 Y& Q% E! W% m& [0 ?Compression mode                         : Lossy% W6 M% p* ]/ t7 v' H$ `
Stream size                              : 1 004 MiB (4%)$ i! i1 l& W6 B$ I7 d
Title                                    : Dark.Spell.2021.RUSSIAN.1080p.BluRaycd.REMUX.AVC.DTS-HD.MA.5.1-FGT/ L/ S& C, c2 r; W0 ?% Z4 J! y
Language                                 : Russian
$ f! ]7 `& g8 s$ A6 H1 C4 DDefault                                  : No
9 ^& A' `0 Z( t* b, q9 J. h, d' kForced                                   : No3 L, R0 {6 x" [( c5 a2 _& j
Original source medium                   : Blu-ray
  W% Y0 {- C: y5 ^) k3 K0 c/ ~2 c* A1 l; j. U: l4 U
Text #1
9 ?* p! c9 c& D7 s! R; P" o% N, T( zID                                       : 7
% c/ D$ ^. y, e  V, l3 O. @6 rFormat                                   : UTF-8- G0 W& E7 Q5 l
Codec ID                                 : S_TEXT/UTF8* w7 B- F2 o$ ?: Z# `$ E  d, i
Codec ID/Info                            : UTF-8 Plain Text
/ X! P- a1 u& V* {2 c9 a9 gDuration                                 : 1 h 26 min( _& l1 |3 m5 p0 X' v: X
Bit rate                                 : 24 b/s
# O9 S- t, b: a3 F4 `( E+ i( ACount of elements                        : 583
  W0 d/ c0 N( cStream size                              : 15.5 KiB (0%)
/ k7 |8 ~8 s4 n; G: O4 Q. kTitle                                    : SRT
. ?/ i: K. j9 S8 M9 Q, N3 CLanguage                                 : English
/ T  n3 G) R0 C# E' aDefault                                  : Yes( G9 i" m' v# t
Forced                                   : No) r5 {0 c2 \, g/ j+ G
1 e' R& Y3 \( n5 Y
Text #2/ k' k6 t0 ?& g' s2 U0 X, P. E
ID                                       : 8
% n2 z4 P4 J) P/ H  WID in the original source medium         : 4608 (0x1200)
' p4 ?- k( x  SFormat                                   : PGS) u. w3 E: ?+ |" d8 s: Y: o' r
Muxing mode                              : zlib
! Y  ?2 Z0 `3 j/ nCodec ID                                 : S_HDMV/PGS- A6 t$ e2 @; d7 Q
Codec ID/Info                            : Picture based subtitle format used on BDs/HD-DVDs
5 Q) w% D* @, k* w" _6 dDuration                                 : 1 h 30 min( ^0 F  `0 W% K# K$ {$ e
Bit rate                                 : 21.2 kb/s
, G* X6 o$ s( R7 \" K) u0 UCount of elements                        : 1856  u5 o, g) ~: Z: g' G
Stream size                              : 13.7 MiB (0%)
# U3 j9 M. p' j) ]3 lLanguage                                 : English9 h) N  W  H9 ^1 `, B; k4 H
Default                                  : No
/ P4 K$ l9 x* ^8 jForced                                   : No* V1 p( U5 f6 o( I
Original source medium                   : Blu-ray( t1 q9 ^7 N. c; O$ q7 A$ m
6 z( n. o. P! d8 n* V
Text #3
: D$ J9 }/ W. ]9 n4 ZID                                       : 9
/ k! }$ q5 m2 H5 b3 fID in the original source medium         : 4609 (0x1201)
: n" D9 |( V/ [. `0 u% h: ~3 AFormat                                   : PGS) X5 p& j: g9 _7 p1 `
Muxing mode                              : zlib
6 X! T- L+ v  A5 |Codec ID                                 : S_HDMV/PGS- c1 n8 L" K1 q$ \3 V' u7 i1 o2 i
Codec ID/Info                            : Picture based subtitle format used on BDs/HD-DVDs# e. q4 h; b$ U0 I
Duration                                 : 1 h 27 min
5 m" D( e2 M- V4 l' _9 oBit rate                                 : 15.2 kb/s
, S2 @+ j2 x+ y8 M7 E5 a/ qCount of elements                        : 1124- H$ S( \4 z" e
Stream size                              : 9.54 MiB (0%)
$ }, i$ u+ |; fLanguage                                 : English
+ `$ e7 ~5 M% D) Z) j) i2 zDefault                                  : No
2 n" B1 |/ T5 k5 O5 r5 V3 bForced                                   : No
+ T4 Q# Z2 @( d, aOriginal source medium                   : Blu-ray
- Y' M2 V5 Z( b
/ c/ _6 ~$ U! E3 q) AText #4
5 p( e. j" q% G! B. ]$ P) UID                                       : 10
# m; i: ?9 G9 hID in the original source medium         : 4610 (0x1202)5 S4 J+ o& k) A3 {& m
Format                                   : PGS* ^. P1 O6 Y2 I# s9 j
Muxing mode                              : zlib' B* {; [* Y" \4 P2 k
Codec ID                                 : S_HDMV/PGS
& F* b  ?0 l* kCodec ID/Info                            : Picture based subtitle format used on BDs/HD-DVDs. K8 X* K, V" \# X& H
Duration                                 : 5 min 57 s  t/ w# _. m0 p$ {+ L! y& U# ^
Bit rate                                 : 304 b/s
: E% _3 H1 O: I7 x& |8 sCount of elements                        : 6
8 C  {1 K: g: _% eStream size                              : 13.3 KiB (0%)
; t  d( C5 X2 s% A2 ]Language                                 : English, Y# ^; [! t% k  Q. |0 j, `
Default                                  : No( c$ \! U$ O8 x4 _! ^
Forced                                   : No
. x( H' h& J$ i5 x. a- yOriginal source medium                   : Blu-ray
+ l3 F$ }) C. n6 ^" [% {! u% n1 j/ p- X8 C! d
Menu
1 C0 q* T' ?9 o, _3 T00:00:00.000                             : Chapter 01
$ |7 W6 Q( @) Q00:08:23.836                             : Chapter 028 ?( ^% W* Q; m& O7 U: \- i7 X
00:18:39.868                             : Chapter 03
7 u% ?; b% X3 g00:26:14.531                             : Chapter 04
2 C5 R) N9 N( k3 d" P) b" X* r00:37:05.723                             : Chapter 05
6 Y. Q* I5 C7 V4 _3 F$ E00:46:39.797                             : Chapter 06+ K/ M- ?* u, u, i. v: {5 f
00:53:58.401                             : Chapter 07* f8 l% P, E4 t2 ?
01:01:38.611                             : Chapter 08% }. {3 K4 h" z+ f. M- [8 B9 l
01:09:25.077                             : Chapter 09
5 w4 m( y: C& i# V( y  Q( k  j, }01:16:48.687                             : Chapter 10
+ m  Q5 M3 j0 l01:22:53.718                             : Chapter 11' h) q' V& I1 I0 L
01:29:11.554                             : Chapter 12
7 U  p' s6 c, J+ V4 G- P& [01:32:58.614                             : Chapter 13

! a/ j& p) ?( B# q9 ~. ~4 H
游客,查看本帖隐藏内容请回复 | 加入VIP贵宾可免积分免回复 了解详情 | 还不是会员:点击获取邀请码 Invitation Code

76

主题

2994

帖子

1万

积分

Sponsor

金币
1440 枚
体力
4226 点
lanpanshuma 发表于 2021-7-22 09:24:07 | 显示全部楼层
这么好的帖子不回对不起自己!
* z1 y! O: {& k$ H6 ^$ |% P  dI love your Blu-ray movies Forum!
  s+ M: B7 x0 X) K5 o. ~$ }

31

主题

1667

帖子

9108

积分

Sponsor

金币
1284 枚
体力
4554 点
QQ
shiji1973 发表于 2021-7-22 17:38:30 | 显示全部楼层
感谢分享精彩电影

本版积分规则

小黑屋|Archiver|蓝光电影资源网

GMT+8, 2021-8-5 22:58

快速回复 返回顶部 返回列表