BluRayCD Forum

 找回密码
 立即注册【分享大片】
查看: 94|回复: 9
收起左侧

[2160P极清] 失控玩家/脱稿玩家 [4K HDR高码版] Free Guy 2021 2160p UHD BluRaycd x265 10bit HDR TrueHD 7.1 Atmos-SURCODE 19.63GB

[复制链接]

6197

主题

6371

帖子

7万

积分

Post Share

金币
14604 枚
体力
20630 点

卓越贡献勋章

黄金嫖客 发表于 2021-10-2 06:22:33 | 显示全部楼层 |阅读模式
$ }8 N3 s$ r  Y6 k: s, k/ w
- K1 }6 R' \- e0 S
◎片  名 Free Guy
2 Z/ b7 B1 g( ~+ u+ J, s◎译  名 失控玩家/爆机自由仁(港)/脱稿玩家(台)/自由之人/自由人/分身人$ D. E, A& U- l9 P# L) k
◎年  代 2021
: ?0 ~7 T2 I$ [( a( ^( U◎产  地 美国/加拿大* j2 y- l$ h- Z% e  j3 o
◎类  别 喜剧/动作/科幻
: T+ [. J& C" T. S6 @% {# d◎语  言 英语
* T# ?0 P  s) B# ~+ ^, ?◎上映日期 2021-08-10(洛迦诺电影节)/2021-08-13(美国)/2021-08-27(中国大陆)
4 h9 o1 Z7 o* }  b0 j2 N! R6 y◎IMDb评分  7.4/10 from 99,756 users
' }# R# k3 Z4 `6 ^3 q* r◎IMDb链接  https://www.imdb.com/title/tt6264654/9 Q; T, ?6 J) x5 e
◎豆瓣评分 7.7/10 from 400,941 users! y& C8 g9 `2 A' c- S! Z
◎豆瓣链接 https://movie.douban.com/subject/30337388/7 \( \. X8 X. A$ l/ {8 I) L0 ]
◎片  长 1 h 54 min
0 W+ D3 h" E9 Z" k  ?◎导  演 肖恩·利维 Shawn Levy& E) \8 k3 V+ d, U5 D1 o) b( |9 h* ^
◎编  剧 马特·利伯曼 Matt Lieberman- Q5 p2 r' ?# w# @& @6 t  N
       扎克·佩恩 Zak Penn. t( j! [5 J/ _+ f
◎主  演 瑞安·雷诺兹 Ryan Reynolds
, R- n. j  g$ q) |1 f       朱迪·科默 Jodie Comer1 }, ^; m; k" j, h/ @
       乔·基瑞 Joe Keery
; l7 n: t7 v0 S( j       里尔·莱尔·哈瓦瑞 Lil Rel Howery0 e4 j/ N7 z6 _
       塔伊加·维迪提 Taika Waititi
  g$ X: G- v- a+ L       乌特卡什·安邦德卡尔 Utkarsh Ambudkar. @3 c5 p+ C9 x" d5 T  Z
       查宁·塔图姆 Channing Tatum
" u4 i* L+ E; M; Q       休·杰克曼 Hugh Jackman
, n& I1 t8 L# ~" d9 w7 r- K/ U/ J       道恩·强森 Dwayne Johnson
$ ~$ \- j- k8 D& U% J  S       克里斯·埃文斯 Chris Evans% y0 v' y: ?( L6 v6 x: o/ S5 X
       约翰·卡拉辛斯基 John Krasinski4 M0 J5 q7 u$ |1 M. Y
       蒂娜·菲 Tina Fey9 q9 z( y9 c% g6 L$ j* E" B
       卡米尔·科斯塔克 Camille Kostek
. w$ B; Q3 O" N& o. Q8 y3 V       布丽特妮·欧德福特 Britne Oldford6 x' N5 z3 P) g  V* F7 q
       肯尼斯·以色列 Kenneth Israel
; Q3 a" |4 n7 K& n" b, w: M       亚历克斯·崔贝克 Alex Trebek
( L7 E- z' _2 {* N1 @, N3 z- l       劳拉·斯宾塞 Lara Spencer
2 M( X4 i& w. @, H0 u       马修·卡德罗普 Matthew Cardarople
0 A% |6 |5 V$ l4 Z       迈克尔·陶 Michael Tow
& a8 C1 B) G4 T$ I       野村祐人 Eugene Nomura
! H* F& C  U/ O& t0 `       Raj Jawa Raj Jawa3 J' C$ T% W! b8 \
       何塞·冈斯·阿尔维斯 Jose Guns Alves
, _+ F3 z- m1 g: x8 `0 C% u       欧文·伯克 Owen Burke
: R8 n$ R. y: E! _$ G       加布里埃尔·洛莱斯 Gabrielle Lorthe/ t+ y) o/ A- F( b2 v+ f. F' H
       雷吉纳·托芬 Regina Taufen7 U/ V4 d" I8 B5 O
       珍妮尔·费格利 Janelle Feigley
$ d, r) N0 R& Y       泰特·弗莱彻 Tait Fletcher: p  C+ [% U% Q3 j
       香农·哈特曼 Shannon Hartman
1 ^0 J) Z5 P. V, H, `       金伯利·豪威 Kimberly Howe; Y2 W, r0 Q% d  J0 c0 }+ k9 C" H
       亚伦·W·里德 Aaron W Reed) \0 G, W$ a: y7 |# v# G! V" q* @
       阿纳斯塔西亚·齐卡那瓦 Anastasia Tsikhanava
( q; v' S& d9 x; \  B       大卫·莫威克 David Morwick  _8 A# X* j) ?) P
       阿德里安·M·蒙波因特 Adrian M. Mompoint$ ]3 C  l, E5 e/ C/ f
       多梅尼克·阿尔迪诺 Domenic Arduino2 E" A# x9 v! k3 s- L; |& n

  c2 U: H# X' U◎标  签 科幻 | 游戏 | 喜剧 | 搞笑 | 美国 | 奇异 | 2021 | 冒险
! D9 S, o9 ^0 w" [+ A+ k# J. x% a: m
! s/ j, T. Z# O- }: j" n◎简  介   9 I) v. j) @7 @0 T% m' O' J

  T" D$ C1 K: z& {  银行出纳员盖(瑞安·雷诺兹 饰)发现自己其实是开放世界电子游戏中的背景角色,于是决定成为英雄,并改写自己的故事。现在,在一个没有限制的世界里,他决心以自己的方式拯救他的世界,以免为时过晚。, E7 Z; m2 I' ]  y7 T

& Y9 r0 |; p- x* y; E  A bank teller discovers that he's actually an NPC inside a brutal, open world Video game.
* l* P: h# t+ e  U. T% k) I
5 R* l5 q2 q' t( z
Video; |* M, l4 o% M6 H: U1 D
ID : 1
! b/ y; Q1 a: }3 e9 }Format : HEVC
, k7 O# B8 @* V* R' w$ [' i+ |Format/Info : High Efficiency Video Coding
* E$ ^% a4 g. y6 F) L3 }5 ~/ e- ~Format profile : Main 10@L5.1@High5 j  h* I. l* @, v2 P$ d) K
HDR format : SMPTE ST 2086, HDR10 compatible
6 g, k" s& N1 g- `5 p) `; jCodec ID : V_MPEGH/ISO/HEVC/ o$ l7 C" ]* k% e: `
Duration : 1 h 54 min
7 b$ i0 j% u) pBit rate : 15.3 Mb/s
; x7 u2 ~* q/ m! oWidth : 3 840 pixels
2 r/ n1 X3 W6 [# bHeight : 1 608 pixels
1 @/ E: i# n; @4 ]Display aspect ratio : 2.40:11 `. T9 j* P& y* ]& v0 }! A
Frame rate mode : Constant! o( B6 s- K. Q1 ~" M$ d
Frame rate : 23.976 (24000/1001) FPS) J- X% Z, S1 J5 ]8 b4 `
Color space : YUV4 J, S1 Q( t& g- p2 N) x
Chroma subsampling : 4:2:0 (Type 2)' M% d" _8 v( y/ o$ ~' l0 V$ e
Bit depth : 10 bits
9 n1 R' v; ^- E% I9 BBits/(Pixel*Frame) : 0.103
2 N2 x! a! V+ V1 S" m2 oStream size : 12.3 GiB (63%)
7 {! S. T& \" O8 zWriting library : x265 3.5+13-4c6880de4:[Windows][MSVC 1929][64 bit] 10bit0 K1 Q# \- O' @/ N
Encoding settings : cpuid=1111039 / frame-threads=5 / numa-pools=32 / wpp / no-pmode / no-pme / no-psnr / no-ssim / log-level=2 / input-csp=1 / input-res=3840x1608 / interlace=0 / total-frames=165401 / level-idc=51 / high-tier=1 / uhd-bd=0 / ref=4 / no-allow-non-conformance / repeat-headers / annexb / aud / no-eob / no-eos / hrd / info / hash=0 / no-temporal-layers / no-open-gop / min-keyint=23 / keyint=250 / gop-lookahead=0 / bframes=4 / b-adapt=2 / b-pyramid / bframe-bias=0 / rc-lookahead=25 / lookahead-slices=4 / scenecut=40 / no-hist-scenecut / radl=0 / no-splice / no-intra-refresh / ctu=64 / min-cu-size=8 / rect / no-amp / max-tu-size=32 / tu-inter-depth=1 / tu-intra-depth=1 / limit-tu=0 / rdoq-level=2 / dynamic-rd=0.00 / no-ssim-rd / signhide / no-tskip / nr-intra=0 / nr-inter=0 / no-constrained-intra / no-strong-intra-smoothing / max-merge=3 / limit-refs=3 / limit-modes / me=3 / subme=3 / merange=57 / temporal-mvp / no-frame-dup / no-hme / weightp / no-weightb / no-analyze-src-pics / deblock=-3:-3 / no-sao / no-sao-non-deblock / rd=4 / selective-sao=0 / no-early-skip / rskip / no-fast-intra / no-tskip-fast / no-cu-lossless / no-b-intra / no-splitrd-skip / rdpenalty=0 / psy-rd=2.00 / psy-rdoq=1.00 / no-rd-refine / no-lossless / cbqpoffs=0 / crqpoffs=0 / rc=crf / crf=12.0 / qcomp=0.60 / qpstep=4 / stats-write=0 / stats-read=0 / vbv-maxrate=160000 / vbv-bufsize=160000 / vbv-init=0.9 / min-vbv-fullness=50.0 / max-vbv-fullness=80.0 / crf-max=0.0 / crf-min=0.0 / ipratio=1.40 / pbratio=1.30 / aq-mode=2 / aq-strength=1.00 / cutree / zone-count=0 / no-strict-cbr / qg-size=32 / no-rc-grain / qpmax=69 / qpmin=0 / no-const-vbv / sar=1 / overscan=0 / videoformat=5 / range=0 / colorprim=9 / transfer=16 / colormatrix=9 / chromaloc=1 / chromaloc-top=2 / chromaloc-bottom=2 / display-window=0 / master-display=G(13250,34500)B(7500,3000)R(34000,16000)WP(15635,16450)L(10000000,50) / cll=0,0 / min-luma=0 / max-luma=1023 / log2-max-poc-lsb=8 / vui-timing-info / vui-hrd-info / slices=1 / no-opt-qp-pps / no-opt-ref-list-length-pps / no-multi-pass-opt-rps / scenecut-bias=0.05 / hist-threshold=0.03 / no-opt-cu-delta-qp / no-aq-motion / hdr10 / hdr10-opt / no-dhdr10-opt / no-idr-recovery-sei / analysis-reuse-level=0 / analysis-save-reuse-level=0 / analysis-load-reuse-level=0 / scale-factor=0 / refine-intra=0 / refine-inter=0 / refine-mv=1 / refine-ctu-distortion=0 / no-limit-sao / ctu-info=0 / no-lowpass-dct / refine-analysis-type=0 / copy-pic=1 / max-ausize-factor=1.0 / no-dynamic-refine / no-single-sei / no-hevc-aq / no-svt / no-field / qp-adaptation-range=1.00 / scenecut-aware-qp=0conformance-window-offsets / right=0 / bottom=0 / decoder-max-rate=0 / no-vbv-live-multi-pass
1 N, R% I/ }" m+ z2 c- f1 aDefault : Yes
3 ^0 B. o) L0 m0 E, B, y  i& d" eForced : No
5 K* i: s' h- T1 C- u/ F" H" TColor range : Limited
4 n7 X5 o8 O9 ~/ s7 F! x) n9 nColor primaries : BT.2020
& d2 Y$ h6 \6 e9 iTransfer characteristics : PQ
& Z/ M, ?1 y2 r; a& i! Q$ i- IMatrix coefficients : BT.2020 non-constant
( r5 A  O' h) Y% z" X7 x% B- [Mastering display color primaries : Display P3
$ t) w' K, F7 q" W4 f+ u, ]& N8 V1 cMastering display luminance : min: 0.0050 cd/m2, max: 1000 cd/m23 T9 Y3 r" @' p" {8 \6 f: l
$ F& ]4 a- ^, d" C
Audio #11 E7 O7 U" M+ T4 {" c
ID : 2" M, m7 h- `& `
Format : MLP FBA 16-ch
3 u7 c( i) i$ w; zFormat/Info : Meridian Lossless Packing FBA with 16-channel presentation
& r! {5 _8 J& y1 ?Commercial name : Dolby TrueHD with Dolby Atmos
: I8 E9 k3 f7 S' WCodec ID : A_TRUEHD
/ V3 S8 G- C9 H/ \7 k! {Duration : 1 h 54 min2 t+ P  E- X! j' Q  [
Bit rate mode : Variable% ?) @. T6 o8 [! I5 V( C1 i
Bit rate : 7 912 kb/s( y# D! B$ \* j) W
Maximum bit rate : 12.9 Mb/s
- O! v/ m2 a! |' e* G& X* dChannel(s) : 8 channels1 K3 t- w: E2 {) G- ?% E6 }
Channel layout : L R C LFE Ls Rs Lb Rb
/ T8 ?9 {. j) a! iSampling rate : 48.0 kHz% F9 @3 y5 x" u2 T
Frame rate : 1 200.000 FPS (40 SPF)
3 c" l8 k1 v$ kCompression mode : Lossless. n. X( _' }3 ?  B% \7 i
Stream size : 6.35 GiB (33%)
4 p# f( t0 e6 ^Title : Surround 7.1
) |/ u" B1 C6 Q0 M+ MLanguage : English1 D! W1 c+ O- u3 Q5 E# s) `
Default : Yes' E( R3 X/ S" t3 {: L2 p
Forced : No$ q; [' i; i0 F% V# D. g. O' z3 b- |
Number of dynamic objects : 13
! u3 ^) |+ |; _3 J# LBed channel count : 1 channel
/ S; a) A5 Z0 @2 e1 U& vBed channel configuration : LFE5 V  `0 a, ]* B! m8 h& z

; i+ m- `+ }8 q+ qAudio #27 Y$ z$ J5 }# a( G2 f/ [
ID : 32 D2 @' }# D+ h/ E6 A" l! \5 n
Format : AC-3, Q: p) w0 K+ [' V; s+ B3 R
Format/Info : Audio Coding 30 r% w1 r+ Z' F5 s, _
Commercial name : Dolby Digital" S: s- r& o/ d0 m3 o$ r9 ~/ X- B- j
Codec ID : A_AC31 l$ w( L) v* J+ v0 v! e  K& k" S
Duration : 1 h 54 min
$ u0 O9 X; s7 t. ]4 u9 r5 x; `Bit rate mode : Constant( V; G( j9 {/ s4 t# f
Bit rate : 640 kb/s. d/ k4 e0 f' t: u+ N: D
Channel(s) : 6 channels6 i* ^9 |, q9 ?6 I9 G. }: x
Channel layout : L R C LFE Ls Rs# g2 l9 U' f6 i8 z* J) y
Sampling rate : 48.0 kHz
! \: \7 T6 P* J+ ^0 y4 V! B3 n1 |* HFrame rate : 31.250 FPS (1536 SPF)
. q5 P$ ]# {. RCompression mode : Lossy
- s' p  }* z$ G- J* U1 vStream size : 526 MiB (3%)
/ f) y6 s' z: UTitle : Surround 5.1
; t$ l, S$ @- w7 f0 LLanguage : English8 y# f- Q7 P, k: r' @+ ]
Service kind : Complete Main
- k9 U( p2 D! T0 M: }5 wDefault : No
- e# g1 l  B1 i  p1 K* ]/ bForced : No' o9 F7 d1 p, \

' S1 v( V; i; h- jAudio #3
  c; e7 U7 u2 I% O7 k: ZID : 4) C5 e. J9 J" P
Format : AAC LC
( u  G6 v# z/ V6 r# lFormat/Info : Advanced Audio Codec Low Complexity
8 M& |2 G. X9 g( F& ECodec ID : A_AAC-22 t$ P6 X  L$ ]' n0 A. w
Duration : 1 h 54 min
1 d" Q! [/ B! }/ {% b' m" g: nBit rate : 119 kb/s% O3 w, k5 b9 ~; m# N! j; Q
Channel(s) : 2 channels2 B& R* ~; @( Q: O! D' k
Channel layout : L R
" W+ H8 S( }5 a- n8 K+ A2 V4 xSampling rate : 48.0 kHz6 w; z+ x% t* h8 o( M+ J0 n
Frame rate : 46.875 FPS (1024 SPF)* j4 ~% S7 O4 {' U9 i- N6 h4 h, I
Compression mode : Lossy
, V+ h1 ^) y% n& M( iDelay relative to video : 9 ms: I1 K! O2 T9 L- I) m  D# t
Stream size : 97.9 MiB (0%). v6 ]6 h7 {. m4 U3 @0 ~/ h
Title : commentary3 S9 L% s! }" I6 `
Language : English
  m+ {. L# H8 `* {& X! c! PDefault : No+ s# L* ]- t: t
Forced : No
' f8 k+ K: p; g; g# P
3 O  {# P" N0 G6 s% P! ?5 DText #1& s8 `1 t' H! N+ U6 I/ o( w
ID : 5
6 L; ~( u4 B% tFormat : UTF-8
  }  ~  F6 Q/ D* ]Codec ID : S_TEXT/UTF8
% A5 K* @/ C  K. i1 l3 ?Codec ID/Info : UTF-8 Plain Text* c  G* o4 n( G+ L2 O7 N
Duration : 13 s 597 ms1 F! z3 ~# h3 r& Q* j5 e7 L/ O6 B/ S
Bit rate : 100 b/s' R& I$ q( ?( K: e* y, @
Count of elements : 6
3 M2 [' S* F% O7 |0 P7 G: G; f& WStream size : 170 Bytes (0%)
% F+ ?2 G5 h/ KTitle : forced
  `; W  g5 H' R1 C6 J9 C: n' eLanguage : English1 l5 d& C3 H% Z4 ~& m+ S
Default : Yes
: ~3 a: Z  p. C# [* [! m" }Forced : Yes3 m4 J7 _. o7 b# d; i
$ q' A/ r6 I7 z  g" _
Text #2$ |' Q2 M4 h2 L/ c
ID : 6* m0 }; o, [  ~/ S) o
Format : PGS
, |1 Q  g. B, }Muxing mode : zlib' I& y' g8 ~2 U; W# v
Codec ID : S_HDMV/PGS
: k. x9 @& k  [% Q5 e+ \5 jCodec ID/Info : Picture based subtitle format used on BDs/HD-DVDs6 a4 x5 c$ O/ x" }( K: [
Duration : 1 h 45 min3 q4 l1 t4 Z" Z+ A2 s
Bit rate : 57.7 kb/s/ x9 r! D- g8 V5 m8 ^5 [
Count of elements : 4270
  }) `* W5 C2 h; x7 `Stream size : 43.6 MiB (0%)
3 n/ h% ?$ ]6 |0 K, f) hLanguage : English) ?, U6 Z/ V$ I
Default : No
6 n, L# U2 E8 hForced : No
; X1 e6 d8 _- p. m0 }/ l; J3 L" y2 L8 l
Text #3
" t3 W" X% W4 L' [ID : 7; ~5 E2 G% Y  \% \# f
Format : PGS
7 [( F6 }) r$ s" K4 T* rMuxing mode : zlib: o, n7 O! V/ @" u
Codec ID : S_HDMV/PGS
2 T. X  [( `5 _Codec ID/Info : Picture based subtitle format used on BDs/HD-DVDs
3 W/ r* A0 [" l8 I  @( O" @Duration : 1 h 53 min
3 q1 Z7 S1 G( O- k6 FBit rate : 33.8 kb/s
/ b7 ^5 H, m3 w6 p0 mCount of elements : 33962 ?: e+ s3 C, b3 P
Stream size : 27.5 MiB (0%)
2 e- ^2 r. A7 ILanguage : French# s; P7 j  i# a! {0 R! m( `* X
Default : No
( _) V( S  G1 K3 i* P& e  s$ o) R% eForced : No
* z( `( x  t4 T  [, I
) R0 m1 Z/ Q8 F4 rText #4
0 W5 w8 x" \" o( e( Y. P8 uID : 8
4 R) ]; N; g# w3 _2 ]Format : PGS
: B; V4 l- @% W" i+ cMuxing mode : zlib1 T, B% u# n6 Q# A! r2 [
Codec ID : S_HDMV/PGS
5 v) i/ C1 [( u6 b7 jCodec ID/Info : Picture based subtitle format used on BDs/HD-DVDs( E; ~% n  X( U/ ?# N" [
Duration : 1 h 53 min
8 ?, Z8 o2 `4 F: v* g6 V" vBit rate : 47.2 kb/s0 D, [8 B2 k, K9 m0 Y7 H8 d4 J
Count of elements : 3796
* N6 u# I- Q/ E: C7 u1 o- IStream size : 38.5 MiB (0%)5 V3 L% {5 l  s" D, {7 \* J
Language : French! Y! {! d( Z5 r8 G" Z
Default : No
8 z$ c' C' O9 n; j; l: DForced : No5 q" [; s+ ]2 N, s9 e
, G0 `6 v0 N* b, M; U; r7 W/ n
Text #55 |$ ]/ M; c; u' r! j8 v$ u$ x$ u& K
ID : 9
$ J+ \4 S9 c% X$ W. ZFormat : PGS5 _! g* \8 O4 h
Muxing mode : zlib1 s5 t0 \8 n2 ]4 }. `# t" C
Codec ID : S_HDMV/PGS8 Y( ^8 d  s) b7 P. L% b0 z' l
Codec ID/Info : Picture based subtitle format used on BDs/HD-DVDs- Q4 K( |; Y6 [8 T' s
Duration : 1 h 45 min3 `1 C4 F9 A% d
Bit rate : 50.0 kb/s
7 s3 k8 _7 `+ P1 P+ [# F- ]  ~Count of elements : 3780& Q5 R9 M  r& n  U! J
Stream size : 37.7 MiB (0%)# i, X7 N" I6 c
Language : Spanish
8 @! k) N; p0 Q1 g2 qDefault : No
3 ~, s& P5 O" h* I% s# dForced : No' W- ?9 R/ U1 e- i

$ A9 D( {- \  B% @) h0 ]* nText #6
* \/ G) N6 l8 O8 L& d8 z  CID : 10
9 I* Q! _" S' l0 rFormat : PGS+ B! d# X$ @- u0 y
Muxing mode : zlib
# s$ K( h" J3 i$ _; @' ~, ]Codec ID : S_HDMV/PGS
( n) A( J* Z; p( {( uCodec ID/Info : Picture based subtitle format used on BDs/HD-DVDs
3 }0 ]8 y2 p6 dDuration : 1 h 53 min
/ D. L; @! {( ?/ c9 n& wBit rate : 39.0 kb/s
/ I+ a: r9 [( ^# HCount of elements : 3696
/ i, O$ h  s! b0 eStream size : 31.8 MiB (0%)& n" u0 g0 t8 ]& t2 K& J" F
Language : German
' S6 R& ^$ S" e7 d5 e$ IDefault : No
- w/ e# h. O+ M( l: P9 \Forced : No
) E" n6 g& {" ~6 I( v* |  [( c
! o# e9 m! T6 o9 n; j& Y5 ?) YText #7& e/ i# m. d$ }$ t7 ^
ID : 11
( v! p+ Y- Q& z; V  Z5 ]Format : PGS( b2 K7 t* U+ G8 h
Muxing mode : zlib7 Y7 T/ X7 ?3 p# [2 N5 N
Codec ID : S_HDMV/PGS
( S# @+ \/ I% s+ w% bCodec ID/Info : Picture based subtitle format used on BDs/HD-DVDs
2 V; V9 l; D4 Z0 ]2 x8 u/ `* WDuration : 1 h 53 min
7 u0 A! e4 c' S$ t# h2 NBit rate : 37.7 kb/s
  o5 g9 J; E7 n" G# ICount of elements : 3732; o5 m% e/ _% |5 `3 J9 ^) s
Stream size : 30.7 MiB (0%)5 K7 N! {: p$ _5 O$ L: n" V, p  _% z
Language : Italian" e+ v& Q9 ~; \! _$ L
Default : No2 T$ y3 `8 q6 \* t$ u+ `& f% k) m
Forced : No
; l2 C$ n3 D3 s! w( e" N3 L
7 k# h; B$ I' D; `Text #8
5 K& E3 r' _2 Q0 cID : 12( I* a% x9 l; k9 [
Format : PGS
/ U7 d; |# p5 y1 iMuxing mode : zlib6 v! B! y& k1 s1 ?
Codec ID : S_HDMV/PGS
- ^7 ?# Z  D; l" k- e  aCodec ID/Info : Picture based subtitle format used on BDs/HD-DVDs
; p1 `; [2 S( x- ADuration : 1 h 53 min; t& K) C/ r+ Y. ^2 U# k% Q+ Y
Bit rate : 30.6 kb/s" [: J' T2 q3 P6 h( ~4 N' X' ^
Count of elements : 36051 N( h! g' l) Z$ i
Stream size : 25.0 MiB (0%)
: c2 Z, R+ \+ F& V. Z" y0 A: D6 oLanguage : Japanese
4 w% d  J7 j- q6 ADefault : No
1 R$ U5 E) ]. ?2 D. f% d: e1 Y4 g8 T4 Z# [Forced : No' a  c3 V) ]! F' w- O% X& [8 O7 B

4 `2 Y/ h1 K$ R, fText #9
% Z6 m7 w7 b& c2 O" X" VID : 13' V, P- w! G5 e4 Z- r  r: Y5 U
Format : PGS
! r" _. T9 s" a! o7 FMuxing mode : zlib
9 K0 Y' v/ a' e0 M# mCodec ID : S_HDMV/PGS
5 A7 x# T% B0 `/ QCodec ID/Info : Picture based subtitle format used on BDs/HD-DVDs" ]- q6 C2 Z. p: w# [6 s5 F* Q! k8 m
Duration : 1 h 53 min! @0 r5 p, }7 U
Bit rate : 34.1 kb/s9 k0 M" q0 ^  J
Count of elements : 2300
# ?8 ~0 R' A1 A3 n, _) S: I4 t; M0 dStream size : 27.7 MiB (0%)
, u; R: \) o" D7 r$ d& v0 |# Z  _Language : Danish
7 h4 e: }5 n) A. {  |9 b7 F3 Y% hDefault : No
" i2 {5 i) n; W7 K0 QForced : No
$ `, {9 A4 N0 X3 e1 Q  }- V8 b; k- X& J
Text #10
* j: m! F2 X! n2 G2 B! \6 w5 WID : 14
$ u0 R/ A! `& j  {' e7 P% `Format : PGS8 ^* Y/ L1 R- S; k8 Y! D; @
Muxing mode : zlib
4 M" N6 I$ |, |3 k: a; TCodec ID : S_HDMV/PGS1 ~$ b8 }* b6 `% Y
Codec ID/Info : Picture based subtitle format used on BDs/HD-DVDs5 G0 Y! |, U4 c
Duration : 1 h 53 min
. R' U9 |$ j8 ?. ]0 J& gBit rate : 44.2 kb/s
( F1 B( B  d- Z$ f7 Z" P9 ECount of elements : 3758
: N# l2 Y# C3 v" }. X( SStream size : 36.0 MiB (0%)
3 }" o% y3 q' N6 V6 ^Language : Finnish
1 c3 N6 S# p6 vDefault : No7 J0 ]" Z; f6 f/ P
Forced : No
( c6 |) T  v& @' k2 B+ T8 C; t; a4 {4 i6 x( i' h( @
Text #11: d0 y* s4 q' h/ F: v
ID : 15# n* P9 \. C/ h+ I6 o3 y; G
Format : PGS
; L9 N( o2 _  F& }% E  eMuxing mode : zlib
; u% ?. m8 J5 J* ]; F3 DCodec ID : S_HDMV/PGS
( P  O( z2 C* RCodec ID/Info : Picture based subtitle format used on BDs/HD-DVDs
( ~- n. h/ c9 D& j/ T/ vDuration : 1 h 53 min; H5 p0 {- p6 x% p0 l
Bit rate : 38.6 kb/s* j6 U  r* |8 }3 I. U, E) w2 _" S) B
Count of elements : 3780
7 B" Z3 g" \; }: ]9 e  N5 GStream size : 31.5 MiB (0%)
" t- k: {- j( LLanguage : Norwegian$ x1 V$ w. l( H2 [/ z
Default : No
/ ~! N% ^: D3 J) x% O+ tForced : No
" O2 j- l/ G; R
4 I  a5 q4 w: j; pText #12& P* a$ e9 H4 k6 u) L. {
ID : 16
% R) u+ S, R9 K# m8 s8 ?8 ^Format : PGS
) S( s* b$ a1 t0 l6 P/ |# F6 F, \Muxing mode : zlib( f; \: H# b3 T0 D2 r6 K* f
Codec ID : S_HDMV/PGS4 l. \* R& d4 C( B) v
Codec ID/Info : Picture based subtitle format used on BDs/HD-DVDs
7 a* z* B1 d- t1 Y7 O8 V6 aDuration : 1 h 53 min0 R' L6 o5 c! J" V! N) \
Bit rate : 30.8 kb/s
6 y$ {1 [; h! m  g% Y3 G, `Count of elements : 2110
; |" h+ t; @# `8 G$ z9 H( @Stream size : 25.1 MiB (0%)
' x' L6 ~. t2 e- vLanguage : Swedish
6 h/ m' C; |' ]0 iDefault : No
" E$ h: e" u: S7 P7 cForced : No
. b: N6 }' ^+ l9 z2 l- l4 Z
5 A* B8 T. a; f( B* m$ nText #13
. d- E% x7 W" @, p* {ID : 17
; @5 V- j3 @8 A+ E3 ZFormat : PGS
$ d8 Y2 K. t% B2 H" A2 f' MMuxing mode : zlib" _. }' \4 I/ g1 x5 k: \, h
Codec ID : S_HDMV/PGS
) ^# r& I7 l3 U- T) @9 MCodec ID/Info : Picture based subtitle format used on BDs/HD-DVDs8 M1 w! O* `/ q2 v8 l9 r
Duration : 13 s 618 ms
; |( z: Q/ z  EBit rate : 64.1 kb/s
8 ?0 O& L# y, {5 ]& \. iCount of elements : 12
1 B7 a- z. R6 `6 b- ?) ~Stream size : 107 KiB (0%)$ P, f, o  w/ A4 P
Title : forced
8 x) t* O% e1 jLanguage : English7 z" a/ V/ u3 m" r$ b0 ]5 p3 x
Default : No* x' _- h$ I& B
Forced : No  ~& X$ B6 y% Y9 ]2 X' U
, Y  `9 r, N- S! s1 h) W5 S% Q
Text #14
1 a1 w9 A1 g7 p7 p* ~7 hID : 18+ O) L0 B0 R2 G2 N" S, C0 `$ |- j
Format : PGS) [7 o5 R) h$ O
Muxing mode : zlib
5 D7 u. S/ k% tCodec ID : S_HDMV/PGS
' ?0 L9 ?/ V* x0 O: BCodec ID/Info : Picture based subtitle format used on BDs/HD-DVDs
$ Q1 _. i/ l0 |$ s6 X7 k1 b' ADuration : 13 s 618 ms
$ Y7 o& }9 b- V3 E# m0 x5 f; ~Bit rate : 57.4 kb/s$ n4 b: h$ G0 p6 p8 a
Count of elements : 12
1 D* L; X- J: f, ?) YStream size : 95.4 KiB (0%)
5 ~0 @4 a$ }* r+ M, LTitle : forced3 k2 H2 H# w8 E) m5 I3 {4 b6 U5 D: C
Language : French) e: o8 n/ T' O' B. s, s
Default : No- B$ h3 P# T9 k1 F/ h! ]
Forced : No
; M5 k( \0 p/ }9 h1 K. k( i" x9 G0 `3 g2 B7 t9 B
Text #15
6 Z2 G' U# }% D. R; b; wID : 19
& Y7 g- \1 q* G. N( @6 DFormat : PGS
5 l" s! H; B1 rMuxing mode : zlib
3 }: t/ i. l% Y5 R4 nCodec ID : S_HDMV/PGS* B  l3 H* W1 h- [1 Z  C/ K9 ^
Codec ID/Info : Picture based subtitle format used on BDs/HD-DVDs9 I, _" P& I/ F- i" R
Duration : 1 h 47 min; H7 H7 c" C/ a) A) U6 s
Bit rate : 414 b/s
, j8 [1 {/ N, [, ]% x7 uCount of elements : 52% Z5 c( Y3 _' U- T
Stream size : 325 KiB (0%)
7 @" c5 ~9 Z1 Y; }6 kTitle : forced
; s9 m' |+ C( I7 U9 HLanguage : French# c6 A1 `7 W+ F. w% L
Default : No
+ C5 h) j' i: n8 WForced : No1 l+ a9 H0 t! ^8 k

5 {4 w4 N; Z3 L$ M& ^Text #16! e$ j2 r, N( b' g7 o
ID : 20
( p! W" k1 f' m# O* u# u; kFormat : PGS2 F* l2 N  _6 E  ^8 H3 [
Muxing mode : zlib
5 H9 J. v) B+ P, M2 T" l( NCodec ID : S_HDMV/PGS- Z* j2 ~- J- B3 F1 E# ~) i
Codec ID/Info : Picture based subtitle format used on BDs/HD-DVDs, [5 @; ?+ K0 a
Duration : 1 h 27 min
" k; D( R- Z; M; B  [Bit rate : 912 b/s2 [4 V, ?+ W* E: O7 n' @
Count of elements : 62
8 \- \3 Y- j& V9 jStream size : 583 KiB (0%)
: L" V, {: Z4 [/ q" }: ~. dTitle : forced
& T5 O+ B8 b3 D1 @  }: c/ [Language : Spanish
0 h2 o9 N' S  w' HDefault : No
7 q2 X, @4 v, s# f: eForced : No' \# D3 i3 J# r( y) _$ U$ ~3 T
9 y! _- D* Q" _3 U8 \* M3 W
Text #17
' f4 h% m& }$ s: R' I5 d% s% `ID : 21& U$ o$ X( Q, K$ z* r' G
Format : PGS( Q) O& x5 C3 S* e  L
Muxing mode : zlib
) _' S/ B5 a" E! v. C& yCodec ID : S_HDMV/PGS' \! k& S; R% p  U& g
Codec ID/Info : Picture based subtitle format used on BDs/HD-DVDs
% i: n- y! q  B: \& DDuration : 13 min 14 s
( f- k5 E& {4 @) |- u9 i3 u$ uBit rate : 1 652 b/s+ F; `  V6 o" J
Count of elements : 16
, ]* O0 \3 M8 b0 `0 Y8 I7 RStream size : 160 KiB (0%)
( ^4 e, S4 f# o5 V1 p/ p6 jTitle : forced1 _$ j: }5 J4 Q+ |' ^
Language : German* `' u3 s5 d$ N3 d" Y
Default : No( @, L/ L, j7 u) s1 T3 F/ k
Forced : No0 W! @- `) c2 l3 |2 }

2 r3 }0 u+ G. J! K4 IText #18
; V6 a' o8 U7 m' }ID : 22
& d; ?6 c2 i1 d5 e5 vFormat : PGS
0 p' K+ {9 N' K6 w+ UMuxing mode : zlib" p# n# l1 K/ i! K
Codec ID : S_HDMV/PGS
0 y1 a% s: j5 U3 u( WCodec ID/Info : Picture based subtitle format used on BDs/HD-DVDs
; v' n" h+ i, BDuration : 30 min 27 s
5 p; O' }4 T3 W# ?) @# KBit rate : 1 224 b/s6 r4 P& o, y8 _/ U7 D4 J
Count of elements : 221 J9 I- }# G6 Z1 {
Stream size : 273 KiB (0%)
( j# _; D; i; u* q- X* a5 T2 [Title : forced
  b# ]. t& I4 a6 e& CLanguage : Italian. P% C1 H. @# ~
Default : No
7 D+ B& Q4 I+ B! m8 gForced : No- X* d" c* s8 P+ h

3 k6 q6 R7 F1 O+ v2 e5 |5 n5 LText #19
9 d, X4 n. U; o! ~7 v) eID : 23; u$ l* x% e. Y8 @4 I% x8 @1 ]
Format : PGS" o, E1 t) s+ i+ I
Muxing mode : zlib; x& z/ V& b: v4 A7 C, H
Codec ID : S_HDMV/PGS
! }: q0 }! ]9 j" A3 B2 V$ Z2 W& eCodec ID/Info : Picture based subtitle format used on BDs/HD-DVDs; E3 T0 v$ P3 Q/ C( \; l
Duration : 1 h 39 min
; u1 v* b; Z+ z/ n* \3 cBit rate : 589 b/s/ Q/ ]+ X) O  \
Count of elements : 64# ~0 ~0 R/ U: h/ Z& N! x
Stream size : 430 KiB (0%)7 f- f, n; Q- @1 h& r0 X9 _
Title : forced: K" U% }2 X8 }( k: u( p5 J
Language : Japanese
! @( a3 e6 L: D  |* LDefault : No9 K. `1 o' F3 s$ m, u" {- @
Forced : No
& f0 L3 O' h- D: s8 O" {- Z, G
% Y3 B6 l. k! S. j1 J6 SMenu
! H9 o, A+ q, l1 O00:00:00.000 : en:Chapter 01
0 e# o6 w. o7 b1 W, U) ~00:05:09.100 : en:Chapter 02+ a8 c, j  f# x; M" _+ C4 y  @3 a9 w
00:08:43.523 : en:Chapter 03( ~- s3 }: s5 Q+ l1 i
00:14:29.326 : en:Chapter 04
' B' c+ v5 S5 e00:21:25.701 : en:Chapter 05
- `& @' k/ Y+ A7 a3 k2 b1 m& n1 ]00:24:06.027 : en:Chapter 066 k  b& q' k/ F' x$ x  b, |
00:28:24.911 : en:Chapter 07) n9 ]; c# ]4 s: y- \1 Q
00:34:21.809 : en:Chapter 08, \9 D0 D4 }. E' s0 ~0 Y& i
00:39:40.461 : en:Chapter 09# ^$ e. H1 G5 l4 m3 b
00:44:10.522 : en:Chapter 105 p" {) ^( ]$ H. h7 x, l2 i+ L% ~
00:48:47.758 : en:Chapter 11
0 e6 ^0 [- ^" H# c- W; t00:52:47.664 : en:Chapter 12
8 _% b8 ?/ O) E6 m( A, T4 t0 q00:56:18.249 : en:Chapter 13
3 q' @7 j* S, m* o' Y  @01:00:17.739 : en:Chapter 14
4 h/ W0 S8 V; I7 t01:04:41.752 : en:Chapter 15, N+ I& h( H. ?3 `* D1 o
01:09:13.607 : en:Chapter 16# x1 s; n% Q! W9 F# U
01:15:13.217 : en:Chapter 17
! g1 e4 g1 a, v$ q01:19:14.082 : en:Chapter 18
1 S" `. Q+ A+ S5 q5 V& O4 |* u01:23:59.325 : en:Chapter 19
3 @* m2 J3 A4 l3 E01:28:06.197 : en:Chapter 20
3 M- l- T1 E. X( o1 I# H! ]01:33:07.415 : en:Chapter 21- z3 X7 `$ x. v+ {5 p' i' ^; K- I
01:39:19.954 : en:Chapter 22
( A1 r8 h4 p& ~* f( t- P, L+ N01:44:22.506 : en:Chapter 23% r3 b# [) u- b! Q5 h
01:46:13.617 : en:Chapter 24

  R* P  E$ f" W1 F9 C
游客,查看本帖隐藏内容请回复 | 加入VIP贵宾可免积分免回复 了解详情 | 还不是会员:点击获取邀请码 Invitation Code

0

主题

31

帖子

311

积分

Sponsor

金币
96 枚
体力
149 点
hardyzhang 发表于 2021-10-5 17:43:02 | 显示全部楼层
我难道不是VIP会员吗?每次回复是啥回事。

0

主题

31

帖子

255

积分

Sponsor

金币
101 枚
体力
86 点
nickleqiu 发表于 2021-10-5 21:27:16 | 显示全部楼层
终于等到 必须下载

0

主题

267

帖子

1105

积分

Sponsor

金币
1 枚
体力
559 点
RadiantYu 发表于 2021-10-6 19:38:18 | 显示全部楼层
每天都来蓝光论坛看看,我爱蓝光电影。, o2 b  Q$ N# U! f2 \6 \+ Z( b
After reading the posts have nothing to do I Amoy posts!9 M4 G. ^( H8 S3 P

0

主题

133

帖子

689

积分

Sponsor

金币
126 枚
体力
280 点
QQ
fangfang789 发表于 2021-10-6 22:47:53 | 显示全部楼层
啥也不说了,楼主就是给力!
6 s5 h7 A0 T4 S! M( hBluraycd.com movie updates really fast, also did not release issued, whether you believe it or not, anyway, I believed!

4

主题

1206

帖子

3786

积分

Sponsor

金币
0 枚
体力
1377 点
QQ
davidqin 发表于 2021-10-10 18:57:44 | 显示全部楼层
每天都来蓝光论坛看看,我爱蓝光电影。
6 b3 N- r- g0 uYour resources, well, I am very satisfied!
( K# }0 p. y2 x/ n/ R# C/ ?

0

主题

81

帖子

326

积分

Sponsor

金币
1 枚
体力
138 点
秋天0091 发表于 5 天前 | 显示全部楼层
我很想成为VIP,但是看程序实在太复杂,能不能整个支付宝直接扫一扫就升级成会员的呀

0

主题

81

帖子

326

积分

Sponsor

金币
1 枚
体力
138 点
秋天0091 发表于 5 天前 | 显示全部楼层
最新电影,又省了一次跑影院了,谢谢分享。

31

主题

1744

帖子

9642

积分

Sponsor

金币
1359 枚
体力
4859 点
QQ
shiji1973 发表于 前天 10:57 | 显示全部楼层
感谢分享精彩电影

本版积分规则

小黑屋|Archiver|蓝光电影资源网

GMT+8, 2021-10-21 22:17

Copyright © 2001-2022, Tencent Cloud.

快速回复 返回顶部 返回列表