BluRayCD Forum

 找回密码
 立即注册【分享大片】
查看: 65|回复: 8
收起左侧

[蓝光原盘] 冰路营救/疾冻救援 [REMUX无损版 内封中字] The Ice Road 2021 1080p BluRaycd REMUX AVC DTS-HD MA TrueHD 5.1-FGT 22.37GB

[复制链接]

8339

主题

8533

帖子

6万

积分

Forum Moderator

金币
12401 枚
体力
10986 点

卓越贡献勋章

24小时 发表于 2021-10-4 01:03:22 | 显示全部楼层 |阅读模式
After a remote diamond mine collapses in far northern Canada, a ‘big-rig’ ice road driver must lead an impossible rescue mission over a frozen ocean to save the trapped miners.( a+ {4 }& T5 I+ M9 y" L% o" z

, E8 o# x: l  ?% ^; ~ 01.jpg
. r) |4 H0 G( k8 ~) n6 v$ x. X# L6 [' I8 W/ K
◎译  名 冰路营救/极地冰劫(港)/疾冻救援(台)
: [& ~0 `: O3 w5 N: s◎片  名 The Ice Road / Red Ice
0 ^, V8 x& h4 o* x3 i◎年  代 2021
6 z+ ?* V: C% f8 b+ j) d0 S◎产  地 美国
3 C/ \6 f9 }. d% Y8 V& }◎类  别 动作/惊悚/冒险/灾难- T4 o' C0 M) Z3 w% D
◎语  言 英语
* c1 t! e* [: y+ |9 C9 Y# o◎上映日期 2021-06-25(美国)
; X- O) W: d/ @◎IMDb评分  5.6/10 from 25,594 users6 n6 Z1 x: f. G6 ^
◎IMDb链接  https://www.imdb.com/title/tt3758814/, I% k. n! h" G  x+ O
◎豆瓣评分 6.3/10 from 8,732 users
+ h* p& {. G1 q8 v2 ^◎豆瓣链接 https://movie.douban.com/subject/34802334/
$ M, W" w/ j* e+ g- e: i6 r◎文件格式 x264 + DTS + TrueHD2 G+ y1 Q& i$ l) v
◎视频尺寸 1920 x 10806 S8 U6 V  {3 o( q1 k1 b" w
◎文件大小 1DVD 22.37 GiB5 f# |' Q* m% d$ C7 x- R
◎片  长 1 h 48 min
1 |2 g8 L6 ?6 J◎导  演 乔纳森·汉斯雷 Jonathan Hensleigh
; c0 k* P4 N4 H3 V9 h/ j7 b◎编  剧 乔纳森·汉斯雷 Jonathan Hensleigh. Y, u' q6 m: }+ t3 {
◎主  演 连姆·尼森 Liam Neeson
0 O% U3 `, q' O% ^4 i       马库斯·托马斯 Marcus Thomas/ l4 c+ t4 N# `' x& O7 B# Z" ]; a
       劳伦斯·菲什伯恩 Laurence Fishburne
( {* Q; R# i5 J3 e! L# n$ a& a; |       安伯·明迪桑德 Amber Midthunder
" q; Q, e# Z  a  u( {6 F       本杰明·沃克 Benjamin Walker
* O+ d- @1 Z1 ^% @) l/ q       霍特·麦克卡兰尼 Holt McCallany' w  o3 v$ D4 [1 L8 R2 ?- B" A
       马特·麦考伊 Matt McCoy
8 r6 Q. ]' q( ]6 E# y' |5 q2 m       马丁·桑斯梅耶 Martin Senmeier7 R/ @7 v! c5 I, [: d
       马特·塞林格 Matt Salinger4 f1 K$ b, H- f* ?; Q% w* _5 ~
       查德·布鲁斯 Chad Bruce+ K$ Z! f# c. V+ s, C' H* h: Q
       亚当·哈蒂格 Adam Hurtig
6 @5 u+ M% d. E# k: u# ?       布拉德利·索茨基 Bradley Sawatzky
0 A# b6 N0 @1 h       马歇尔·威廉斯 Marshall Williams
6 P* D3 |4 J2 K       加布里埃尔·丹尼尔斯 Gabriel Daniels5 Z$ o/ m5 b& l/ i8 {; i, u, A
       劳伦·科克伦 Lauren Cochrane8 w. d4 y6 ]+ P
       阿尔·科利 Al Corley, i4 K, l  l; w" n4 \) Z% I
       捷克琳·洛温 Jacqueline Loewen
! d& Z- f' L2 M4 p; f1 }$ d6 [       艾丽西亚·约翰斯顿 Alicia Johnston
5 |8 g. m" M; \9 ~       艾伦·默克 Aaron Merke; |# S& t9 v- r8 l, e: P
       达西·菲尔 Darcy Fehr
- N4 ^7 b7 h: M% Q       洛丽·帕帕佐普洛斯 Lorrie Papadopoulos% ?' r( N2 _' v
       Bj·韦罗 Bj Verot
/ U1 m( t- ^: m$ s  X# a" e! F( v4 w3 l  Z) ~  c% s
◎标  签 动作 | 灾难 | 美国电影 | 营救 | Liam·Neeson | 2021 | 连大爷拯救宇宙 | 美国
2 k6 N. N0 e6 X
8 E+ s" n; u3 a8 |◎简  介   1 N: ^2 j) ^1 ]& J. @. S& m0 e- a9 S
7 Q5 Z2 F% x  l7 H" S7 Y
  在加拿大北部偏远地区的一个钻石矿倒塌后,冰路卡车司机(连姆·尼森饰)必须带领救援人员完成一项不可能的任务 — 穿越结冰的海面,营救被困矿工。除了融冰和风暴,还有难以预见的威胁在等着他们。/ _5 Y/ H5 t$ T8 O* b& _! d) C
4 p: e$ d% p" Q0 ~
  After a remote diamond mine collapses in the far northern regions of Canada, an ice driver leads an impossible rescue mission over a frozen ocean to save the lives of trapped miners despite thawing waters and a threat they never see coming.& b/ T  Z; V* ^% i2 o% z) y
The.Ice.Road.2021.1080p.BluRayCD.REMUX.AVC.DTS-HD.MA.TrueHD.5.1-FGT 22.37 GiB
" N& V7 {. \7 U0 k5 ]  Y/ }$ Z/ V
Video* O3 O1 G7 K0 L- x0 Z+ N3 A4 x* N
ID                                       : 1
8 O' ?8 L, q1 y' j4 R" VID in the original source medium         : 4113 (0x1011)! j0 o/ ~8 B7 I1 L: p! h3 b$ g3 _
Format                                   : AVC
0 R  _, b2 Z- @% c. ?$ uFormat/Info                              : Advanced Video Codec
! m: v( F& y, k0 @; b1 a& z5 xFormat profile                           : [email protected]/ _& [4 K1 v9 o
Format settings                          : CABAC / 4 Ref Frames1 H) n- p# X6 i( s2 o0 n; L( X
Format settings, CABAC                   : Yes# m0 |9 Y# L8 E1 J$ r2 i' Z; o( {
Format settings, Reference frames        : 4 frames
5 G- Z2 ?9 {1 N; f( TCodec ID                                 : V_MPEG4/ISO/AVC: k4 S5 R$ [# O( W: i: p8 H1 M- v. f
Duration                                 : 1 h 48 min5 x/ W" A5 m5 y5 m! v/ |( S6 ^
Bit rate mode                            : Variable
, e. S3 B4 r. c# M* c8 QBit rate                                 : 21.2 Mb/s
2 M5 Q+ Y% b+ _9 t, |8 L7 r  NMaximum bit rate                         : 22.0 Mb/s8 R# V1 L- }3 `
Width                                    : 1 920 pixels! P% N3 E! g1 n- n( b
Height                                   : 1 080 pixels
/ P5 E6 {4 C2 [& u/ rDisplay aspect ratio                     : 16:9
6 ^' H. a( C! _. t3 U; ~5 }Frame rate mode                          : Constant
: d0 W) _4 @2 }2 [Frame rate                               : 24.000 FPS
3 W, Y. d" S' D  @% v2 nColor space                              : YUV0 l& _9 l* A6 q' _5 w. t# g
Chroma subsampling                       : 4:2:0. x+ ?5 I+ R6 [# }. r5 Q
Bit depth                                : 8 bits* N7 N" U+ w9 Z1 B5 `
Scan type                                : Progressive' N9 N6 L: @9 Z* e; j/ w
Bits/(Pixel*Frame)                       : 0.427
  e# ~1 u* ?' a+ X: jStream size                              : 16.1 GiB (72%)) k6 C- s* n0 c6 B2 ~. c& S$ M! M
Language                                 : English& N: I& _* i5 g8 o& o2 c
Default                                  : No. w* g- w% i* j7 \
Forced                                   : No
1 J1 q9 E6 u3 _& G) @' [# ROriginal source medium                   : Blu-ray
8 D- w, X$ `* f+ ~. j; M" {2 X" ^5 c2 R2 H* B. z
Audio #1
& T! b% d# H+ W3 G+ IID                                       : 29 p/ e: `& @2 {. x$ k
ID in the original source medium         : 4352 (0x1100)# `$ w" ^& o* i) ?) i% E" o% X
Format                                   : MLP FBA( e; x% ?$ t$ O8 E
Format/Info                              : Meridian Lossless Packing FBA
8 b: {* R: t8 U5 j1 Z2 NCommercial name                          : Dolby TrueHD2 @1 Z  A8 n! x0 ^. R
Codec ID                                 : A_TRUEHD
+ {  S7 ]& I) q2 r: |4 |Duration                                 : 1 h 48 min
2 E6 n- c  J+ c7 n! `Bit rate mode                            : Variable' M, [& t) Y& E! p) P8 j
Bit rate                                 : 2 968 kb/s2 j# v0 W4 G( f7 V7 c4 c) v. k
Maximum bit rate                         : 4 410 kb/s) R+ X1 [& |( x% P- W
Channel(s)                               : 6 channels7 p2 ~' ?+ A; g! x% S' [
Channel layout                           : L R C LFE Ls Rs+ X, H: L7 ]/ r) i3 }
Sampling rate                            : 96.0 kHz: v" s0 g- H, l$ ?) X$ U* H
Frame rate                               : 1 200.000 FPS (80 SPF)
$ p3 v: p( u* m& K* v6 O1 Z0 sBit depth                                : 24 bits
7 A8 m( a) O. `Compression mode                         : Lossless8 N: O3 @. n2 e3 p' s
Stream size                              : 2.26 GiB (10%)
0 l1 `) V- j6 C6 Q6 s: t! \Title                                    : TrueHD 5.1
3 |2 L  S8 O# j: _, S; wLanguage                                 : English
( s. |; @6 r8 ~' @" {; }  `1 _3 K/ _Default                                  : Yes$ x2 ~& c+ v% v& t7 G
Forced                                   : No+ n% a% c6 b; h  t7 Z: m
Original source medium                   : Blu-ray
9 L+ G/ ?$ ^0 g: d+ b* ^; R& n+ ]: |. n7 u
Audio #2
1 I$ _7 _! ]8 ]* y- N# zID                                       : 3
  l3 c3 t" U' y9 w& L& f' ]) DFormat                                   : DTS XLL6 F9 T% d: \3 X8 c: \& L
Format/Info                              : Digital Theater Systems1 ~7 o" U& u$ o, \; [  X
Commercial name                          : DTS-HD Master Audio% M( O" j, \9 o6 r+ Q; F. `# C
Codec ID                                 : A_DTS# |, {* ~6 y  E9 e+ L9 k
Duration                                 : 1 h 48 min$ O$ e% s7 Z, \* ^- d% _
Bit rate mode                            : Variable
7 j; G2 s+ V; l) F0 c7 OBit rate                                 : 3 843 kb/s
, O  Q! p+ \( g; Y/ I. t$ k$ [) ?Channel(s)                               : 6 channels
4 X8 V7 j1 ~+ aChannel layout                           : C L R Ls Rs LFE
! j3 H, ~* Z6 L+ {Sampling rate                            : 96.0 kHz
$ b; n/ T9 v% ?7 Z  l! A1 j9 L' qFrame rate                               : 187.500 FPS (512 SPF)
$ m  i9 U: p& U: WBit depth                                : 24 bits
) w* S- p* [& R1 F! _% T* ~5 r) ]Compression mode                         : Lossless
9 L  F! x2 Y& w0 WStream size                              : 2.92 GiB (13%); c: x6 N+ g) X6 x8 T: P
Title                                    : DTS-HD MA 5.15 b2 l) E8 V9 g- n; `8 i, \
Language                                 : English+ ^8 s! n% S/ u; r
Default                                  : No
* M; ?& Q; |! o* f; VForced                                   : No* k- j/ H) Q; s+ D) f% _2 ]
- ~- e0 l1 A- d' A  x+ I
Audio #3
9 W2 b1 o7 r  S# W2 D2 pID                                       : 4# I! ?1 S3 Y5 }' O9 F9 z7 D
ID in the original source medium         : 4352 (0x1100)& e( F, H4 a3 m& b! \
Format                                   : AC-3) A$ S. ?* o( i: ?& t! \! c
Format/Info                              : Audio Coding 3
. _6 T& |/ a0 C$ \2 z2 c$ y  ]+ p3 p, ~Commercial name                          : Dolby Digital
& Y2 b/ c0 v: {/ K# L" N3 C+ H# |Format settings                          : Dolby Surround EX# w* v" \7 B" ]/ O
Codec ID                                 : A_AC3( k, |( v4 W9 f  L$ n: n# o! s
Duration                                 : 1 h 48 min
6 _. f* i7 {" Q7 y9 d! z* bBit rate mode                            : Constant
* k7 Z/ ~/ u& u! B7 V# W4 ^8 d9 nBit rate                                 : 640 kb/s2 Y" \( A- X3 Z, X1 x
Channel(s)                               : 6 channels5 |1 p  v5 z+ L* ]
Channel layout                           : L R C LFE Ls Rs
  U1 u+ e5 D8 j" OSampling rate                            : 48.0 kHz0 @$ Z, r- u, a) y7 J5 N
Frame rate                               : 31.250 FPS (1536 SPF)
9 U" H4 ~* ~7 V4 _, I2 zCompression mode                         : Lossy, ?4 M0 H( N5 ]! S2 J
Stream size                              : 498 MiB (2%)
: E  T4 C9 n3 _1 p+ [. ^* yTitle                                    : DD 5.1
' ~& c% e# u9 N- ELanguage                                 : English' R0 i' O3 M8 j* n. K7 ~4 h" M: W
Service kind                             : Complete Main8 Z6 p3 [" ^/ d
Default                                  : No
, u7 Z! j7 C8 j4 H) NForced                                   : No
' f' z1 v, {3 K0 OOriginal source medium                   : Blu-ray
. u$ R# P; H6 E& a" T7 ?- f
/ ~  U/ P0 @  D  [8 ~5 XAudio #45 E; r- o( `. d* ~& x0 g
ID                                       : 5
! O3 f( H5 m2 n3 t$ a* v( \* Y* mID in the original source medium         : 4353 (0x1101)9 ?$ |( J( k7 T4 L0 T
Format                                   : AC-3" N) X& Z9 [2 X; I
Format/Info                              : Audio Coding 3( j7 I( R. c7 f9 r3 j7 ]2 x# [
Commercial name                          : Dolby Digital
5 Z" T7 }# Q  A3 U  I3 }, VFormat settings                          : Dolby Surround EX* l2 d/ h8 l# p
Codec ID                                 : A_AC3
, Y, X4 k6 x- C" B; r, `Duration                                 : 1 h 48 min$ L; }+ v5 W' Z% p
Bit rate mode                            : Constant! n& Q4 h! r6 h5 O/ {$ z) l
Bit rate                                 : 640 kb/s
" X. s$ x* Q1 T$ KChannel(s)                               : 6 channels
& g5 |$ B. R# e; C' ?% W, gChannel layout                           : L R C LFE Ls Rs  }1 ^" Y; U; `
Sampling rate                            : 48.0 kHz
+ y$ U, ^  W6 f6 X( u. YFrame rate                               : 31.250 FPS (1536 SPF)
& _+ F3 B$ t& e0 B( H/ t  ZCompression mode                         : Lossy
  q# }; K; `& m; T) k1 U* s/ tStream size                              : 498 MiB (2%)
7 w  S" |1 l! R6 mTitle                                    : DD 5.1
/ k) C7 Y! U0 k8 F/ A6 O* T5 W6 WLanguage                                 : English
1 F- H5 }2 q! D) DService kind                             : Complete Main
5 B7 C: \) a; V, dDefault                                  : No  a% Q3 S  S, \, T1 e' R
Forced                                   : No/ N. ^, i0 U% |6 y. S4 k
Original source medium                   : Blu-ray
# f( _8 y% x& k  y
5 W" L3 T5 X9 @Text #1
- B1 _6 W9 K. A3 G* n: YID                                       : 6
7 f' f- L/ d6 fFormat                                   : UTF-8* o5 K. A9 x. S. `% u  V
Codec ID                                 : S_TEXT/UTF8
6 W& O6 m) {4 A. @/ V! J* YCodec ID/Info                            : UTF-8 Plain Text
0 A" E, u2 K6 N/ B2 B- oDuration                                 : 1 h 45 min
! `. F" q% T1 W9 E2 T' m7 iBit rate                                 : 40 b/s
$ X3 f7 X/ h: s* v8 y0 w; wCount of elements                        : 1224
7 Z. o' a( _' IStream size                              : 31.5 KiB (0%)
$ ^& I3 C$ Y8 s0 hTitle                                    : SRT
, B2 f! A) l- wLanguage                                 : English8 X8 F. Z0 B' [
Default                                  : Yes  g/ A, c8 \' u
Forced                                   : No, S. s) y' C; {9 I- }7 m
0 G) `+ z$ |7 P
Text #2" g' o5 o1 S/ [7 p4 S  v
ID                                       : 7
9 h+ D: I. F# m* u  PID in the original source medium         : 4608 (0x1200)
0 O  ~7 W7 r" PFormat                                   : PGS3 g& ]4 [4 q/ {9 q: x3 h  N4 ^( T
Muxing mode                              : zlib2 o7 i  E0 y; [( e" b, f
Codec ID                                 : S_HDMV/PGS
& s' T. W& v5 m" B( x- {Codec ID/Info                            : Picture based subtitle format used on BDs/HD-DVDs
* [( V8 g% W0 uDuration                                 : 1 h 47 min. y4 N5 z5 Q  F$ s/ n
Bit rate                                 : 25.7 kb/s0 L  c' G% h; [
Count of elements                        : 2260. C' A/ _7 Z! F
Stream size                              : 19.7 MiB (0%)5 [/ f2 j9 J: e' }, D
Language                                 : Chinese
2 W' R( B* z+ `3 e1 s" y+ hDefault                                  : No
% F  B( h/ n) S+ g& y! tForced                                   : No* f- c9 {8 H* T( G/ f( a! r% }: R
Original source medium                   : Blu-ray
3 I2 l* b" G2 K) u! b! I, y+ z& q9 R9 K3 a/ o" e
Text #31 {, w! A4 `) z+ J/ i0 E8 U
ID                                       : 8$ H) ?+ y8 ^) _+ s0 O+ {
ID in the original source medium         : 4609 (0x1201)
' i8 `  m. a5 d1 M! |2 h5 g" b1 RFormat                                   : PGS+ _: d& k$ a/ k) L4 r
Muxing mode                              : zlib
! K& t) n2 C5 P3 j$ Y9 @' Z2 wCodec ID                                 : S_HDMV/PGS
+ l( F- B. s1 v+ }. j, VCodec ID/Info                            : Picture based subtitle format used on BDs/HD-DVDs
& {; ?9 `: S2 G! m" kDuration                                 : 1 h 47 min
2 z' c$ x4 [) ?1 }1 C( q; `9 PBit rate                                 : 26.8 kb/s' V( W" f3 n" {$ b  P6 X1 Z6 E9 G
Count of elements                        : 2248$ P$ V- @: p5 F% Q9 ?
Stream size                              : 20.6 MiB (0%)
0 V* r: d5 f! _( l& |2 X2 HLanguage                                 : English
3 m4 r6 B) a) u/ A9 h5 ^Default                                  : No
/ R$ F3 d1 K1 M4 X. l+ sForced                                   : No
' z$ R& E# j9 K) b2 B, qOriginal source medium                   : Blu-ray
  K3 y) r8 r$ p; k; V
# m' w9 K7 F; M' M; bMenu
- C5 u& e7 s+ ~8 C# _. Y& a  {00:00:00.000                             : Chapter 01
1 j9 l6 R6 `1 K- F00:08:07.000                             : Chapter 02: }$ f1 b  r5 S5 m7 P
00:17:16.125                             : Chapter 03
  L/ ]) W  v2 v" B: B2 j! A00:26:19.000                             : Chapter 04' g/ w5 P' {  k( a  X" S4 H
00:38:57.416                             : Chapter 05
8 a! c4 K3 c) I- i! k4 V3 \) l00:47:56.833                             : Chapter 06  z; D: Z# S5 a7 r% R, D* }5 c, g. u
01:02:20.291                             : Chapter 07) M# c  H, H  }! d2 W
01:08:20.000                             : Chapter 08- _* V9 l; \( y
01:18:20.625                             : Chapter 09
8 ]" J8 K/ e, v4 B) b0 H) o3 x01:24:47.791                             : Chapter 10
& d8 U/ T" P+ R9 V2 @- R; w01:30:44.958                             : Chapter 11  Q% V* L& ^. p% r! W$ O
01:43:16.125                             : Chapter 12
6 N% k# X1 T( x2 o  \/ O) }$ m; Z
游客,查看本帖隐藏内容请回复 | 加入VIP贵宾可免积分免回复 了解详情 | 还不是会员:点击获取邀请码 Invitation Code

76

主题

3394

帖子

1万

积分

Sponsor

金币
1710 枚
体力
4854 点
lanpanshuma 发表于 2021-10-4 11:10:35 | 显示全部楼层
楼主发贴辛苦了,I*老*虎*U!
( Q5 B# u; q! Q" K: L! X7 v9 xNot see, I am a novice, the inadequacies of the first Please bear with me!7 X9 t, i. E% F# _$ Y

2

主题

314

帖子

1778

积分

Sponsor

金币
337 枚
体力
861 点
QQ
ccfys888 发表于 2021-10-4 20:26:01 | 显示全部楼层
这么好的帖子不回对不起自己!
- Q: D. N) x% j( }* L0 q* J, ?Blu-ray Film Forum is now my home!
6 `8 q. P/ z# W* O: y8 W$ l

0

主题

142

帖子

1148

积分

Sponsor

金币
86 枚
体力
718 点
QQ
dxymp 发表于 2021-10-7 11:36:41 | 显示全部楼层
的点点滴滴多多多多多多多

0

主题

25

帖子

319

积分

Sponsor

金币
80 枚
体力
182 点
halo117 发表于 2021-10-7 16:40:37 | 显示全部楼层
啥也不说了,楼主就是给力!1 I+ A+ h' f5 x6 q+ H9 U! ~
I love your Blu-ray movies Forum!5 R! V1 F9 G" w, Z

0

主题

328

帖子

1306

积分

Sponsor

金币
67 枚
体力
576 点
sebarstean 发表于 2021-10-7 22:45:47 | 显示全部楼层
每天都来蓝光论坛看看,我爱蓝光电影。
* T& ~) ^( K/ r9 MBlu-ray Film Forum is now my home!) G9 D& N3 J7 @4 k! I% b

0

主题

15

帖子

228

积分

VIP Primary

金币
159 枚
体力
35 点
dondonyoung 发表于 2021-10-8 23:18:06 | 显示全部楼层
好东西啊,感谢分享
+ n2 n7 G8 O. U/ |4 [& B& _

3

主题

588

帖子

2843

积分

Sponsor

金币
0 枚
体力
1560 点
myg0123 发表于 2021-10-11 09:46:23 | 显示全部楼层
感谢楼主无私分享
蓝光论坛里 ...

2

主题

116

帖子

452

积分

Sponsor

金币
0 枚
体力
217 点
cmainz 发表于 7 天前 | 显示全部楼层
非常感谢楼主的分享!

本版积分规则

小黑屋|Archiver|蓝光电影资源网

GMT+8, 2021-10-21 23:00

Copyright © 2001-2022, Tencent Cloud.

快速回复 返回顶部 返回列表