BluRayCD Forum

 找回密码
 立即注册【分享大片】
查看: 56|回复: 7
收起左侧

[4K极清电影] 冰路营救/疾冻救援 [4K REMUX无损版] The Ice Road 2021 2160p BluRaycd REMUX HEVC DTS-HD MA 5.1-FGT 48.39GB

[复制链接]

5679

主题

6026

帖子

6万

积分

Forum Moderator

金币
4659 枚
体力
26107 点

卓越贡献勋章VIP蓝光勋章

迅雷电影 发表于 2021-12-27 05:33:54 | 显示全部楼层 |阅读模式
After a remote diamond mine collapses in far northern Canada, a ‘big-rig’ ice road driver must lead an impossible rescue mission over a frozen ocean to save the trapped miners.
6 b" ~  o0 A& t8 e- W5 D7 H8 W) `+ E, C' B% h
01a.jpg
+ U4 Z3 X% y* k" q' u! f
  N* |. U+ X+ O. W5 R" |) O◎译  名 冰路营救/疾冻救援(台)/极地冰劫(港)
% N, e) s6 q$ Y◎片  名 The Ice Road / Red Ice
7 m: s0 y7 Y9 C7 v8 z◎年  代 20213 x. F& J: E4 h
◎产  地 美国# \/ f+ {' s6 `3 `6 E' u9 R9 V8 U! T
◎类  别 剧情/动作/惊悚/冒险6 v" M2 A( {7 o/ ^- i' Z
◎语  言 英语  i7 q! g6 z) h/ b- k
◎上映日期 2021-06-25(美国)2 h% \9 x% |6 ^" C( N. ]) f
◎IMDb评分  5.6/10 from 29,575 users
! M# _, J4 ^' R1 x* H8 v◎IMDb链接  https://www.imdb.com/title/tt3758814/
+ b; [& k+ P, b) R* V- B◎豆瓣评分 6.3/10 from 10,342 users
+ t0 Q8 O# S- Y% }! h◎豆瓣链接 https://movie.douban.com/subject/34802334/) N2 |0 R: v+ r& W
◎文件格式 x265 + DTS
! x- ~) B9 ?7 X& c1 p4 p◎视频尺寸 3840 x 2160
0 j$ o. o. z9 X+ V" W" d; K& d◎文件大小 1DVD 48.39 GiB
& Z; L8 s: ~  ]1 k9 D9 ^◎片  长 1 h 49 min3 r6 c; e5 y+ x' d  O
◎导  演 乔纳森·汉斯雷 Jonathan Hensleigh% M, A- x! u0 L- n7 L# Y
◎编  剧 乔纳森·汉斯雷 Jonathan Hensleigh
( }+ r' s) S" H◎主  演 连姆·尼森 Liam Neeson
% w# I6 t0 l& F7 w" W+ A       马库斯·托马斯 Marcus Thomas* T4 i' L$ ~) w$ m3 P+ A* v2 d1 v
       劳伦斯·菲什伯恩 Laurence Fishburne( `$ O$ Q! l1 m
       安伯·明迪桑德 Amber Midthunder
  y& B3 T" @- `) E/ S+ ^       本杰明·沃克 Benjamin Walker4 L# M- a+ @5 S
       霍特·麦克卡兰尼 Holt McCallany9 E9 B  ~# s' s4 l
       马特·麦考伊 Matt McCoy
# _# i4 m; J7 Y6 x4 k7 z& h+ p) r       马丁·桑斯梅耶 Martin Senmeier
  h! F& L* P: k       马特·塞林格 Matt Salinger
( E$ c5 b  }! B8 g7 L) N! c3 s. I       查德·布鲁斯 Chad Bruce! P2 Z" Z) ?8 Y" f) @
       亚当·哈蒂格 Adam Hurtig
3 I8 P- p0 L' _/ X9 K       布拉德利·索茨基 Bradley Sawatzky
3 A- g) }  h( z' Z8 ~# E       马歇尔·威廉斯 Marshall Williams* D( ^4 a9 |0 k  ?1 y9 Z
       加布里埃尔·丹尼尔斯 Gabriel Daniels+ Q3 a9 _$ L6 {+ [
       劳伦·科克伦 Lauren Cochrane2 N2 ^, j* m+ w- m1 f
       阿尔·科利 Al Corley. `3 J9 {2 \4 g/ ?. n; u" e
       捷克琳·洛温 Jacqueline Loewen2 n+ E9 r3 {& K
       艾丽西亚·约翰斯顿 Alicia Johnston- d" T/ F0 E0 l, K  d) O
       艾伦·默克 Aaron Merke
% H. Y1 ~& n) D/ z+ ~       达西·菲尔 Darcy Fehr. S: q9 W7 c% }1 e( c0 A
       洛丽·帕帕佐普洛斯 Lorrie Papadopoulos
* I+ p, N! W+ ?       Bj·韦罗 Bj Verot
; y0 C: H) W/ X- ^0 W) ~8 L
  n# R7 \2 C. i◎标  签 动作 | 灾难 | 美国电影 | 营救 | Liam·Neeson | 2021 | 连大爷拯救宇宙 | 美国
1 \7 x& T- |/ p! h5 s3 @8 A  B7 v1 F4 ^& l& k
◎简  介   + b1 k$ D  j( |( Q. V5 O
) s2 o8 k: I9 g3 s
  在加拿大北部偏远地区的一个钻石矿倒塌后,冰路卡车司机(连姆·尼森饰)必须带领救援人员完成一项不可能的任务 — 穿越结冰的海面,营救被困矿工。除了融冰和风暴,还有难以预见的威胁在等着他们。  O$ f0 g% f3 A& t( ]

2 b1 y- m* }" Q+ b: w  After a remote diamond mine collapses in the far northern regions of Canada, an ice driver leads an impossible rescue mission over a frozen ocean to save the lives of trapped miners despite thawing waters and a threat they never see coming.
2 l+ |- G4 h6 F$ i( t( L  V
The.Ice.Road.2021.2160p.BluRayCD.REMUX.HEVC.DTS-HD.MA.5.1-FGT# `: {2 X0 w# Q) J4 N! i' L! d6 V
& O1 `+ A4 Y; l. N4 z
Video
6 m3 S/ ^$ d) X" p' DID                                       : 1
, T; ^3 _1 B$ c7 [6 NID in the original source medium         : 4113 (0x1011)
- W! H, m4 ]) e4 ]3 F, ~, ?Format                                   : HEVC4 y8 d$ h6 ^5 L% k
Format/Info                              : High Efficiency Video Coding+ `. d2 @, Y/ r, Q& G0 T3 V% H
Format profile                           : Main [email protected]@High
  O! ^+ X+ ?+ ^/ v2 oHDR format                               : SMPTE ST 2086, HDR10 compatible! K  C4 p; \' e+ Y
Codec ID                                 : V_MPEGH/ISO/HEVC
5 y' i: r+ g5 o' p; q# DDuration                                 : 1 h 49 min  v* E2 U/ A5 K0 w
Bit rate                                 : 58.8 Mb/s" ]  E# _7 J! U9 h( i
Width                                    : 3 840 pixels" a# @/ C" n% B: n0 n
Height                                   : 2 160 pixels
( V# E" k7 R- a  U0 R* xDisplay aspect ratio                     : 16:9" Y& s' O7 c6 c7 ]$ x
Frame rate mode                          : Constant0 `4 a# F4 m, E8 l6 A8 X: Q
Frame rate                               : 24.000 FPS% _4 F* |$ k6 `8 Q8 a: q+ f* J$ O
Color space                              : YUV# l! K6 R$ C# f
Chroma subsampling                       : 4:2:0 (Type 2)
3 J( B7 f: @' c% }Bit depth                                : 10 bits
. H) A8 j9 _# G4 uBits/(Pixel*Frame)                       : 0.296
" C& L0 W$ C  w, EStream size                              : 44.9 GiB (93%)
, F- K2 d& b/ q) I/ {3 yLanguage                                 : English
2 f$ L$ a9 a5 q4 }5 zDefault                                  : No( d/ n% e: G$ m8 \) f/ n( u
Forced                                   : No
0 f+ g9 r1 R5 I" w8 dColor range                              : Limited$ `5 k! x- s! J8 u6 M
Color primaries                          : BT.2020
0 l$ O" U( k6 p, \4 s% g" i! @Transfer characteristics                 : PQ
7 a2 H9 t0 k, l; H! c" {& ]Matrix coefficients                      : BT.2020 non-constant; |6 y) W4 |- s0 g# l8 p! H
Mastering display color primaries        : Display P38 u3 \: A1 O) r$ K
Mastering display luminance              : min: 0.0010 cd/m2, max: 1000 cd/m2; k8 r, n1 W$ s0 K- q
Maximum Content Light Level              : 1000 cd/m26 a& i/ h" V9 H
Maximum Frame-Average Light Level        : 400 cd/m2
8 k5 O' O: V* R$ O8 jOriginal source medium                   : Blu-ray
7 r3 S7 C% Y( e
. y& t# i% t% K- e4 b3 F0 e+ mAudio #1
. D& ?7 e. D6 y, Z. J' }3 SID                                       : 2
  A$ J  A7 U! u4 t& q% b3 o. vID in the original source medium         : 4353 (0x1101)
9 o$ z) V, |1 \3 ~! P! M% W' {  x* \Format                                   : DTS XLL# N  v+ P7 H) f9 B* G& H8 e
Format/Info                              : Digital Theater Systems
5 U7 }8 a7 {: XCommercial name                          : DTS-HD Master Audio) l" L& |; _) V$ P8 h
Codec ID                                 : A_DTS
: L- P: o( ]3 V& ?2 D" e% zDuration                                 : 1 h 49 min& F6 j+ J8 E2 }
Bit rate mode                            : Variable
0 z  B5 Y+ O; FBit rate                                 : 1 975 kb/s
/ C9 R4 t( H$ ]& W$ J0 K& rChannel(s)                               : 6 channels
, c1 h, _$ `! |7 t  x* ^1 jChannel layout                           : C L R Ls Rs LFE
- N- H+ C7 X/ @+ ]  N( a* iSampling rate                            : 48.0 kHz( y8 \& S8 O' n" h( }) G
Frame rate                               : 93.750 FPS (512 SPF)' m2 K6 \. P' O3 i$ U7 O$ {
Bit depth                                : 16 bits6 r1 z" X4 c# O* l2 }
Compression mode                         : Lossless
. _1 {. ^- x/ l4 W+ T- KStream size                              : 1.51 GiB (3%)
5 ?. t" {( D8 }* Z/ lTitle                                    : DTS-HD MA 5.1
1 ^  |9 w# s7 d+ W9 {Language                                 : English  V) e- F  W0 h8 j, H. G
Default                                  : Yes
1 V! j# \+ M$ x# d9 DForced                                   : No$ B+ Q3 m6 {3 s5 E! @3 c3 ]/ G4 v
Original source medium                   : Blu-ray: W9 v! q7 d' s; a

. i! k* p8 g! b- [5 R1 Y5 a# k$ @( ]! AAudio #2' i$ W' a1 X# K$ Z( o' ~' |* k. v8 d$ |
ID                                       : 32 A) }2 q% I* L1 i
Format                                   : AC-3
' r2 ?- |* Q3 dFormat/Info                              : Audio Coding 3& }! [+ _. _9 N& m5 F3 L
Commercial name                          : Dolby Digital5 C- C7 |+ H2 H, \3 V4 Y
Codec ID                                 : A_AC3
) v% H6 [% B1 @7 o( eDuration                                 : 1 h 49 min
3 E, ~5 _) l2 {' r: ABit rate mode                            : Constant; v/ m2 z# P# T, J
Bit rate                                 : 640 kb/s$ T) I2 Q1 G$ m! _0 t
Channel(s)                               : 6 channels) V- h! l4 b- \0 X8 P2 \0 c
Channel layout                           : L R C LFE Ls Rs
5 G( b2 w5 U5 g* l" c1 K5 L8 x% YSampling rate                            : 48.0 kHz
7 d  r9 h. x. }1 b6 F* L1 uFrame rate                               : 31.250 FPS (1536 SPF)  j0 t* M: g2 \7 G* k/ d& W' l/ z4 M
Compression mode                         : Lossy, ~6 W6 w' _5 q4 H: t4 Q% p! I
Stream size                              : 500 MiB (1%)
* _; s: q- U# F, pLanguage                                 : English2 v, N& K* e9 i. H1 V) ?. T
Service kind                             : Complete Main
+ \# V- ^0 Z# [: w& a  T0 EDefault                                  : No+ r, x" J: y+ L+ r- h1 N# S
Forced                                   : No
" B8 D. `9 q" D$ T! q5 \- M: n/ P3 o3 W/ |0 D
Audio #3
" R! ~$ x5 x/ H" ^: n2 S+ `ID                                       : 4
1 Q" A8 I7 f( a3 l8 A+ V2 NID in the original source medium         : 4352 (0x1100)9 w9 x8 g' U  _( k5 X, f7 G: x
Format                                   : DTS XLL
  N: F9 \, N- `2 m0 d% UFormat/Info                              : Digital Theater Systems
8 R. }& p9 \; A1 hCommercial name                          : DTS-HD Master Audio) @! ]+ H0 @0 ^
Codec ID                                 : A_DTS
5 E: S8 H, l# gDuration                                 : 1 h 49 min
  s& Z8 B8 b2 s* yBit rate mode                            : Variable
' a6 _, z5 s! M$ J9 a/ KBit rate                                 : 1 949 kb/s
3 o0 g1 q4 g, M2 S3 gChannel(s)                               : 6 channels
  I3 ?4 }- C! d3 z" }Channel layout                           : C L R Ls Rs LFE# E0 b1 x4 _+ z4 I+ Y0 |
Sampling rate                            : 48.0 kHz
0 b: H$ G$ L6 v$ u) fFrame rate                               : 93.750 FPS (512 SPF)! L; T0 I8 E/ n5 `' j
Bit depth                                : 16 bits
0 C) C) Z  t) t+ ~( v& nCompression mode                         : Lossless
  h2 @5 q6 A+ _0 L8 hStream size                              : 1.49 GiB (3%)
3 w6 b6 [! L  VTitle                                    : DTS-HD MA 5.1, C( Y' \: N' [' i8 G+ D8 u
Language                                 : German4 \5 [8 ^  D5 t/ l
Default                                  : No
6 K" H! B) z1 n3 y& z2 xForced                                   : No, C# C5 ^, Z5 Y
Original source medium                   : Blu-ray3 z& S" @) V0 x1 ~! J# p7 `* y  \

. l1 {8 E8 O9 U0 nText #1
$ P, U' }# ?- u- oID                                       : 5
4 |: ^- t. {+ M8 OFormat                                   : UTF-85 H$ q5 P  C! s5 ]
Codec ID                                 : S_TEXT/UTF8$ j; W7 B7 _( A, I1 w
Codec ID/Info                            : UTF-8 Plain Text, e9 X2 B, l4 B: E
Duration                                 : 1 h 41 min
$ s: ?: a5 Q" @2 U" }Bit rate                                 : 0 b/s
1 F  q; I; z9 [, GCount of elements                        : 11
3 d1 b( o6 i: A- m( bStream size                              : 413 Bytes (0%)0 q" \9 y2 r7 W( i  c# Y. a1 M
Title                                    : FORCED
2 H: M) a2 v8 N4 g+ h5 `Language                                 : English
. ]; b& E% H) j( o5 DDefault                                  : No
  X9 T" o3 Q1 ?# ?* C, q( xForced                                   : Yes# u) e2 |% T. R- p5 h$ _
; F+ {* f7 u" s; n
Text #2
* C+ V' k" r. @+ f3 OID                                       : 6
- b2 ^4 M3 x$ B6 RFormat                                   : UTF-8% m' u4 h' ?% M8 Q. {+ Z& e
Codec ID                                 : S_TEXT/UTF8; S- j, Y  P3 ^/ w5 h
Codec ID/Info                            : UTF-8 Plain Text
) X! ]* ?5 E, [) G7 B5 qDuration                                 : 1 h 47 min  R4 w; W" j, k% E/ m* v' k+ N
Bit rate                                 : 41 b/s
. i" q9 I$ ^6 O% E# h; UCount of elements                        : 1157
4 q% \' k$ E/ F% F) VStream size                              : 32.7 KiB (0%)
; ^* j/ H$ S! B: ]% ^Language                                 : English7 S3 S2 o' `. o9 k# r2 T5 h$ r
Default                                  : Yes5 ]( l2 b* P9 _# O1 o) I
Forced                                   : No, S: f9 R) T& k, ?7 {

2 Q) X' R/ O5 Q: O1 sText #38 w+ [% B: g$ d( F3 f4 Z
ID                                       : 7: z$ ?6 B: p4 z3 N6 ?
ID in the original source medium         : 4768 (0x12A0)
% U0 R& e- l& lFormat                                   : PGS) O& N) K9 D4 t
Muxing mode                              : zlib. q  Z: u4 M! ?( q4 C, K: k
Codec ID                                 : S_HDMV/PGS
: J0 J) W$ q8 V/ j+ J& D! vCodec ID/Info                            : Picture based subtitle format used on BDs/HD-DVDs8 N2 P; d& X0 j. N* z
Duration                                 : 1 h 46 min* ^0 K* a& J* D( @( B
Bit rate                                 : 24.3 kb/s- z9 `& g- Y9 o0 z
Count of elements                        : 1708
! f% K4 w4 i' Z1 W! r. XStream size                              : 18.5 MiB (0%)
0 Z! z5 q% r; p/ }Language                                 : German2 V. |6 G0 \( D' C0 G% ?
Default                                  : No
$ x6 I& B( C& g, _  ]0 B1 g( r$ tForced                                   : No" u4 P# H4 K& T- Q# O: C9 c2 |3 d
Original source medium                   : Blu-ray
0 I1 G* ]! X, y( Y3 ]0 [* g' b# v& e9 ?! c
Text #4
& u6 c, R8 ?$ q6 z4 b. H1 l! tID                                       : 8
: J* S: x% K5 u' WID in the original source medium         : 4769 (0x12A1)
' e, J# X0 u9 h4 S% V5 w9 @) XFormat                                   : PGS- p/ ^' r, ~) t- R  ?
Muxing mode                              : zlib, y! x) x1 m% T' ?
Codec ID                                 : S_HDMV/PGS2 D2 S6 J- @, F+ H6 O+ H# h" d& f5 F
Codec ID/Info                            : Picture based subtitle format used on BDs/HD-DVDs7 c1 S5 P2 J! g  ^  |
Duration                                 : 1 h 47 min
/ Z# u; D8 I+ v# ZBit rate                                 : 27.7 kb/s  ^# j! M% L6 Q0 \* M
Count of elements                        : 2328
5 V" t' ~; U0 j: W$ ^6 F8 EStream size                              : 21.3 MiB (0%)- h( M) g  A, J. [- q
Language                                 : English
$ R; a/ j: C- x; P0 d8 Z1 {8 bDefault                                  : No. r1 O' P3 ~5 D( h
Forced                                   : No
, L# w3 J3 E; n% _Original source medium                   : Blu-ray
3 i4 G. ~; L) u
% `" H- x/ l6 b8 S( b+ FText #5
1 m" V% Y, O3 l0 H/ uID                                       : 94 w9 _3 ^- l5 z; I
ID in the original source medium         : 4770 (0x12A2)
7 G! i( i: G6 iFormat                                   : PGS, Q1 ]1 i; U& P* k
Muxing mode                              : zlib
* n; n; k  a( h- v( I, tCodec ID                                 : S_HDMV/PGS! E% _, {  K" k! f& n
Codec ID/Info                            : Picture based subtitle format used on BDs/HD-DVDs
; T: E7 B6 a6 q7 n* g# N) YDuration                                 : 1 h 34 min0 w. o7 n7 C) P8 a- _1 Y
Bit rate                                 : 302 b/s
3 w* [. G3 `4 f$ [Count of elements                        : 14  k4 C( _. G9 T, X" q) L! s
Stream size                              : 210 KiB (0%)/ q9 Y% Q/ f* N) O  b
Language                                 : German8 w$ B, F: _3 ?: O1 k4 u
Default                                  : No" ~0 Z. N: \% J: [9 p4 @+ g; {3 x
Forced                                   : No+ m$ I) f6 Q( ]; ]; e
Original source medium                   : Blu-ray* q. P- @; L  G+ G% B4 M: l; v. b

: w4 r$ d+ T  q5 E' VText #6
: u; {2 F0 Q1 X/ y3 W! {0 CID                                       : 10/ x3 _% J1 t7 E; E0 l' n
ID in the original source medium         : 4771 (0x12A3)
8 u  g! h' \- b" gFormat                                   : PGS
5 }! ?1 h% N! J! ?$ Z, YMuxing mode                              : zlib
/ D7 s/ x. W! p0 w5 A# JCodec ID                                 : S_HDMV/PGS
2 L, j4 _6 m$ N4 `: |Codec ID/Info                            : Picture based subtitle format used on BDs/HD-DVDs) E3 Q3 l/ z% v6 x
Duration                                 : 1 h 41 min
5 h, S4 c( ~# }1 W* V" vBit rate                                 : 467 b/s
9 z; f# L$ H' D6 ^5 q0 JCount of elements                        : 22* d9 C+ p; d$ H1 E5 D5 |% x
Stream size                              : 346 KiB (0%)
  v1 n, L/ h" V% ]  WLanguage                                 : English
3 T* y" q$ e' q' U+ YDefault                                  : No
* m/ n" {4 M4 [. E+ o8 [4 w" qForced                                   : No5 Z3 O) F9 M' t
Original source medium                   : Blu-ray+ ]' `) i4 v1 h8 s: @/ p+ b

# b+ \5 O* f  B5 eMenu
: m. p9 e- |. a5 J00:00:00.000                             : en:Chapter 01
- S! N4 s: ]. t, w00:09:19.875                             : en:Chapter 026 i- T* \5 \0 X9 f' Q+ Y5 C
00:15:49.208                             : en:Chapter 03! c1 E0 k% s. M% i6 ]
00:24:38.416                             : en:Chapter 042 }9 K) d! J- v
00:32:03.500                             : en:Chapter 05
+ P# G0 ?% E/ X# k) F  c% t00:41:15.291                             : en:Chapter 06
2 G+ O) Z# c- c$ }$ D8 m7 i00:49:18.000                             : en:Chapter 07
; E+ c$ r# h" I" g2 H( f7 _. J00:57:49.458                             : en:Chapter 08
4 n, `5 G8 w$ A. T# s2 G- d01:05:46.541                             : en:Chapter 09
( q& D7 C* Z0 C5 k# g# ~: T01:12:42.875                             : en:Chapter 104 E0 d6 X/ H% d
01:20:02.458                             : en:Chapter 11
5 D( s. o  y- ~2 N01:32:18.375                             : en:Chapter 12
* N3 ^' i2 b" E2 G7 j01:48:46.083                             : en:Chapter 13

; g7 R8 T9 o- d- w, D
游客,查看本帖隐藏内容请回复 | 加入VIP贵宾可免积分免回复 了解详情 | 还不是会员:点击获取邀请码 Invitation Code

27

主题

477

帖子

2657

积分

Sponsor

金币
19 枚
体力
1598 点
wyyo 发表于 2021-12-27 10:16:15 | 显示全部楼层
每天都来蓝光论坛看看,我爱蓝光电影。0 s! Z. k9 q9 J
In fact, I have always felt that the landlord of good taste! Ha ha!
" N1 x$ E4 \0 d6 o! b5 A

78

主题

3794

帖子

1万

积分

Sponsor

金币
2086 枚
体力
5502 点
lanpanshuma 发表于 2021-12-27 11:26:19 | 显示全部楼层
哥顶的不是帖子,是孤独!
, C# ?  M3 m( o( uBlu-ray movies Community: my favorite!
/ t" f: j# L) C( S1 h

0

主题

66

帖子

370

积分

Sponsor

金币
5 枚
体力
229 点
sj19920312 发表于 2021-12-27 16:56:04 | 显示全部楼层
啥也不说了,楼主就是给力!
" V% t, a# f0 S; w) x1 Z, C( HBlu-ray Film Forum: I will always support you!
& v9 D1 j. U2 T/ ~3 I' W

0

主题

238

帖子

1086

积分

Sponsor

金币
107 枚
体力
488 点
chnajr 发表于 2021-12-27 22:27:47 | 显示全部楼层
每天都来蓝光论坛看看,我爱蓝光电影。  z  X- ~8 B. R& q; L1 G0 U
Blu-ray Film Forum: I will always support you!
0 m; E; q' m1 `/ k0 n1 |! `3 l: |# R

0

主题

435

帖子

1713

积分

Sponsor

金币
63 枚
体力
773 点
sebarstean 发表于 2021-12-28 19:45:41 | 显示全部楼层
每天都来蓝光论坛看看,我爱蓝光电影。
/ e6 w) \6 S- G! a3 h1 U! FThank you for sharing such a good resource polite reply, very sorry for myself!
5 h! p/ w- S# U; O' ~

0

主题

512

帖子

2151

积分

Sponsor

金币
226 枚
体力
866 点
QQ
fangfang789 发表于 2021-12-30 16:21:01 | 显示全部楼层
看了LZ的帖子,我只想说一句很好很强大!""( ~7 Z5 X8 G, A& l! f$ M
In fact, I have always felt that the landlord of good taste! Ha ha!, o: }7 o4 V) [" i

10

主题

755

帖子

5799

积分

VIP Primary

金币
1176 枚
体力
2613 点
我喜欢你快乐 发表于 2022-1-1 18:17:09 | 显示全部楼层
感谢楼主分享

本版积分规则

小黑屋|Archiver|蓝光电影资源网

GMT+8, 2022-1-18 15:57

Copyright © 2001-2022, Tencent Cloud.

快速回复 返回顶部 返回列表