BluRayCD Forum

 找回密码
 立即注册【分享大片】
查看: 3|回复: 0
收起左侧

[2160P极清] BJ单身日记 [4K HDR高码版] Bridget Jones Diary 2001 2160p UHD BluRaycd x265 10bit HDR DTS-HD MA 5.1-HOTGIRL 24.52GB

[复制链接]

6407

主题

6581

帖子

7万

积分

Post Share

金币
14984 枚
体力
21119 点

卓越贡献勋章

. [% B9 `- v) Q8 P% [

# Y1 e# v! u& S( e7 d8 ^( y! y◎片  名 Bridget Jones's Diary: {9 u) A+ m. x( a9 x  I
◎译  名 BJ单身日记/布雷吉特·琼斯的日记3 ]! m" B" }& L
◎年  代 2001
2 x' ?/ R5 o9 O; V◎产  地 英国/法国/美国/爱尔兰, l9 i. _1 j6 O% p" G. b
◎类  别 喜剧/爱情  H/ E* y/ ]4 ]3 O6 P% m
◎语  言 英语" H; u: D* j+ w& W! x4 n2 e
◎上映日期 2001-04-04(英国)- ~+ l  X8 G5 x2 w
◎IMDb评分  6.7/10 from 235,685 users
+ V. w) f7 I% U5 [  ~3 Z◎IMDb链接  https://www.imdb.com/title/tt0243155/
; I! k. S; _* T* E◎豆瓣评分 7.5/10 from 197,752 users2 J& p  m1 ?* ?& ?
◎豆瓣链接 https://movie.douban.com/subject/1304585/
5 N0 O0 Z7 Z7 t! _" R0 h◎片  长 1 h 36 min. a( P2 y: f9 j6 Z  a0 b# `8 T
◎导  演 莎伦·马奎尔 Sharon Maguire
& B: d* N5 o/ O) w% w5 [/ `) m◎编  剧 理查德·柯蒂斯 Richard Curtis
- Z- |( I* @1 y* m) D) [' y       安德鲁·戴维斯 Andrew Davies$ [, C" B9 S( B  v
       海伦·费尔丁 Helen Fielding: q7 z$ g8 J+ C4 y4 ~: p1 x' U
◎主  演 蕾妮·齐薇格 Renée Zellweger
) Q7 d" v! ], Y) C( U: X       科林·费尔斯 Colin Firth. N# E4 F0 W* p& P# T' }* N: {
       休·格兰特 Hugh Grant; \; a- Y+ O# S$ ^* Y* d2 m
       吉姆·布劳德本特 Jim Broadbent0 a: ~. p/ u2 m0 v# x
       雪莉·亨德森 Shirley Henderson8 @7 G/ ~0 D, F5 M7 O
       莎莉·菲利普斯 Sally Phillips  W# z( Y6 j4 }& y
       詹姆斯·卡利斯 James Callis0 h3 e9 a9 E9 e# g
       艾伯丝·戴维兹 Embeth Davidtz
* [; T4 O6 h( v# `7 C& C2 `7 T) |; l1 X       莎拉·亚历山大 Sarah Alexander1 T: ?8 |( Z9 p: U! b
       杰玛·琼斯 Gemma Jones
/ U5 e" P$ x- K5 D       多莉·韦尔斯 Dolly Wells: Z/ w( a& q! [& R8 @
       霍纳尔·布莱克曼 Honor Blackman* u7 p3 s& \. w- P0 f" s( w
       西莉亚·伊姆里 Celia Imrie! p5 V, F; [( X: [0 L9 B
       克里斯平 伯汉姆-卡特 Crispin Bonham-Carter* G. @3 }% ~' e4 t- ?  W3 z& a
       詹姆斯·福克纳 James Faulkner# R; c% W; M! P( ~  C" R
       克莱尔·斯金纳 Claire Skinner/ a; p1 e: }+ T- f' w! U6 k; i( O
       萨曼·拉什代 Salman Rushdie
$ O0 h9 M' e2 e2 N) y       杰弗里·阿切尔 Jeffrey Archer: h  T1 F5 t: Q8 I) X' f4 j
       费莉西蒂·蒙塔古 Felicity Montagu
0 O8 Z% w5 d* ^, ^       朱利安·巴恩斯 Julian Barnes
% r& E9 `% r  t1 w4 p0 Y0 e* w9 ]       埃玛·阿莫斯 Emma Amos
+ t5 ?% h0 C0 p) R3 y       保罗·布洛克 Paul Brooke; c$ m; n8 w: z# S' h
       Lisa Barbuscia8 C- R. \1 G$ y; t3 R9 d- t5 L
       内尔·皮尔森 Neil Pearson
$ n4 q) _, E2 B9 J6 X       帕特里克·巴罗 Patrick Barlow" W* }% }/ Y! c; f: Y+ H  ^9 G
       Christopher Kouros0 W9 o  `  J3 a" z6 a- W& }0 V
       Stefan Booth
' O, u. `6 S4 G       Paul Ross
4 C; N/ I, H- I; ~7 ]       Ben Peyton5 I: o9 V4 U8 c, i* O, g3 A7 @& U
       查米恩·梅 Charmian May
% S- \) d2 m8 q$ f. j0 a       Ben Illis
( w7 ~. a0 Z% R$ U- `2 W       Christine Hewett+ ^* G* u1 u6 t/ _6 g3 f
       唐纳德·道格拉斯 Donald Douglas5 n" B( Z. B1 s! w1 T5 h6 s! i# n
       盖瑞斯·马克 Gareth Marks
# {* a+ L& K, H5 c/ A) Z* J6 {       马克·林伍德 Mark Lingwood& S. k* z. Q9 l2 I* `
' G, j2 m  G" d! ~+ q" ^
◎标  签 爱情 | 喜剧 | 英国 | ColinFirth | HughGrant | 英国电影 | 愛情 | 电影+ Y( Z3 Y4 d2 C8 O' {2 l+ x, z. R6 M

5 Z3 P4 {! [  y- J* d) M3 Z; q8 q' {◎简  介   
; U" d! S+ w1 E& O  s! p5 O+ U7 {% k/ F
  布里奇特·琼斯(蕾妮·齐维格 饰)是一个32岁的单身女子。她的工作及生活都是平淡无奇的,她唯一想得到一份真挚的爱情,就算有一众好友在身边及时安慰,布里奇特还是没有好过点。新的一年里,她要过一种新的生活。她选择用日记把自己生活里的点点滴滴都记录下来,她开始变得喜悦起来。
( S/ u! _/ {! ~4 x5 N, W; u
% z- F; O1 _5 t# q+ `3 d7 |  这时在她与风流倜傥的上司丹尼尔·克里弗(休·格兰特 饰)产生了感情,丹尼尔原来早与女友订婚,使布里奇特伤心不已。高傲却真实的马克•达西(科林·菲尔斯 饰)也表示对她的爱慕之情。布里奇特周旋在两个男人之间,不知如何选择。# s! O9 }+ h) T# x
% [4 z( B5 r1 Z
  Bridget Jones is determined to improve herself while she looks for love in a year in which she keeps a personal diary.
+ H. c  k4 ^. c5 i: t, R+ B( L, |
◎获奖情况  {9 b$ b" E% P
% i) P1 `2 \% y
  第74届奥斯卡金像奖 (2002)+ C$ s: n, Q: Q: M6 P
  最佳女主角(提名) 蕾妮·齐薇格
8 ^" a' M- s5 K$ `0 `  
4 L$ V9 W  i$ R* P2 J2 }  第59届金球奖 (2002)
" s- ]) _, H; w- B4 ], |' {' M  电影类最佳音乐/喜剧片(提名)
7 T, j, q9 E* N+ L/ l* L  电影类音乐/喜剧片最佳女主角(提名) 蕾妮·齐薇格  P$ O% J1 e9 S% m
: Y* X# }4 H! S5 O" `
Bridget.Jones.Diary.2001.2160p.UHD.BluRayCD.x265.10bit.HDR.DTS-HD.MA.5.1-HOTGIRL 24.52 GB# T7 m6 F% y. x! @# x

9 F, U' P- F, j* ~7 f8 z; r/ sVideo' _) V: R4 q2 m& u
ID : 1' `0 i& Q/ V% w% V7 n  Z2 t5 S
Format : HEVC7 k4 l# k3 B5 i" G$ Z
Format/Info : High Efficiency Video Coding
8 c( a4 ], \5 X1 v0 s( wFormat profile : Main 10@L5.1@High$ U5 B7 g5 y! T& I  I
HDR format : SMPTE ST 2086, HDR10 compatible. j' ~" b  p! G
Codec ID : V_MPEGH/ISO/HEVC# k- r* x( q6 j7 a5 p
Duration : 1 h 36 min
) O6 N1 w" b* ?! O: N  b" s7 [  Q" FBit rate : 33.9 Mb/s
: C, z$ W% g* j' f- J: R# G. ZWidth : 3 840 pixels
( f. x7 k! ^- P: s) `: }& d5 J* ZHeight : 1 606 pixels
; T3 u6 g, T. ~( P8 g6 Q  t* {! yDisplay aspect ratio : 2.40:1
1 ]0 _- B1 _& o  X3 bFrame rate mode : Constant
4 v2 S5 t" l- }2 E+ bFrame rate : 24.000 FPS6 ^8 f0 L. A1 ^1 e6 P
Color space : YUV
# S  {. m# u. n+ S0 _0 y2 S+ i5 eChroma subsampling : 4:2:0 (Type 2)
2 t! m  g1 g9 H8 m/ g: U: kBit depth : 10 bits
" ]! Y0 f6 D% `1 t+ pBits/(Pixel*Frame) : 0.229
; S- ]" ]  M0 A- q' _$ _Stream size : 22.9 GiB (94%)
& w% Z. u( d" G. d7 v6 ^Writing library : x265 3.5+19-8003e4382:[Windows][MSVC 1900][64 bit] 10bit( }8 `) r2 G/ ^& c! F" `; m
Encoding settings : cpuid=1111039 / frame-threads=5 / numa-pools=32 / wpp / no-pmode / no-pme / no-psnr / no-ssim / log-level=2 / input-csp=1 / input-res=3840x1606 / interlace=0 / total-frames=139639 / level-idc=51 / high-tier=1 / uhd-bd=0 / ref=4 / no-allow-non-conformance / repeat-headers / annexb / aud / no-eob / no-eos / hrd / info / hash=0 / no-temporal-layers / no-open-gop / min-keyint=24 / keyint=250 / gop-lookahead=0 / bframes=4 / b-adapt=2 / b-pyramid / bframe-bias=0 / rc-lookahead=25 / lookahead-slices=4 / scenecut=40 / no-hist-scenecut / radl=0 / no-splice / no-intra-refresh / ctu=64 / min-cu-size=8 / rect / no-amp / max-tu-size=32 / tu-inter-depth=1 / tu-intra-depth=1 / limit-tu=0 / rdoq-level=2 / dynamic-rd=0.00 / no-ssim-rd / signhide / no-tskip / nr-intra=0 / nr-inter=0 / no-constrained-intra / no-strong-intra-smoothing / max-merge=3 / limit-refs=3 / limit-modes / me=3 / subme=3 / merange=57 / temporal-mvp / no-frame-dup / no-hme / weightp / no-weightb / no-analyze-src-pics / deblock=-3:-3 / no-sao / no-sao-non-deblock / rd=4 / selective-sao=0 / no-early-skip / rskip / no-fast-intra / no-tskip-fast / no-cu-lossless / no-b-intra / no-splitrd-skip / rdpenalty=0 / psy-rd=2.00 / psy-rdoq=1.00 / no-rd-refine / no-lossless / cbqpoffs=0 / crqpoffs=0 / rc=crf / crf=15.5 / qcomp=0.60 / qpstep=4 / stats-write=0 / stats-read=0 / vbv-maxrate=160000 / vbv-bufsize=160000 / vbv-init=0.9 / min-vbv-fullness=50.0 / max-vbv-fullness=80.0 / crf-max=0.0 / crf-min=0.0 / ipratio=1.40 / pbratio=1.30 / aq-mode=2 / aq-strength=0.80 / cutree / zone-count=0 / no-strict-cbr / qg-size=32 / no-rc-grain / qpmax=69 / qpmin=0 / no-const-vbv / sar=1 / overscan=0 / videoformat=5 / range=0 / colorprim=9 / transfer=16 / colormatrix=9 / chromaloc=1 / chromaloc-top=2 / chromaloc-bottom=2 / display-window=0 / master-display=G(8500,39850)B(6550,2300)R(35400,14600)WP(15635,16450)L(10000000,1) / cll=0,0 / min-luma=0 / max-luma=1023 / log2-max-poc-lsb=8 / vui-timing-info / vui-hrd-info / slices=1 / no-opt-qp-pps / no-opt-ref-list-length-pps / no-multi-pass-opt-rps / scenecut-bias=0.05 / hist-threshold=0.03 / no-opt-cu-delta-qp / no-aq-motion / hdr10 / hdr10-opt / no-dhdr10-opt / no-idr-recovery-sei / analysis-reuse-level=0 / analysis-save-reuse-level=0 / analysis-load-reuse-level=0 / scale-factor=0 / refine-intra=0 / refine-inter=0 / refine-mv=1 / refine-ctu-distortion=0 / no-limit-sao / ctu-info=0 / no-lowpass-dct / refine-analysis-type=0 / copy-pic=1 / max-ausize-factor=1.0 / no-dynamic-refine / no-single-sei / no-hevc-aq / no-svt / no-field / qp-adaptation-range=1.00 / scenecut-aware-qp=0conformance-window-offsets / right=0 / bottom=0 / decoder-max-rate=0 / no-vbv-live-multi-pass
$ R9 c3 {; F2 ^0 ]- eDefault : Yes! L$ [* Y5 K& C
Forced : No
- O8 ^  J4 y6 JColor range : Limited
. o5 ^8 i( m" uColor primaries : BT.2020* }' N" f( y" k. E
Transfer characteristics : PQ% N" ~& I) s  U/ z  e
Matrix coefficients : BT.2020 non-constant/ @) M+ X$ z# O
Mastering display color primaries : BT.2020% |- @3 X  G, D- d
Mastering display luminance : min: 0.0001 cd/m2, max: 1000 cd/m2& b- u8 m4 m4 g0 X+ f! k

6 C+ Q3 Y8 q& c. cAudio #16 o; G& r. K, q5 B
ID : 2
- @" m) E4 r0 V% ^3 b1 }Format : DTS XLL
6 h3 P3 z6 z8 a, K. k1 k% _6 Z" d+ FFormat/Info : Digital Theater Systems$ R  \" _- n( L: ]) U$ ^
Commercial name : DTS-HD Master Audio
' q' e0 E8 h  iCodec ID : A_DTS# Y) U  d8 S7 R* a
Duration : 1 h 36 min6 H% f* d+ s8 v/ J4 x: c: N) P
Bit rate mode : Variable
( r: P1 t/ y6 M) t' OBit rate : 2 087 kb/s7 v" R% O& _( `. G+ v0 T4 ~& [
Channel(s) : 6 channels7 J4 g3 ~: g* ^( S% y' j
Channel layout : C L R Ls Rs LFE
, c$ W# v$ w& z) KSampling rate : 48.0 kHz4 F' y5 b! S( B+ o& }1 h0 m* U$ G
Frame rate : 93.750 FPS (512 SPF)
* Q  u+ r& T) P$ ]: g0 v4 @; IBit depth : 24 bits0 q3 D: S# Z9 W' S3 l
Compression mode : Lossless  T" t$ h7 d& f- H: P3 X4 m8 Q6 d( k9 q
Stream size : 1.41 GiB (6%)/ g6 j, z( R6 ^' w. {
Title : DTS-HD MA 5.1- f, i4 h) s1 Z- n
Language : English# [& \  w, e2 O' l) f- y( \7 H
Default : Yes
, N7 w2 \$ E: I2 r" k/ V. lForced : No, Z+ N. U; i# G/ k  p# H
4 O# A( f0 k0 x3 ^  b
Audio #2
% B) }# ?8 P7 B5 J2 K; X6 [7 uID : 3% w; p0 B, i& _% G
Format : AAC LC0 i/ c  M6 m! q  j# h, ]
Format/Info : Advanced Audio Codec Low Complexity
. `8 W, l9 a# \4 g2 _Codec ID : A_AAC-2
0 V% e5 H* l, A: G0 iDuration : 1 h 36 min
" A  e4 E+ X& X) w% IBit rate : 104 kb/s
: E  c! G# [8 U8 x' I; V; T2 e) rChannel(s) : 2 channels+ [; K, B+ \" W/ r/ O0 i; C
Channel layout : L R
: p' P! H6 f4 E# k% S4 `% ASampling rate : 48.0 kHz
0 g4 v# h' U" n0 x: z: g7 H+ DFrame rate : 46.875 FPS (1024 SPF)' o  ~+ y7 C! k& g. D
Compression mode : Lossy
. Z0 K" A( Q& `# \5 w6 C1 {Delay relative to video : 9 ms
  ?: p$ a9 G& C3 iStream size : 72.4 MiB (0%)
$ H/ r- p$ K; q/ eTitle : Commentary
5 h$ k: Q8 t, d7 E+ wLanguage : English5 {. R% q- z) t, B; |
Default : No
; o* E6 l1 A( M9 aForced : No
0 N$ I1 C+ i8 [. k, d9 i
2 Q7 Q3 P/ b8 t9 UText #1% R: o, r% b- {. t
ID : 4. k; c) o; j: P% c3 `* k& }8 r+ F
Format : PGS
5 a- p4 {& V4 Q0 U, O( ^Muxing mode : zlib/ w( b# T+ E3 ~
Codec ID : S_HDMV/PGS/ }' i& J% D% M3 P
Codec ID/Info : Picture based subtitle format used on BDs/HD-DVDs
$ X" j% C; x0 H2 M& i" WDuration : 1 h 35 min
! a' D/ A3 Y' R2 PBit rate : 32.3 kb/s& F. x' G2 i4 f9 E
Count of elements : 2356' Y" C0 G5 u4 Y% R
Stream size : 21.9 MiB (0%)
+ \( ]/ k% B3 O! ?( z$ C! v0 w% aTitle : Full
2 j/ G7 q& C7 b- ?2 hLanguage : French
$ S/ j% ?. o7 P4 M: i  H& _2 aDefault : No) d% `; V$ l% r* @) ~4 Y/ e  b. C: f
Forced : No
6 c( y+ v+ H) @6 C& R6 l
/ m- O4 J, q! _" mText #2
2 \! v5 h# K$ J2 JID : 5+ F. t  G1 k! u  r4 O; ?
Format : PGS% [3 s- E/ N. E) l! D, A
Muxing mode : zlib
! U" j9 k( q! {1 g/ r- [Codec ID : S_HDMV/PGS' w& A3 l& R! z  B
Codec ID/Info : Picture based subtitle format used on BDs/HD-DVDs8 q3 t% t3 l1 A
Duration : 1 h 36 min$ g( u& D4 n) A# w. z' W& M7 z
Bit rate : 36.3 kb/s, X0 j$ F& j6 i  v7 h$ }. V
Count of elements : 2320- a4 A  j# ~2 [1 ^: \* _
Stream size : 25.1 MiB (0%). z3 f. U) z& Q/ L
Title : Commnetary' F6 l; s/ l" A: o' F5 S
Language : French. m7 w& f" Y' r1 S  s/ L
Default : No
9 c7 ~5 v$ Q1 \9 lForced : No
" O1 I" z5 U, C, H9 z4 w
) }  h$ ?# B% AMenu
0 o. ~* \& v6 W& e00:00:00.000 : en:Chapter 014 Q* k: H9 i- {% {+ s. o
00:07:25.000 : en:Chapter 02
6 B" s2 q+ n) i; k& w00:16:11.375 : en:Chapter 03
$ Z0 F9 p* y$ X4 l) A00:23:27.542 : en:Chapter 04
6 G) d; `* f# L; |00:31:25.125 : en:Chapter 05
/ {% `  h8 H* A, ]- t4 {$ a00:40:20.125 : en:Chapter 06
: I. |4 t2 v. ?& J  i) M00:48:57.625 : en:Chapter 07# u2 W. d& R% {$ s! U
00:57:03.875 : en:Chapter 08- Z! @2 t  c9 j+ }- |+ V
01:04:00.333 : en:Chapter 09( t3 d; q- m4 K( S% P$ n
01:13:57.500 : en:Chapter 10
  V# d1 v4 g/ n, x$ E01:23:25.042 : en:Chapter 11
; {2 `1 U9 S, ^$ I1 k4 \01:32:03.750 : en:Chapter 12
& E! k4 q# ~9 }  W0 O
游客,查看本帖隐藏内容请回复 | 加入VIP贵宾可免积分免回复 了解详情 | 还不是会员:点击获取邀请码 Invitation Code

本版积分规则

小黑屋|Archiver|蓝光电影资源网

GMT+8, 2021-12-2 23:32

Copyright © 2001-2022, Tencent Cloud.

快速回复 返回顶部 返回列表