BluRayCD Forum

 找回密码
 立即注册【分享大片】
查看: 4|回复: 0
收起左侧

[2160P极清] BJ单身日记 [4K SDR高码版] Bridget Jones Diary 2001 2160p BluRaycd x265 10bit & 8bit SDR DTS-HD MA 5.1-SWTYBLZ 31.45GB & 35.74GB

[复制链接]

6407

主题

6581

帖子

7万

积分

Post Share

金币
14984 枚
体力
21119 点

卓越贡献勋章

黄金嫖客 发表于 2021-11-25 23:06:11 | 显示全部楼层 |阅读模式

: }$ U5 ~) f: H& o  J* [. ~0 N) h/ n6 A. B5 J$ I2 b5 \
◎片  名 Bridget Jones's Diary9 P5 h  v: i$ [6 C9 M$ C( C
◎译  名 BJ单身日记/布雷吉特·琼斯的日记
0 M& n7 C. d$ e: ]5 ^◎年  代 2001- o8 g: z( P8 h  x
◎产  地 英国/法国/美国/爱尔兰* x# T; W8 a- P6 G/ E) w. z: M
◎类  别 喜剧/爱情
. C0 K# Q  W9 a( ^. g/ ?◎语  言 英语. m: z; K8 C) A% [: G/ H: r3 W
◎上映日期 2001-04-04(英国)4 ]* V6 [: u% m  b8 \7 K9 B- o2 _, L3 I
◎IMDb评分  6.7/10 from 235,685 users/ d0 P( d% Y# Y6 T/ R) n
◎IMDb链接  https://www.imdb.com/title/tt0243155/% Y% u1 v+ K" G' F7 D
◎豆瓣评分 7.5/10 from 197,752 users2 S5 t  x6 I2 B" t- ?1 ]
◎豆瓣链接 https://movie.douban.com/subject/1304585/  K+ [4 t, x( j" C% r
◎片  长 1 h 36 min
0 m3 c* w( n  u) ~◎导  演 莎伦·马奎尔 Sharon Maguire
4 v* H' `  i+ \7 |- j◎编  剧 理查德·柯蒂斯 Richard Curtis$ I- z8 X- J( d, m: F
       安德鲁·戴维斯 Andrew Davies
* Y5 Q1 U3 p$ B2 u7 a; z# P' t4 V       海伦·费尔丁 Helen Fielding* L3 u$ u9 j; P9 s! R
◎主  演 蕾妮·齐薇格 Renée Zellweger
( Z5 W' M1 [. t: g$ F" I! ^# Q       科林·费尔斯 Colin Firth  r. ^+ ~( ?& t+ v6 F
       休·格兰特 Hugh Grant
3 [% L" z/ @9 Z5 x3 F, {8 Y       吉姆·布劳德本特 Jim Broadbent, n5 F8 Q8 o8 Y& O! {6 Z: i
       雪莉·亨德森 Shirley Henderson
! j6 L7 O& i' K       莎莉·菲利普斯 Sally Phillips/ e, R' B8 ?0 S: w- E
       詹姆斯·卡利斯 James Callis3 A# k+ l/ }9 z5 m' y
       艾伯丝·戴维兹 Embeth Davidtz
+ z" @9 W9 G& v! \, {       莎拉·亚历山大 Sarah Alexander! T' r3 p% e$ i( B$ ~7 W4 E' `
       杰玛·琼斯 Gemma Jones
+ W3 o% @# H1 G) t& T* R$ W# S  `. ~       多莉·韦尔斯 Dolly Wells
- F( C0 ]1 D7 h       霍纳尔·布莱克曼 Honor Blackman. E  V7 ^8 N# Q5 ~
       西莉亚·伊姆里 Celia Imrie$ F4 \% |5 ?; {9 }4 r$ @
       克里斯平 伯汉姆-卡特 Crispin Bonham-Carter
( {4 }/ V6 M/ V- |       詹姆斯·福克纳 James Faulkner" g* K: x! g. }9 k- D" Z
       克莱尔·斯金纳 Claire Skinner
3 s2 P0 [) x. x, @) y, a9 m1 b       萨曼·拉什代 Salman Rushdie0 F6 h' y& {  f# k- m
       杰弗里·阿切尔 Jeffrey Archer3 E- K& P6 \9 q" W& M
       费莉西蒂·蒙塔古 Felicity Montagu
! J9 x9 G8 P3 a* T/ K1 L* @" [- n       朱利安·巴恩斯 Julian Barnes5 Z5 B' v. Y) Y- m4 F
       埃玛·阿莫斯 Emma Amos
8 |( u" n7 e& A$ b4 J" K       保罗·布洛克 Paul Brooke" s& U( Z. c1 T- }# w) N
       Lisa Barbuscia
) A/ U* ?) @4 u3 }+ _+ Z$ o2 T       内尔·皮尔森 Neil Pearson. k8 s9 ~# y6 {% d9 C; H8 z$ y
       帕特里克·巴罗 Patrick Barlow
# c2 N3 w, V7 C       Christopher Kouros  U4 x5 w, ~  G
       Stefan Booth8 O, V/ `5 n1 A5 U' T
       Paul Ross3 ^- q; l8 C; z  ~  c
       Ben Peyton
. x( j; z" Z  f; D( G       查米恩·梅 Charmian May  @+ h8 M4 i$ W9 t
       Ben Illis
+ D$ m1 J, K+ t% }# k       Christine Hewett# i% N8 a: y& C+ g: A
       唐纳德·道格拉斯 Donald Douglas
/ T3 `3 X0 F0 m9 [       盖瑞斯·马克 Gareth Marks$ f, t- a( M' P8 t8 M* ?
       马克·林伍德 Mark Lingwood
3 H3 c+ f  ?! }; _4 _
3 c( S3 B# |0 W◎标  签 爱情 | 喜剧 | 英国 | ColinFirth | HughGrant | 英国电影 | 愛情 | 电影
. E! u; B, W" a; r4 o$ q( A. L! s: r, q" p4 y- M
◎简  介   
" l8 R6 P2 |7 Y$ l  g* C' |0 S+ b6 T
  布里奇特·琼斯(蕾妮·齐维格 饰)是一个32岁的单身女子。她的工作及生活都是平淡无奇的,她唯一想得到一份真挚的爱情,就算有一众好友在身边及时安慰,布里奇特还是没有好过点。新的一年里,她要过一种新的生活。她选择用日记把自己生活里的点点滴滴都记录下来,她开始变得喜悦起来。% u( s% n1 K4 W8 R, o& ^$ _9 N

+ }$ [2 b. [4 y3 k. d, {  这时在她与风流倜傥的上司丹尼尔·克里弗(休·格兰特 饰)产生了感情,丹尼尔原来早与女友订婚,使布里奇特伤心不已。高傲却真实的马克·达西(科林·菲尔斯 饰)也表示对她的爱慕之情。布里奇特周旋在两个男人之间,不知如何选择。
" j  P* G. F- O! X  d( W+ L1 K, ?* F3 d: Z
  Bridget Jones is determined to improve herself while she looks for love in a year in which she keeps a personal diary.. j. o1 Q0 |4 p7 u& e1 D1 R: z

8 e) U1 A) C; d" c1 a* \0 X◎获奖情况
3 \7 }% M5 L. p9 Y; H! }7 k8 y+ h  m" b3 J5 O0 Q4 @
  第74届奥斯卡金像奖 (2002)1 \  h' ^/ O9 p( F8 a1 B: \
  最佳女主角(提名) 蕾妮·齐薇格
$ I- }$ |) Y. F  ]  X1 {: g  9 q9 R! u) d" Z7 v) c6 @1 E! x7 V( N
  第59届金球奖 (2002)
0 ]8 }& v; x  l  电影类最佳音乐/喜剧片(提名)1 [5 _0 G! I, ?' K" G
  电影类音乐/喜剧片最佳女主角(提名) 蕾妮·齐薇格
( m* J" Y. _& a8 P/ b
, G2 f1 H9 C+ K- U: i2 q9 U
SWEATY BALLZ presents
7 ^1 c) H. T6 G! n" T8 E
/ ]; l4 a7 R5 L1 A! oBridget.Joness.Diary.2001.2160p.BluRayCD.x265.10bit.SDR.DTS-HD.MA.5.1-SWTYBLZ 31.45 GB
3 p) X, [2 h" {; y- ~Converted from 10 bit HDR to 10 bit SDR using tripple mixed Hable-Reinhard-JJ per scene+frame analysis algorithm4 w* L% e4 n6 b: G! l
Screenshots are 8bit SDR! y5 p; ^, Q& U$ M+ }  p4 r9 h6 T

& N9 D& }. Z- R  L, d) d4 ^" m* CVideo9 t8 H% F0 t$ w9 ^
ID                                       : 1# V2 x! Z8 z' O( \+ s
Format                                   : HEVC
& h* _7 I2 L; F) x7 u. {Format/Info                              : High Efficiency Video Coding
3 v3 h1 D1 f- U0 I- d, w4 CFormat profile                           : Main [email protected]@High$ [7 r+ v" n* K1 _
Codec ID                                 : V_MPEGH/ISO/HEVC
" F$ A- q  s: w( o1 Y' P% v7 hDuration                                 : 1 h 36 min
( v+ W9 C3 E& g7 u- f5 A; U6 pBit rate                                 : 43.4 Mb/s; X$ l6 `% Z/ b3 r
Width                                    : 3 840 pixels
' _. E! h: E. \Height                                   : 1 606 pixels  o9 o; w  F( }
Display aspect ratio                     : 2.40:1
# U2 e$ H# ^+ y6 kFrame rate mode                          : Constant
( D8 U% [+ K, z$ ?: \/ zFrame rate                               : 24.000 FPS
& V* V0 q( p& V: i, ~) LColor space                              : YUV
: p7 \- c" k+ n2 ^4 rChroma subsampling                       : 4:2:0
1 A& a4 u7 z% s9 A2 K+ i! v/ o1 O& EBit depth                                : 10 bits
+ T! O0 j: H5 l% \3 t6 }Bits/(Pixel*Frame)                       : 0.293
2 j0 q: Q1 R! }* f$ U! JStream size                              : 29.4 GiB (94%)" t+ ^; M! m/ w
Writing library                          : x265 3.0ed72af837053:[Windows][GCC 8.2.0][64 bit] 10bit
, u3 F$ H: {, _Encoding settings                        : cpuid=1111039 / frame-threads=6 / numa-pools=40 / wpp / no-pmode / no-pme / no-psnr / no-ssim / log-level=2 / input-csp=1 / input-res=3840x1606 / interlace=0 / total-frames=139639 / level-idc=51 / high-tier=1 / uhd-bd=0 / ref=3 / no-allow-non-conformance / repeat-headers / annexb / aud / hrd / info / hash=0 / no-temporal-layers / no-open-gop / min-keyint=1 / keyint=24 / gop-lookahead=0 / bframes=4 / b-adapt=2 / b-pyramid / bframe-bias=0 / rc-lookahead=25 / lookahead-slices=4 / scenecut=40 / radl=0 / no-splice / no-intra-refresh / ctu=64 / min-cu-size=8 / no-rect / no-amp / max-tu-size=32 / tu-inter-depth=1 / tu-intra-depth=1 / limit-tu=0 / rdoq-level=0 / dynamic-rd=0.00 / no-ssim-rd / signhide / no-tskip / nr-intra=0 / nr-inter=0 / no-constrained-intra / strong-intra-smoothing / max-merge=2 / limit-refs=3 / no-limit-modes / me=1 / subme=2 / merange=57 / temporal-mvp / weightp / no-weightb / no-analyze-src-pics / deblock=0:0 / no-sao / no-sao-non-deblock / rd=3 / no-early-skip / rskip / no-fast-intra / no-tskip-fast / no-cu-lossless / no-b-intra / no-splitrd-skip / rdpenalty=0 / psy-rd=2.00 / psy-rdoq=0.00 / no-rd-refine / no-lossless / cbqpoffs=0 / crqpoffs=0 / rc=crf / crf=18.0 / qcomp=0.60 / qpstep=4 / stats-write=0 / stats-read=0 / vbv-maxrate=160000 / vbv-bufsize=160000 / vbv-init=0.9 / crf-max=0.0 / crf-min=0.0 / ipratio=1.40 / pbratio=1.30 / aq-mode=1 / aq-strength=1.00 / cutree / zone-count=0 / no-strict-cbr / qg-size=32 / no-rc-grain / qpmax=69 / qpmin=0 / no-const-vbv / sar=1 / overscan=0 / videoformat=5 / range=0 / colorprim=2 / transfer=2 / colormatrix=2 / chromaloc=0 / display-window=0 / max-cll=0,0 / min-luma=0 / max-luma=1023 / log2-max-poc-lsb=8 / vui-timing-info / vui-hrd-info / slices=1 / opt-qp-pps / opt-ref-list-length-pps / no-multi-pass-opt-rps / scenecut-bias=0.05 / no-opt-cu-delta-qp / no-aq-motion / no-hdr / no-hdr-opt / no-dhdr10-opt / no-idr-recovery-sei / analysis-reuse-level=5 / scale-factor=0 / refine-intra=0 / refine-inter=0 / refine-mv=0 / refine-ctu-distortion=0 / no-limit-sao / ctu-info=0 / no-lowpass-dct / refine-analysis-type=0 / copy-pic=1 / max-ausize-factor=1.0 / no-dynamic-refine / no-single-sei / no-hevc-aq / qp-adaptation-range=1.000 Z6 J+ @& l. ~$ M% N  h+ _' s
Default                                  : Yes
6 ]8 S+ k0 I! n/ XForced                                   : No) }6 J- j; ?- n
' Q+ Z' a. z9 k3 ~9 z. r6 W
Audio #11 g% F; M' B6 m  F
ID                                       : 2
% E) F, a5 w9 T: w) E+ K' D8 v. GID in the original source medium         : 4353 (0x1101)0 ^, a9 O+ V! J4 }9 h* t
Format                                   : DTS XLL8 W- j: V; F8 b
Format/Info                              : Digital Theater Systems
' ~$ I& K+ T. U+ D/ r8 GCommercial name                          : DTS-HD Master Audio
5 d5 L* N* H, y4 x  |( y) |Codec ID                                 : A_DTS
' _- F% p" ~3 f$ r. v4 SDuration                                 : 1 h 36 min
4 p- g/ A' k; G7 d& X% dBit rate mode                            : Variable. `0 O2 ?$ J' M1 j+ n) N
Bit rate                                 : 2 087 kb/s
5 G5 N& J, S& c5 kChannel(s)                               : 6 channels2 E# e% V& P4 L
Channel layout                           : C L R Ls Rs LFE
9 N/ A5 M  ]$ I# q3 V  F# K$ USampling rate                            : 48.0 kHz
# l/ n: R8 s4 _$ X- q9 D, }1 K) FFrame rate                               : 93.750 FPS (512 SPF)
: D& J& A* c) DBit depth                                : 24 bits
- _7 O: P" |( i7 iCompression mode                         : Lossless
. Q- _7 y  I9 ^) p' ~1 c' `Stream size                              : 1.41 GiB (5%)
1 ^! Z/ W$ v  R9 `Title                                    : DTS MA 5.1" o2 u% Z5 q3 ]" x# }. V% F0 ?" Y5 |
Language                                 : English5 q/ \: e* [* O* g5 u' F' G
Default                                  : Yes
0 {. k0 g3 r, p" ^% e/ wForced                                   : No
0 M% l- [. D$ H. N- o$ FOriginal source medium                   : Blu-ray
; C/ J: T- w+ @) |
- {: H7 K* h2 v2 `# @8 Q9 T. AAudio #2' c3 c( i1 c( s
ID                                       : 3& p9 g. t1 d3 w8 N
Format                                   : AC-3
4 c6 A7 o" O0 l& Q2 f% g, WFormat/Info                              : Audio Coding 3
: w' Z( d! T9 _3 B; O' D5 wCommercial name                          : Dolby Digital7 P# ~1 d  g# f* ?4 ?; z! p
Codec ID                                 : A_AC3! q4 {, Y& {8 |
Duration                                 : 1 h 36 min7 ^8 I, P" t" F
Bit rate mode                            : Constant
  T1 p# F) Y4 y$ ^Bit rate                                 : 640 kb/s! l; p% d, M1 o8 T: `
Channel(s)                               : 6 channels! m& F* A% K' f" T( m5 p0 M
Channel layout                           : L R C LFE Ls Rs3 E4 C8 @+ {& t
Sampling rate                            : 48.0 kHz
* S) @6 v- l$ L6 {# lFrame rate                               : 31.250 FPS (1536 SPF)6 s" L# l* W6 g# Z: j5 ]
Compression mode                         : Lossy
2 E; k/ ^, t$ ?! X, y5 {2 |3 PStream size                              : 444 MiB (1%)
  G( [" ^; Z( G6 aTitle                                    : DD 5.1
& _' n$ u& s* bLanguage                                 : English3 R" Q! t2 w1 @6 U. J. X
Service kind                             : Complete Main6 i2 m! h6 K" h) s* G$ B* F. m
Default                                  : No
. w; o4 z1 @5 `" m; N6 h' k# U2 O/ TForced                                   : No
9 d/ c# ?# X( I5 ]9 D7 h; R$ ]
# t) X- X7 T6 ?5 f2 L( O* WText #1
! `+ G3 ]/ q" y' k5 kID                                       : 4
2 a7 ]4 x/ g9 T; O0 C  fFormat                                   : UTF-8
9 I1 F  t6 a: ^: K5 kCodec ID                                 : S_TEXT/UTF8
9 j2 n% ], E  i" f6 w6 X+ n1 oCodec ID/Info                            : UTF-8 Plain Text
' Q9 E" Z" N% S3 N) a  a3 ?! zDuration                                 : 1 h 36 min6 V6 l$ R; e7 R0 K
Bit rate                                 : 79 b/s
0 k6 O; q- @* e- y$ \# T. vCount of elements                        : 1461
' j% p, \  s% K4 m1 q; |' Y9 ]" _Stream size                              : 56.6 KiB (0%)7 i1 g. G3 m5 A! x9 _2 x
Title                                    : SRT+ F  z+ j) O0 Z* g
Language                                 : English% E1 J+ k; ^! w4 V
Default                                  : Yes& l, y3 H/ X9 s
Forced                                   : No' L' v6 _& p4 a: h6 B0 d
9 n1 n1 g0 z- ^' v' {5 n: R
Text #2
" }. g+ D2 V# B4 {4 f3 jID                                       : 5
2 H$ I) t- K: k" Z* QID in the original source medium         : 4769 (0x12A1)
' ], O: [, d1 N) }, QFormat                                   : PGS
7 @, r# T+ T8 w! [: AMuxing mode                              : zlib
9 b/ Q0 h9 i3 R5 L, O7 VCodec ID                                 : S_HDMV/PGS. [  r/ D1 [- h6 l+ k, Z2 W
Codec ID/Info                            : Picture based subtitle format used on BDs/HD-DVDs
0 U5 l$ U. s8 ?Duration                                 : 1 h 35 min; K- g2 L, L$ C* D% G5 U; r
Bit rate                                 : 32.3 kb/s
7 K) v) S: u  Y) q9 bCount of elements                        : 2356
/ e- ^6 r( S+ W, v0 G1 [Stream size                              : 21.9 MiB (0%)$ |! Y7 _5 y: D2 i' p
Language                                 : French
! x: F! @+ ^% Q4 _Default                                  : No
# j5 e4 c. g. \' O" z# z2 yForced                                   : No
  c9 w* g: v3 l9 NOriginal source medium                   : Blu-ray
/ Z- B' p9 x4 \$ b6 v7 d& y5 K; X. ]  k  Z4 B- \; Q; G
Menu7 Q- `/ T- |3 y  Z- u
00:00:00.000                             : en:Chapter 01/ t5 T; ~. U# g' t. C
00:07:24.750                             : en:Chapter 02
1 I! ^* \3 F7 c5 d. w00:16:11.000                             : en:Chapter 03
3 m; W& T; \' L. K& {4 W7 L' g00:23:27.166                             : en:Chapter 040 x4 Q+ G( U) }+ A5 w; O  X9 U
00:31:25.000                             : en:Chapter 058 h  F8 [+ I& _- _  W
00:40:19.916                             : en:Chapter 06
+ Q; I; {; V5 P! q5 t, E8 N00:48:57.625                             : en:Chapter 07+ C8 r( e& z0 d2 e+ ^1 r
00:57:03.875                             : en:Chapter 08
& H( H; p6 j; |; {* {" j& [01:04:00.000                             : en:Chapter 09
8 ^1 y" @2 k" i01:13:57.500                             : en:Chapter 10
% X5 e3 c2 Z# {. A$ d9 Z8 a01:23:25.000                             : en:Chapter 11, e0 T3 X- C- N; a$ i9 _
01:32:03.416                             : en:Chapter 12
SWEATY BALLZ presents$ y4 f% w/ e. `; k( y
4 \6 }" f9 c  b  `5 J9 C
Bridget.Joness.Diary.2001.2160p.BluRaycd.x264.8bit.SDR.DTS-HD.MA.5.1-SWTYBLZ 35.74 GB
+ H- _2 n6 U; I7 ~6 F0 NConverted from 10 bit HDR to 8 bit SDR using tripple mixed Hable-Reinhard-JJ per scene+frame analysis algorithm2 Y! |( l: e* M

, U6 g9 ^5 a" ^+ t( `# E0 aVideo9 ?+ a% a7 M; Z
ID                                       : 1& i9 b& y/ i. L6 V" r
Format                                   : AVC
# f8 i5 u1 c) K) }$ g# lFormat/Info                              : Advanced Video Codec
! R/ D) ~1 m: G* y% z2 z6 T( pFormat profile                           : [email protected]% p$ U% }1 N5 V, f/ @6 }
Format settings                          : CABAC / 5 Ref Frames, a( C! d+ ]1 i! l8 r
Format settings, CABAC                   : Yes# U. H* P5 i/ u2 K0 }
Format settings, Reference frames        : 5 frames0 t) _4 L$ e) S, Y
Codec ID                                 : V_MPEG4/ISO/AVC3 z; y( B( G( H" U: m$ n
Duration                                 : 1 h 36 min7 z( i5 f& |$ M5 L) v4 I/ r1 m7 G0 D
Bit rate                                 : 49.7 Mb/s! P" c  {: h, Y5 ]) ~% R! r* ?
Width                                    : 3 840 pixels$ L6 F, G8 r4 |- s/ e+ G! a
Height                                   : 1 606 pixels
! D( |: Y% q" z* C" {9 bDisplay aspect ratio                     : 2.40:1
9 @6 V$ O# u! I+ Z. C% VFrame rate mode                          : Constant
$ n1 N1 S1 Z8 RFrame rate                               : 24.000 FPS
( O; S: }- F0 Y& H5 VColor space                              : YUV( @, T( k! m8 N. |: O! n8 B# t6 \$ I# G, N
Chroma subsampling                       : 4:2:0! w& I1 ?3 K2 ?! a1 S- U
Bit depth                                : 8 bits1 O2 A8 b+ s" d: d
Scan type                                : Progressive' F! u8 M9 H' Z. V1 I
Bits/(Pixel*Frame)                       : 0.336
3 U$ E/ y# ]% Z, ^1 DStream size                              : 33.7 GiB (95%)
: N9 I# D+ h* o+ ~Writing library                          : x264 core 157 r2935 545de2f
; t/ T" e+ j( N1 Q3 _/ h4 u4 |Encoding settings                        : cabac=1 / ref=5 / deblock=1:-1:-1 / analyse=0x3:0x113 / me=umh / subme=10 / psy=1 / psy_rd=1.00:0.15 / mixed_ref=1 / me_range=48 / chroma_me=1 / trellis=2 / 8x8dct=1 / cqm=0 / deadzone=21,11 / fast_pskip=1 / chroma_qp_offset=-3 / threads=38 / lookahead_threads=3 / sliced_threads=0 / nr=0 / decimate=0 / interlaced=0 / bluray_compat=0 / constrained_intra=0 / bframes=3 / b_pyramid=2 / b_adapt=2 / b_bias=0 / direct=3 / weightb=1 / open_gop=0 / weightp=2 / keyint=250 / keyint_min=24 / scenecut=40 / intra_refresh=0 / rc_lookahead=50 / rc=crf / mbtree=1 / crf=20.0 / qcomp=0.60 / qpmin=0 / qpmax=69 / qpstep=4 / ip_ratio=1.40 / aq=1:1.00! L( d! _( e4 x( m- y
Default                                  : Yes9 u: m' W3 p( |/ q  T, o
Forced                                   : No+ H' y! U: j3 l6 n* {

& W& C8 j" B4 {4 R8 F+ Y  aAudio #1
& T: S- E9 L# ZID                                       : 28 L. J" M9 [% |2 A! p: n; F
ID in the original source medium         : 4353 (0x1101)9 Y4 `" z( A0 l6 e+ ^
Format                                   : DTS XLL
+ i+ w) q4 E$ l/ j& MFormat/Info                              : Digital Theater Systems7 Q: H$ K  l1 e+ @
Commercial name                          : DTS-HD Master Audio
- N/ V% G3 s  ECodec ID                                 : A_DTS
8 J! g9 D& F" j5 Q! }Duration                                 : 1 h 36 min- _5 s) U% U0 C% t
Bit rate mode                            : Variable
) F$ Q! N* R5 O# yBit rate                                 : 2 087 kb/s
" a" {4 C* x- jChannel(s)                               : 6 channels
; y9 Q) N2 q) O# X( |Channel layout                           : C L R Ls Rs LFE
4 P  Z- n1 b$ O" b1 j+ ]2 WSampling rate                            : 48.0 kHz
6 A. W  t1 f% K; r+ F& _3 |" IFrame rate                               : 93.750 FPS (512 SPF)/ O' H; b6 u4 C! e6 D. T
Bit depth                                : 24 bits
) x! f6 {3 \6 ?" q" YCompression mode                         : Lossless# `' y( g; {. X
Stream size                              : 1.41 GiB (4%)
  Y4 q( M, _  e5 w8 J0 c& b& z4 xTitle                                    : DTS MA 5.1
" _( Z6 B; n" A, u; rLanguage                                 : English
: x5 F8 n" O3 L& t8 GDefault                                  : Yes" y6 h) ^! i+ G& I! @# ?- w
Forced                                   : No6 O6 ~. H* ?/ j0 a" c& W( w0 c" z
Original source medium                   : Blu-ray
- v: S; J3 C+ L1 w4 J+ @6 K9 w
9 g+ j. K, M0 ^+ e; ^$ pAudio #2* M0 R& D: Y- G8 w
ID                                       : 3
: Q. \4 L+ B, s  @; r; A( lFormat                                   : AC-3( G5 N5 l4 u% h5 k/ C- r, R
Format/Info                              : Audio Coding 30 y/ C2 k/ G, F7 s+ m
Commercial name                          : Dolby Digital( x, j5 ^5 L9 a5 ]* I8 K
Codec ID                                 : A_AC3
4 R3 P- F3 u: s; `Duration                                 : 1 h 36 min
( D0 u4 w, I; b5 ZBit rate mode                            : Constant' f3 j3 G- A$ U' `
Bit rate                                 : 640 kb/s. D- J/ R! A. O. y8 \
Channel(s)                               : 6 channels9 |4 l# ~7 c6 g; ~9 c) N, _" @- s; J
Channel layout                           : L R C LFE Ls Rs
; |. K  T. s' t( I1 PSampling rate                            : 48.0 kHz
) D% q0 ]$ |  W# ~Frame rate                               : 31.250 FPS (1536 SPF)' w2 p; y0 H! b6 R$ Y5 t5 Y
Compression mode                         : Lossy
- \% H8 X, r( ?) nStream size                              : 444 MiB (1%)
% C4 c$ z/ O& E% v5 I5 XTitle                                    : DD 5.1% F  e6 `$ D6 c1 x
Language                                 : English: a8 K! X, ]6 N! J
Service kind                             : Complete Main! R& O) k1 r& h4 ]
Default                                  : No& H' [3 V2 E+ C, W7 ]: y7 B( o
Forced                                   : No) w# D6 A7 Q9 P! ]

' }8 o, Z$ Y  z: zText #1
8 {! A- K: c$ w$ {$ ]. dID                                       : 4, l! r( |) x9 f$ r& a, s9 i# h
Format                                   : UTF-87 ?* l  ]+ S4 {: |; t
Codec ID                                 : S_TEXT/UTF8
" |( i5 e4 g8 U$ e3 a- a$ BCodec ID/Info                            : UTF-8 Plain Text& x6 j* Z6 F; e# |3 k" [
Duration                                 : 1 h 36 min: a" d% @2 M& |9 v# e
Bit rate                                 : 79 b/s
8 h; ]3 j' F$ g4 bCount of elements                        : 1461
! {' b# p7 [1 ]8 t8 F& O4 A, a3 j+ RStream size                              : 56.6 KiB (0%)
( N2 j- v' v( r: H& oTitle                                    : SRT5 j$ r; x$ x3 \0 |
Language                                 : English
' z3 q  e6 V/ p. s  p0 g3 s: qDefault                                  : Yes
# H: @) ~6 `, z% f& {Forced                                   : No3 e- m  w) c5 r6 h2 O! R
! l% H& L! T! u7 P5 B/ Q8 [6 O8 V3 a' @
Text #27 a. r" d% M, N1 K( x
ID                                       : 5
$ ^# g% B( l' l0 }  GID in the original source medium         : 4769 (0x12A1)+ m8 f+ o4 U6 p* M* Z0 O: J
Format                                   : PGS; n3 J  ^) d; i- M3 m5 F
Muxing mode                              : zlib
5 I2 W' _6 X1 k; ~% C3 X, `Codec ID                                 : S_HDMV/PGS
3 h5 A! Y6 i' j0 u6 l4 W+ aCodec ID/Info                            : Picture based subtitle format used on BDs/HD-DVDs
- a3 @4 G( [  E3 `% j5 U0 ADuration                                 : 1 h 35 min
9 m# ^1 T! w1 D& p4 g% u3 g1 SBit rate                                 : 32.3 kb/s
0 {/ S* k3 M  s7 K! y; B# ^$ ZCount of elements                        : 2356
& C' J7 V$ j5 _8 XStream size                              : 21.9 MiB (0%)
, k/ I$ u) A" w) q2 E! k( e; lLanguage                                 : French
) G5 u* m8 A4 S7 b& {+ JDefault                                  : No# C7 x, n6 {4 G5 G# G1 O7 v! {% @8 }# [
Forced                                   : No: @& z9 V6 t. s* g8 {
Original source medium                   : Blu-ray
# t3 p" l( F: F: t9 J3 p3 e$ c, ?' [4 N9 y/ s  k9 x
Menu; E3 l( B1 b. g. k
00:00:00.000                             : en:Chapter 017 a6 S- b5 Y6 X; O2 E
00:07:24.750                             : en:Chapter 02
1 W: W4 m; e1 p+ T, o+ u# E00:16:11.000                             : en:Chapter 03
$ i: Q  o, `. ]" L( ^00:23:27.166                             : en:Chapter 04
' W0 o  R6 P: w  r00:31:25.000                             : en:Chapter 05
3 a1 k, @7 f$ m  x00:40:19.916                             : en:Chapter 06
# D$ m0 [* a  H, k. L$ p; j00:48:57.625                             : en:Chapter 07
. B# R% Q# W- U: J" r" k00:57:03.875                             : en:Chapter 08
( p% j+ m! C# \* z, L( U" T01:04:00.000                             : en:Chapter 095 |7 B1 Y1 A7 s0 m
01:13:57.500                             : en:Chapter 10
, K" g! J9 K8 a2 ~4 _9 g" g01:23:25.000                             : en:Chapter 11# [" X0 Z- l0 B& h" K
01:32:03.416                             : en:Chapter 12
$ p( p& o! V+ J6 U2 Z. C  r) k
游客,查看本帖隐藏内容请回复 | 加入VIP贵宾可免积分免回复 了解详情 | 还不是会员:点击获取邀请码 Invitation Code

本版积分规则

小黑屋|Archiver|蓝光电影资源网

GMT+8, 2021-12-3 01:18

Copyright © 2001-2022, Tencent Cloud.

快速回复 返回顶部 返回列表