BluRayCD Forum

 找回密码
 立即注册【分享大片】
查看: 3|回复: 0
收起左侧

[2160P极清] 鬼面公仆2 [4K HDR高码版 自带中字] Maniac Cop 2 1990 2160p UHD BluRaycd x265 10bit HDR TrueHD 7.1 Atmos-B0MBARDiERS 34.50GB

[复制链接]

6407

主题

6581

帖子

7万

积分

Post Share

金币
14984 枚
体力
21119 点

卓越贡献勋章

黄金嫖客 发表于 2021-11-25 23:32:39 | 显示全部楼层 |阅读模式
* \  s2 I; |3 u  Q/ k: s4 R

5 t- ^7 S- f: d. m$ E% V; T$ c' \◎片  名 Maniac Cop 2 / Maniac Cop 2: Una peligrosa protección9 B3 O+ u: e1 [7 x" c
◎译  名 鬼面公仆2/地狱恶警2/疯狂警察2/暴力警察' s2 H3 A$ E, c
◎年  代 1990
1 f3 W2 s9 Q8 d◎产  地 美国
  g) P8 \; |) k  `  u◎类  别 动作/惊悚/恐怖/犯罪
9 k, f" f) L' v& y& [. M◎语  言 英语
. x( V) Y: F) Y; h1 A◎上映日期 1991-07-18(法国)
/ y3 F" i& U# G' N. ~◎IMDb评分  5.9/10 from 6,989 users7 U' J1 D3 c, X# e7 c- D
◎IMDb链接  https://www.imdb.com/title/tt0100107/
0 }0 \" k6 K1 P& s1 t( h( J* H◎豆瓣评分 6.8/10 from 200 users6 b9 R  l, j% @
◎豆瓣链接 https://movie.douban.com/subject/1305909/
3 l3 C: j2 i6 a& l+ ?◎片  长 1 h 27 min7 b1 u9 c8 d! _7 Z
◎导  演 威廉·拉斯蒂格 William Lustig
& [) h0 H. e  i- D  h: {◎编  剧 拉里·柯恩 Larry Cohen5 U$ J5 o% r0 z5 T9 g7 z% b
       拉里·科恩 Larry Cohen; I6 m# u7 J# K( X# @1 d. n$ b1 p7 `# U3 \
◎主  演 布鲁斯·坎贝尔 Bruce Campbell
/ x- P3 s5 g7 [5 q( C+ R       罗伯特·戴维 Robert Davi
+ X. K- ~- [/ i; k       克劳迪亚·克里斯蒂安 Claudia Christian$ B/ |! M- Q2 C5 y, w" B
       迈克尔·勒纳 Michael Lerner
; [, @0 s; [; }4 s       保罗·佩普 Paul Pape
6 h1 v" H% v% d! l3 C, \7 x       Lennon Lennon
9 L8 G: z2 n" [' S1 \  p       Vincent Russo
7 e& S5 j7 m7 S2 J/ T       伯顿·夏普 Burton Sharp
2 d5 J7 [2 A$ G6 D- |& c       保拉·特里基 Paula Trickey
  \2 E, Y2 F$ R- G       克兰伦斯·威廉姆斯三世 Clarence Williams III
: y/ Q! l, ]/ P2 q( s       Thomas Paul Croce
5 V1 e# P( l7 N9 ?- V9 P2 Q/ x. j( C       马尔科·罗德里格斯 Marco Rodríguez
* m% k" Z: T* f8 H# t4 Y! V, Z       Charles Croughwell
4 I8 j# n6 w6 F4 ^; Z. t' l       Robert Earl Jones' M& O7 D6 u& V; `+ Q
       汉克盖瑞特 Hank Garrett
6 ?* I0 C# B8 I% @# o, l+ @       罗伯特·齐达 Robert Z'Dar
( P5 @# J: }1 r$ D" K5 K       山姆·雷米 Sam Raimi  l9 H5 ?, ?0 T1 |7 f% s
       Andrew Hill Newman
+ O$ }0 Y; h7 S  j$ v       劳伦妮·兰登 Laurene Landon; e  e& x- ?$ E5 N
       丹尼·特雷霍 Danny Trejo+ [# ~8 `) |, F: q4 ^5 m- L: ?
       卢·博纳基 Lou Bonacki
, Z) \# _8 U% J4 r" x8 ]( `       恩里克·卡斯蒂略 Enrique Castillo' _: a; }3 O$ K) Z$ y( y* X! S, S
       Roger Aaron Brown
7 l: a7 A. w/ ~, S& s" Z9 Z       Jude Farese' _$ n! R8 Z( H+ L! ], Z
       谢里·德赛 Shelly Desai
! h" t* i% F# M/ ]       Rod Gist  u  F; E$ j" b- T9 k  _
       查尔斯·纳佩尔 Charles Napier
9 `9 ]' W7 x! K) U; h+ s1 p! T5 Z" \6 P7 a: M
◎标  签 恐怖 | 犯罪 | 惊悚 | 美国 | 暴力 | 动作 | 1990 | 科幻
5 K2 _$ r& a8 f# F$ K6 n& \6 v$ S; P* t  o5 P: M8 o' F; x
◎简  介   ! B$ b" l. f2 G' o, F6 m

# ?- I3 ^) s0 c1 A. Y: h& m  罗伯特·戴维依饰演纽约市的警官柯代尔,原是警界精英,但过分忠直却处处树敌,终于被敌人诬陷下狱。他在狱中受尽折磨,心性大变,复仇之火使他变成极尽毁灭能事的刽子手,甚至在出狱后仍要重回监狱去对付那些欺负过他的仇人。% `$ s; w9 j* s+ Q2 D4 ~

  Y1 n7 ~- u0 k/ l$ ~% i  A supernatural, maniac killer cop teams up with a Times Square serial killer.7 }. U4 r9 T/ a$ n  A

/ p, v2 Q$ @1 m$ _
Maniac.Cop.2.1990.2160p.UHD.BluRayCD.x265.10bit.HDR.TrueHD.7.1.Atmos-B0MBARDiERS 34.50 GB' {+ [3 ~' q5 E7 ^1 g3 \. P
4 N) r( q! G9 o7 A6 l0 Z* Q- J
Video
2 d4 `( t# r. d. N1 V( s) n/ }% r+ rID : 15 s9 C- x! k, F' F4 b+ |6 t( V1 j
Format : HEVC
9 @/ C1 r3 g$ u9 }4 u" |7 R) rFormat/Info : High Efficiency Video Coding) i3 Z& M  y6 S. n! Z3 l& F
Format profile : Main 10@L5.1@High# P& d, r% g+ j7 b
HDR format : SMPTE ST 2086, HDR10 compatible! w/ V+ T  e3 ?$ v3 g
Codec ID : V_MPEGH/ISO/HEVC+ z" _, ~* E5 H7 v- q5 e
Duration : 1 h 27 min% P; ?! Q6 m4 m8 O" u! S; ~
Bit rate : 51.1 Mb/s
: W& a$ g  O/ ^% J% _; U' Y; d" pWidth : 3 840 pixels8 N" z  [5 D6 {
Height : 2 076 pixels
8 [3 }2 V4 x, O( fDisplay aspect ratio : 1.85:1
6 O6 C3 q0 X* _3 h$ _Frame rate mode : Constant
* p! s1 A  H; O; \: tFrame rate : 23.976 (24000/1001) FPS* q# A% G8 ]9 ?. d; y
Color space : YUV
3 e" G+ E5 U) c7 |3 C% Q; \Chroma subsampling : 4:2:0 (Type 2)
. y- f7 Z) d" p% J- BBit depth : 10 bits, b# e, H. k7 z+ Z
Bits/(Pixel*Frame) : 0.267
) c5 Z8 n& s3 c- XStream size : 31.2 GiB (90%)
4 T( o. J& k6 b( Z6 cWriting library : x265 3.5+19-8003e4382:[Windows][GCC 11.2.0][64 bit] 10bit# F+ i7 p& W  ^( |& m" T
Encoding settings : cpuid=1176575 / frame-threads=6 / numa-pools=36 / wpp / no-pmode / no-pme / no-psnr / no-ssim / log-level=2 / input-csp=1 / input-res=3840x2076 / interlace=0 / total-frames=125735 / level-idc=51 / high-tier=1 / uhd-bd=0 / ref=4 / no-allow-non-conformance / repeat-headers / annexb / aud / no-eob / no-eos / hrd / info / hash=0 / no-temporal-layers / open-gop / min-keyint=23 / keyint=250 / gop-lookahead=0 / bframes=4 / b-adapt=2 / b-pyramid / bframe-bias=0 / rc-lookahead=25 / lookahead-slices=4 / scenecut=40 / no-hist-scenecut / radl=0 / no-splice / no-intra-refresh / ctu=64 / min-cu-size=8 / rect / no-amp / max-tu-size=32 / tu-inter-depth=1 / tu-intra-depth=1 / limit-tu=0 / rdoq-level=2 / dynamic-rd=0.00 / no-ssim-rd / signhide / no-tskip / nr-intra=0 / nr-inter=0 / no-constrained-intra / strong-intra-smoothing / max-merge=3 / limit-refs=3 / limit-modes / me=3 / subme=3 / merange=57 / temporal-mvp / no-frame-dup / no-hme / weightp / no-weightb / no-analyze-src-pics / deblock=-3:-3 / no-sao / no-sao-non-deblock / rd=4 / selective-sao=0 / no-early-skip / rskip / no-fast-intra / no-tskip-fast / no-cu-lossless / no-b-intra / no-splitrd-skip / rdpenalty=0 / psy-rd=2.00 / psy-rdoq=1.00 / no-rd-refine / no-lossless / cbqpoffs=0 / crqpoffs=0 / rc=crf / crf=20.0 / qcomp=0.60 / qpstep=4 / stats-write=0 / stats-read=0 / vbv-maxrate=160000 / vbv-bufsize=160000 / vbv-init=0.9 / min-vbv-fullness=50.0 / max-vbv-fullness=80.0 / crf-max=0.0 / crf-min=0.0 / ipratio=1.40 / pbratio=1.30 / aq-mode=2 / aq-strength=1.00 / cutree / zone-count=0 / no-strict-cbr / qg-size=32 / no-rc-grain / qpmax=69 / qpmin=0 / no-const-vbv / sar=1 / overscan=0 / videoformat=5 / range=0 / colorprim=9 / transfer=16 / colormatrix=9 / chromaloc=1 / chromaloc-top=2 / chromaloc-bottom=2 / display-window=0 / master-display=G(8500,39850)B(6550,2300)R(35400,14600)WP(15635,16450)L(10000000,1) / cll=1000,497 / min-luma=0 / max-luma=1023 / log2-max-poc-lsb=8 / vui-timing-info / vui-hrd-info / slices=1 / no-opt-qp-pps / no-opt-ref-list-length-pps / no-multi-pass-opt-rps / scenecut-bias=0.05 / hist-threshold=0.03 / no-opt-cu-delta-qp / no-aq-motion / hdr10 / hdr10-opt / no-dhdr10-opt / no-idr-recovery-sei / analysis-reuse-level=0 / analysis-save-reuse-level=0 / analysis-load-reuse-level=0 / scale-factor=0 / refine-intra=0 / refine-inter=0 / refine-mv=1 / refine-ctu-distortion=0 / no-limit-sao / ctu-info=0 / no-lowpass-dct / refine-analysis-type=0 / copy-pic=1 / max-ausize-factor=1.0 / no-dynamic-refine / no-single-sei / no-hevc-aq / no-svt / no-field / qp-adaptation-range=1.00 / scenecut-aware-qp=0conformance-window-offsets / right=0 / bottom=0 / decoder-max-rate=0 / no-vbv-live-multi-pass
; z1 |7 R: u* o; g  V$ p8 vDefault : Yes
4 [' o# ~" _. C# jForced : No
/ o. ~; a" ^* J7 S" P6 s, H3 IColor range : Limited/ I4 n! `# [9 }3 }& ?2 s
Color primaries : BT.2020) r8 G& }- u( G7 H; B. M
Transfer characteristics : PQ1 M% S7 y$ Q. e- v5 z# W6 Y. v1 D
Matrix coefficients : BT.2020 non-constant# k% I5 e- a1 S6 q- f5 ~
Mastering display color primaries : BT.2020
  }" n9 X1 p3 b% fMastering display luminance : min: 0.0001 cd/m2, max: 1000 cd/m2( I; D- s9 j9 F6 D
Maximum Content Light Level : 1000 cd/m2
) z6 j- e" D1 q- F0 dMaximum Frame-Average Light Level : 497 cd/m2. h' ^2 a# ?  X/ o# c( e

2 |. U; |' w$ k! [Audio #1) O$ ?4 |! P* s2 I
ID : 2
: H, }- C8 T/ q& l) WFormat : MLP FBA 16-ch
# T5 q3 d% J' c( E5 U: [# [Format/Info : Meridian Lossless Packing FBA with 16-channel presentation+ ^" ]5 Q' ]/ i9 O( h: A
Commercial name : Dolby TrueHD with Dolby Atmos
* Q% T$ g9 J. W7 R. k7 tCodec ID : A_TRUEHD$ ?* b" |! ~9 q' b6 |& [( l  a
Duration : 1 h 27 min7 J' G! N( d0 ]
Bit rate mode : Variable$ Q0 x" N( A, I& e) k
Bit rate : 4 283 kb/s6 q) o* s, S- r6 R' S
Maximum bit rate : 6 558 kb/s( b! M( C" b9 e2 n' d6 a# S
Channel(s) : 8 channels
. a! l5 w% C- v$ PChannel layout : L R C LFE Ls Rs Lb Rb# h# W! X' V) }: H, }9 L
Sampling rate : 48.0 kHz& c3 D( [6 K8 l2 {! L9 x
Frame rate : 1 200.000 FPS (40 SPF)( ]- H0 z  J) B& Q
Compression mode : Lossless& {" z+ s" z  T9 s- @4 S6 G1 [4 i
Stream size : 2.61 GiB (8%)
& I, a+ j8 x% ?. A- x# N: X: vLanguage : English
  P0 l& E9 v1 A# P/ l2 @4 ~Default : Yes* Y8 B, v' R4 v3 p3 {
Forced : No3 B7 U$ F3 ?, Z* T
Number of dynamic objects : 11
9 x4 ^8 L  K( y2 s) UBed channel count : 1 channel
2 g* j! I5 m) D3 T+ S: O9 }0 xBed channel configuration : LFE& z: l1 D0 L, v
6 @( h; [- B/ C" d2 [  z
Audio #2  E  @- W% |3 `/ \  [7 R, }8 L% W
ID : 3
: i3 O1 ~+ v0 p. B: K* rFormat : AC-3' G7 _; R2 K$ k) f8 a
Format/Info : Audio Coding 3) X) T# J" A0 {9 M! K
Commercial name : Dolby Digital6 M" i- p+ _, v
Format settings : Dolby Surround EX
! f3 \) t( N3 {Codec ID : A_AC3, X$ [! a0 I' D3 Z& A% R; d& ~
Duration : 1 h 27 min
" j/ D7 _# x" P' uBit rate mode : Constant7 U& s1 a! Y  R! q4 f" O1 D
Bit rate : 640 kb/s- z! p- T, {% J! D
Channel(s) : 6 channels
: q) R4 _( L5 g1 o; J! `! Y0 T* hChannel layout : L R C LFE Ls Rs3 R' n+ h: i! i" p# j/ [* i3 U
Sampling rate : 48.0 kHz% B6 P% K+ C- m0 E  Q. e" @( z
Frame rate : 31.250 FPS (1536 SPF)
0 y6 \, w$ G4 L  S6 M5 @. BCompression mode : Lossy
3 x1 E) p) G  d" _+ }% zStream size : 400 MiB (1%)
1 X5 ]  \+ L2 {& d/ h( SLanguage : English7 h! t" u" ^$ q5 S
Service kind : Complete Main
; @9 y0 o& R1 v: e0 F1 Z- kDefault : Yes
$ R: T; G! S  y3 yForced : No
/ X: B& ~! T) ]! y! E. T; J7 ?
. t7 y& k4 z; m2 \% YAudio #3# N- m3 a" U3 y, n
ID : 4
2 v7 V" j! b# q2 JFormat : AAC LC1 h+ U( O0 Y+ J, `  y7 P9 f
Format/Info : Advanced Audio Codec Low Complexity. H, k: W* [9 D
Codec ID : A_AAC-21 o: ]9 |3 @$ O8 j% H* Z' J0 x9 K
Duration : 1 h 27 min4 a5 g& U+ e  u$ g* W- t
Bit rate : 91.9 kb/s
; q( R* p- n: O1 N/ k# x7 AChannel(s) : 2 channels" Q: @1 o5 d( j8 v0 o' l# v
Channel layout : L R
1 ]6 T% \8 Z# |; V' C1 o3 HSampling rate : 48.0 kHz1 B* W4 m9 n& }' e) F2 s. k1 N
Frame rate : 46.875 FPS (1024 SPF): [  c$ \+ s. j, u
Compression mode : Lossy
- R6 h  W" ?4 ~% e+ q5 a: xDelay relative to video : 9 ms
+ f( s. I( c: G7 J' W3 |' bStream size : 57.5 MiB (0%), q3 \4 [( R' a( z3 r6 Q
Title : Commentary( C7 R5 @+ V  m4 E+ g3 G) o
Language : English  _6 {0 a/ d# ?8 c0 r1 M2 p
Default : Yes5 ], `; V+ S. J0 X+ b4 r1 m3 |
Forced : No0 X4 l) W  n- T) m
/ ?8 ?3 s5 _5 G: I1 S
Text #1
0 f+ e& E- R7 m9 k% [, y  \" RID : 5' h% K' d5 _% d1 J% k2 O5 f9 ~
Format : PGS
& N8 U9 `8 p  P; r2 K" SMuxing mode : zlib. e/ h& p0 ~4 u; e
Codec ID : S_HDMV/PGS. d& Q$ [. L) Z8 [
Codec ID/Info : Picture based subtitle format used on BDs/HD-DVDs+ x; {2 o. u0 C" n4 ~! T$ n# Z& D
Duration : 1 h 26 min" C* ^7 m& Z$ D4 z
Bit rate : 43.6 kb/s
' A* U" Q& }) ~2 QCount of elements : 22881 k  n/ G) L' I+ \- B- E9 ~
Stream size : 27.1 MiB (0%)
; Y, B$ O* L' U$ d3 w. Z  hTitle : English SDH: R+ H: h7 C/ {" ^' ?
Language : English' k4 d. v( U. V, ]" U9 u3 @4 T
Default : No, N2 Z5 V5 [7 [" u, H
Forced : No
! v( h$ M: a' ~8 X& c( l
5 p9 p0 K: ~' m. e$ CText #2' i8 D7 f" d* I5 {
ID : 6
8 }0 r- J6 Z! s0 h% xFormat : PGS
0 b0 z9 w+ \0 ?! _+ eMuxing mode : zlib! R$ n: X+ Z4 Q  R5 e* L
Codec ID : S_HDMV/PGS" S, I# Y5 s$ r# q+ D
Codec ID/Info : Picture based subtitle format used on BDs/HD-DVDs
+ B  M: F7 H$ p0 H, b" qDuration : 1 h 26 min
! _3 T- {4 F% u5 a  o. eBit rate : 35.2 kb/s( f0 V+ e0 ^! J. J! u0 w$ ?
Count of elements : 19341 F9 Q- j! P& ^- t
Stream size : 21.9 MiB (0%)8 ~5 `) M. U5 \" A9 Y
Title : French$ C, ~2 Q& [/ B' U: Y6 V# j
Language : French
8 @9 v( K7 J% C+ HDefault : No) v2 i0 o6 r. f+ |( J, ~
Forced : No
; G  \' s# s7 U6 I1 C* p8 B9 o5 C9 q$ b
Text #3
& L; C! E/ Y7 w# xID : 7
& v8 [- \% d2 p$ F) b  f) u! QFormat : PGS3 o/ i/ ]* B0 d1 G8 `2 r
Muxing mode : zlib) D4 [" o( G% L5 m, W
Codec ID : S_HDMV/PGS
: t* U) I; O! g3 P4 MCodec ID/Info : Picture based subtitle format used on BDs/HD-DVDs/ ]# A% w; |& ~; C# E8 o- ~
Duration : 1 h 26 min" _3 h% ?- @/ g. E! g
Bit rate : 34.0 kb/s/ q; @6 K5 R& [1 I$ ~+ S
Count of elements : 1936
: t! I# s9 W/ X9 F5 g7 t1 `) H1 nStream size : 21.1 MiB (0%)
2 n4 Y& d+ K4 `1 ^Title : Spanish
) F! C9 q1 k; g! T- k' iLanguage : Spanish
/ m* ?- Y- Z- d( a7 f8 j2 [Default : No' l8 ^' H' n9 d  z( N' O
Forced : No
% ]) G/ k* g' L- |7 v4 i. c/ n
) V3 o7 X) x0 \2 i* p# Z4 L) I" BText #46 A' T2 N/ F, Q* v, V% M0 r. j8 Q
ID : 8
7 q" D* H- S1 K6 e8 |* |# IFormat : PGS' [" X. @& _* V: A6 U( s) i
Muxing mode : zlib' C% F, Q/ g. @& v9 e! Z$ G2 ]
Codec ID : S_HDMV/PGS$ W, a' L6 B0 T: Y- v  j5 ]# M0 n
Codec ID/Info : Picture based subtitle format used on BDs/HD-DVDs" S* p. P( h  o
Duration : 1 h 26 min7 P' [* _' S$ {, ^
Bit rate : 33.9 kb/s7 @) N/ _. D" ]8 R# U+ A
Count of elements : 1926/ N3 m" F  p9 D  m7 `
Stream size : 21.0 MiB (0%)( d  V9 R$ H* L8 n7 o5 |! S9 F
Title : Portuguese
6 ^3 @/ z) G6 h( V5 E9 |4 W, uLanguage : Portuguese
  d" `2 K3 l2 j6 E- {Default : No
8 {" ^+ o8 c  p4 ^Forced : No0 B9 U5 d( ?5 r) A3 p) G- @0 H3 ^
4 v/ k- J& k9 _+ ^% \! {
Text #5( ]" ^; [9 n, S8 J
ID : 9
+ W0 a8 ^! j5 M0 P# {5 v) w/ R, o! V2 VFormat : PGS
' |' a9 v5 t7 @3 Q0 @Muxing mode : zlib
* g1 ?1 {: L0 b, U: L- }Codec ID : S_HDMV/PGS
# w$ M7 o9 ^( J' J1 \Codec ID/Info : Picture based subtitle format used on BDs/HD-DVDs
) \% l0 R, D4 J  Y2 k/ b! ~Duration : 1 h 26 min/ f* J# ]. Z1 D. H6 v7 v* b, l$ ]
Bit rate : 36.8 kb/s
+ k9 E* e* l- p- W$ fCount of elements : 1872
5 y4 l- L6 v7 J2 P' e& fStream size : 22.9 MiB (0%)
( P' e9 e" |1 U# Q$ J0 j  iTitle : Spanish" w4 ^4 M$ Q: W, z; p
Language : Spanish
. `% t% S+ r3 z1 w: M3 dDefault : No
% @7 Y2 T6 S3 R; }8 I( nForced : No1 A; E2 ~0 A; D4 ]* H8 Y

! d7 [. M5 d5 S! g) g  k+ f4 wText #6: |" @# f2 g% R( T5 h* T7 {
ID : 10
, @! a8 D# q" dFormat : PGS
( [- w3 S# o- ^6 zMuxing mode : zlib- |: ]9 ?: a6 M: U) C! u" S4 g
Codec ID : S_HDMV/PGS5 L6 g6 @2 y- d
Codec ID/Info : Picture based subtitle format used on BDs/HD-DVDs4 Z# X- T  u3 [# E( A' ~
Duration : 1 h 26 min
1 U2 F. a1 ?* N: x! x" z1 I$ bBit rate : 34.9 kb/s% D' h; A" `. w- J9 d; M3 A
Count of elements : 1934
* t6 R6 z1 Q# [+ fStream size : 21.6 MiB (0%)0 \1 m5 y' `- R1 d/ [0 J# f% |
Title : French4 [6 k- l: Z/ \/ O+ H% Z4 e
Language : French1 @6 z3 }* E4 q
Default : No2 M  W- P& [0 S- p/ P8 W) D/ a' [
Forced : No
$ u- g3 K& R5 Q, P) [, ]  A5 u
" P1 T1 l1 E, M; @4 X) s% }* \Text #7: z) O: w1 D7 _" c8 h' y0 |
ID : 11  B4 `0 U+ Z( Y0 a
Format : PGS# L) B. R, N$ t' K& e
Muxing mode : zlib
3 M/ K! u; q: Y6 M6 eCodec ID : S_HDMV/PGS
/ x) p* v5 a6 ~9 TCodec ID/Info : Picture based subtitle format used on BDs/HD-DVDs& F' }3 r) |# M& m. k" z4 s* ?! ~1 S
Duration : 1 h 26 min
( |! A% A- g' K; N8 A. V9 }* Q5 BBit rate : 38.0 kb/s4 C2 {% D, y$ Y# l! }
Count of elements : 1930
5 \3 q0 a7 x4 d2 }Stream size : 23.6 MiB (0%)
' ]3 `9 k% c; g& J+ P( K% y' ~+ GTitle : German0 a: A! U7 E+ f8 ~. I/ r' j6 ^" f
Language : German
' [6 p8 j0 s8 I8 T( ~5 `! Y$ z4 {! O6 sDefault : No. p& Y, i" X+ e; {' r+ k
Forced : No
* S$ ?" [. Q: P' F$ j% X% p; V% l' J" b& P6 P
Text #8& J/ t- W9 D* X" e& A  v( g9 {
ID : 12
/ P8 D+ A) t* J! w- }1 }4 \8 vFormat : PGS1 k" T3 P1 g8 T
Muxing mode : zlib6 s) J: \* f% U. b# n
Codec ID : S_HDMV/PGS+ K: s) b, B: a! ?" R9 V
Codec ID/Info : Picture based subtitle format used on BDs/HD-DVDs
5 Y5 e- W, O' i! Y+ v- ODuration : 1 h 26 min
. H" {' i( B: a) Z4 C; `0 l! XBit rate : 36.0 kb/s# Q$ G: R6 t9 C' D2 F2 y9 I
Count of elements : 1934
" \/ E; P- }7 s: g4 tStream size : 22.3 MiB (0%)
  a' f( m- v) Q4 p: H4 mTitle : Italian& E! S* y. ^) j8 z4 A3 A
Language : Italian& `* Z, s( R% x) ^4 u% z& y7 j% V
Default : No5 ]( n1 j1 h6 Q# H
Forced : No
& s' {0 y& g! f; E) _: p; h0 {4 W9 D" B6 h5 r
Text #9
8 e+ `9 I" x  g/ x9 dID : 13# [% J$ d- t; `! R1 G# y, p2 e& \* _0 L
Format : PGS4 n7 \$ Q: H9 g2 C% G, J. c
Muxing mode : zlib
8 R- j( R" ?0 b  zCodec ID : S_HDMV/PGS5 ^2 R3 D0 i/ q/ d& B5 m+ Q
Codec ID/Info : Picture based subtitle format used on BDs/HD-DVDs
9 E1 g7 y( J$ o( {& X- ]Duration : 1 h 27 min: G& V$ r7 U+ C2 M$ C( V
Bit rate : 30.0 kb/s; W7 \3 ], i+ H. k$ F& E
Count of elements : 2016
$ ~" K( g6 L; xStream size : 18.7 MiB (0%)
& h3 X& y4 h. ]1 l+ [& P3 c* uTitle : Chinese
: G$ M) o( [$ \2 xLanguage : Chinese3 H1 U8 `/ h! {: A8 F/ A+ M* p
Default : No
7 u( R" N5 F/ {& iForced : No
0 O. h7 c: Y) ^4 u8 k* @* n
. U8 B. Y! \2 m0 [' sText #10
( X! X2 R7 a: XID : 14
. q* v; G0 d& O; [$ n$ GFormat : PGS
* A5 \8 w# u+ D' b* YMuxing mode : zlib
8 @3 O, \9 O; |6 j2 Y9 X9 [Codec ID : S_HDMV/PGS+ Z5 B& Z: H9 D3 i8 I
Codec ID/Info : Picture based subtitle format used on BDs/HD-DVDs
& b/ d' Y- a+ c9 dDuration : 1 h 27 min& A5 Y% w* c) b. {+ g. B$ ^" i
Bit rate : 29.3 kb/s# z. J9 _4 Z; K  E* A8 F3 q- Q
Count of elements : 20167 E+ f; n7 m: |
Stream size : 18.2 MiB (0%)0 F4 B4 R4 v' D, H
Title : Chinese. J) H6 F' `) c' S/ }; E
Language : Chinese
) L8 x& t- ^# }/ h7 ?' d% U7 R  ODefault : No6 W% M) I8 d/ s5 e9 b" U1 F( }
Forced : No  l' S! v! b8 m/ {9 w: R

( ~0 o$ b' E1 W) E6 gText #11) U) |3 \2 y5 K8 |9 B- J/ X
ID : 15, Z  g9 @6 j$ Z8 Y
Format : PGS3 h# s! d; E. \; e0 a% `* Y
Muxing mode : zlib# \  _+ V7 f" n0 g- l" ~' ]
Codec ID : S_HDMV/PGS
( j" I: ]% |3 m# k# TCodec ID/Info : Picture based subtitle format used on BDs/HD-DVDs
3 H  a6 r' i3 uDuration : 1 h 27 min3 x9 O8 h0 }8 q
Bit rate : 25.3 kb/s/ J+ Q) p3 @# [3 u5 ~! \
Count of elements : 2016# R. h2 W9 Z; U; g; N
Stream size : 15.7 MiB (0%), Z% C4 ^6 g$ Q/ s
Title : Korean7 c( G7 A8 o- g, ~4 i5 v: S
Language : Korean2 t4 W# b0 V# U
Default : No
5 i# ^' C: T0 q5 C8 @* [Forced : No
: f5 @% a( j: d9 |, [
( J  Q" @- w5 G3 A" u  WText #127 U: ^) T8 d% N3 i6 \
ID : 16
3 F/ f2 i! s: n9 RFormat : PGS
, ^6 b& z$ n0 q. `0 I4 C0 b9 f! y# jMuxing mode : zlib
( O. s; K/ e0 {3 K+ B5 R( p( H8 [; o3 RCodec ID : S_HDMV/PGS
! O. b( L9 c6 E" D2 gCodec ID/Info : Picture based subtitle format used on BDs/HD-DVDs2 {/ h7 l9 ~) l. x6 x' {8 ]% J
Duration : 1 h 27 min
" |/ o1 Z. T: Z, y% w$ @! q% t, q! VBit rate : 22.9 kb/s2 |$ v# R- r* T2 n% _5 x; Z/ `
Count of elements : 1855, _4 }/ V* J6 d
Stream size : 14.2 MiB (0%)8 N+ _2 `" k0 w" b- }+ q
Title : Japanese
# e7 y* [1 r# r% p5 @Language : Japanese
" @; }4 G2 m/ s& _' U5 n" HDefault : No
5 j* a2 ~- V3 J* j0 ?; n% r  YForced : No
5 ^4 d* ]( M$ E" Z. M
6 X& U; R% q2 L  i2 G4 b+ nText #13* t& ~4 F9 F* ?, ]7 u. f
ID : 170 R, [; P; Z8 i7 m' \
Format : PGS
) ?2 w8 G% e* `3 }; u4 J, @Muxing mode : zlib$ e) n, _% h6 C5 _4 V
Codec ID : S_HDMV/PGS
1 b6 h6 g! B. e8 |( KCodec ID/Info : Picture based subtitle format used on BDs/HD-DVDs
5 d" D- W' I2 @# k0 S8 tDuration : 1 h 26 min, [9 O. w, ~. C$ i( z# T( T
Bit rate : 37.5 kb/s
4 r7 T! J9 b) l* F9 }( KCount of elements : 1942
- m. s0 P# a9 c6 dStream size : 23.3 MiB (0%). h* [/ R5 w" B3 ]. c: _. ?
Title : Russian
/ ^. T: O, z. P2 N; l! @5 D( yLanguage : Russian' c% w. \& {% A" }" N: C
Default : No
5 n1 @- _. L% S* y$ q$ ZForced : No
0 h) d% k) e: p5 ]3 A( }' n
- y0 G( s: B5 n$ X' K$ C; KText #146 @0 }5 q: M: }$ U0 t6 p8 T% z
ID : 18
" g! `, u( X$ i8 ~6 q( ~Format : PGS
! `% D; {1 t/ w- q$ _( L5 J4 HMuxing mode : zlib# _" X3 J- `" g$ W! z1 i4 I
Codec ID : S_HDMV/PGS- Y- c7 J  d/ p: m9 q
Codec ID/Info : Picture based subtitle format used on BDs/HD-DVDs
8 L: M8 d" |, R/ f# Q/ n& S& vDuration : 1 h 26 min2 A& _  K4 N, [9 C* h8 R* @3 L
Bit rate : 34.0 kb/s$ X2 f2 q  `2 r7 f/ D, I
Count of elements : 1914$ m/ E! q8 y: j' ?. M7 O* f" A+ n9 I; O
Stream size : 21.1 MiB (0%)
/ f* d; T0 G7 N/ F5 Q' NTitle : Danish( ?6 w# f3 u; V) ?' l5 r. @5 |6 j' e
Language : Danish
/ l) c; Z! ?! pDefault : No
4 \1 P' y8 g: s( EForced : No
/ |1 d+ W- ~1 H* f7 ~" ^0 @  H! R; P3 B1 E9 M3 `
Text #15. t1 v# W5 x6 m- m5 a2 g
ID : 192 ?* e$ Z( Y& c+ a: D# S* t" Y
Format : PGS
# f  g9 d3 H1 p  U% `Muxing mode : zlib
! k8 P; R  ]" T# Z) ^Codec ID : S_HDMV/PGS
; f0 \1 X. x- V2 ICodec ID/Info : Picture based subtitle format used on BDs/HD-DVDs
* m: X' T2 v) Q3 p* |Duration : 1 h 22 min
: K1 Y4 `# \# o+ vBit rate : 29.9 kb/s
0 t, ?+ V3 ^- B: aCount of elements : 1736
. R9 u9 a/ G1 ~4 B# EStream size : 17.7 MiB (0%)
$ ^" m- t! P# h, s4 O8 s6 L5 N9 hTitle : Dutch
, m# V9 U/ ~1 E# gLanguage : Dutch
8 F" ]2 r$ J1 U1 kDefault : No
6 V2 K5 w0 A/ {, k" r* ^# f, [! GForced : No
" g3 V$ M) q! Q+ L
: g3 G1 |1 Z: C. z- M/ AText #16" U4 \& T% P: z4 }2 H
ID : 20
* F  m# i7 h4 h, lFormat : PGS$ J& T# w. Y  O& C, c; }& ?1 {
Muxing mode : zlib  v7 S1 @" z0 t+ D( |, O0 w
Codec ID : S_HDMV/PGS1 L9 {6 j% s8 S8 I7 h/ r* b' E6 Q
Codec ID/Info : Picture based subtitle format used on BDs/HD-DVDs
( d* ^' K4 T3 ]Duration : 1 h 26 min
. K: X( P. w6 |3 g0 R3 aBit rate : 37.2 kb/s& a- T* N! u. m) k
Count of elements : 1898
1 \( i. C* V1 y5 B' cStream size : 23.1 MiB (0%)
( r0 N# k3 e  C: b% l- LTitle : Finnish1 N8 @; z  @8 C8 I
Language : Finnish
0 R# _0 q9 o; Q% |3 uDefault : No! n- g! N2 e( A0 b! i
Forced : No
( I4 Z. h. p+ W; Q2 l* N& F9 H0 g0 `; x; l
Text #17; `9 [; Z/ Z( g5 M
ID : 21
) q; k0 }% R3 N; N7 }$ r; w  \Format : PGS
- Q* B2 Z/ K0 H6 @( \0 w+ C2 jMuxing mode : zlib
( w1 o7 V' X# X0 ~Codec ID : S_HDMV/PGS
  C6 N3 F! _% r, K  D; I& sCodec ID/Info : Picture based subtitle format used on BDs/HD-DVDs; V/ k% _2 r, |& s3 e% P
Duration : 1 h 26 min
5 D2 t8 x6 S3 u  W3 V, ?% TBit rate : 35.1 kb/s
3 D' P& ], k3 x2 y& m; wCount of elements : 1926" b/ d3 k6 Z. ?4 j4 N3 w! M3 z- N
Stream size : 21.8 MiB (0%). s. R5 C; Q2 L( J. V" n9 y6 d0 i
Title : Norwegian
& m  p  U! c0 q. S: i( _" \Language : Norwegian7 P. c) D* d# ^8 R, h2 Y& h3 F
Default : No8 \9 t7 y3 }  ^6 Z& }4 o; f$ t
Forced : No
( ^5 x; K6 I( h2 C/ }
" [% Q: S' h8 b, a1 yText #18# x0 t: Q4 {% _! S4 P) g* ]
ID : 22
6 ^. h: b, m0 o) A  v2 ^Format : PGS7 |, X& L6 j# Y# C' U) \# S& `
Muxing mode : zlib
, Y0 _0 o. V, Z% X- }Codec ID : S_HDMV/PGS4 N. I) Y6 Q: V) ?! b
Codec ID/Info : Picture based subtitle format used on BDs/HD-DVDs
1 `3 e8 f2 E1 s( C3 H/ _# p) G8 X" T, lDuration : 1 h 26 min
6 W: c# e$ S: o! ]+ RBit rate : 32.6 kb/s
" p) D& o1 [2 T6 ~$ q+ s5 I6 y' CCount of elements : 1908
( v' S8 y: T, l" m  \Stream size : 20.2 MiB (0%), P( H4 u) m+ I: k& p3 C! C
Title : Swedish
) y* a. k$ v2 k! H' o2 y* z8 ~0 yLanguage : Swedish
! U  \' v: a7 E, y$ z# D" ~- h4 Q1 P( NDefault : No
: c* Z1 U: p; g& I, U* s& HForced : No8 R  j0 G" a1 T3 \; D+ Q& |# m

. Z6 Q% d; V5 l- K! r. D+ QMenu0 T0 V7 A& r: S3 Z/ d% @0 k; f/ q
00:00:00.000 : en:Chapter 019 v; ?! T; r0 {" F; ^
00:05:42.926 : en:Chapter 02, d% d( }% l) k& [, I9 F* b* m
00:10:52.443 : en:Chapter 03, Z  N% k/ l" k3 ]  H, T
00:17:27.964 : en:Chapter 04  p0 ]4 K( C* G1 P( w1 w
00:22:51.245 : en:Chapter 05- B. v  a% s. C$ z
00:28:11.398 : en:Chapter 06
2 @" C7 e+ O, l8 _$ K00:37:30.331 : en:Chapter 07( d# |5 I+ Y+ d6 d( {: M% u+ ]
00:42:21.998 : en:Chapter 08
; b7 K9 T9 v( g: Y# C& N7 n$ {00:46:21.821 : en:Chapter 09
9 c5 p* G, G/ Q2 L7 `. w00:51:00.140 : en:Chapter 10. w$ o# v( W3 [1 v# `" J
00:56:42.441 : en:Chapter 11
# B( L7 t- ~$ t( d: A% L) q01:03:04.781 : en:Chapter 12+ [4 W: g4 k' R$ N
01:07:35.260 : en:Chapter 13
8 s- f) p( x: y, P01:12:50.449 : en:Chapter 14
6 P% [7 ~; n! R$ u# |) p1 }! }% q01:17:00.533 : en:Chapter 15
' S; ~/ c3 c9 E; Y1 w01:19:39.858 : en:Chapter 169 t2 C9 ?/ x% z, o3 s. h
01:23:21.371 : en:Chapter 17
/ ~& n- D3 x& \* G7 O9 M# k) e01:27:22.946 : en:Chapter 18

8 `. P0 f* j7 {! R" |4 n" L* Z& ^
游客,查看本帖隐藏内容请回复 | 加入VIP贵宾可免积分免回复 了解详情 | 还不是会员:点击获取邀请码 Invitation Code

本版积分规则

小黑屋|Archiver|蓝光电影资源网

GMT+8, 2021-12-3 00:54

Copyright © 2001-2022, Tencent Cloud.

快速回复 返回顶部 返回列表