BluRayCD Forum

 找回密码
 立即注册【分享大片】
查看: 3|回复: 0
收起左侧

[2160P极清] 鬼面公仆2 [4K SDR高码版 自带中字] Maniac Cop 2 1990 2160p BluRaycd x265 10bit & 8bit SDR DTS-HD MA TrueHD 7.1 Atmos-SWTYBLZ 55.30GB & 58.24GB

[复制链接]

6407

主题

6581

帖子

7万

积分

Post Share

金币
14984 枚
体力
21119 点

卓越贡献勋章

黄金嫖客 发表于 2021-11-25 23:47:47 | 显示全部楼层 |阅读模式
, R" {# X3 R$ z

% `* S2 t  c/ {( R" [◎片  名 Maniac Cop 2 / Maniac Cop 2: Una peligrosa protección
& s* `5 u# r% r4 J* |◎译  名 鬼面公仆2/疯狂警察2/地狱恶警2/暴力警察
& v' L3 g  u1 U) \3 d◎年  代 1990  F: @$ r6 i" _1 ?; Q* A
◎产  地 美国; V) i1 i+ C3 o* i0 U$ b! H
◎类  别 动作/惊悚/恐怖/犯罪) ^0 p6 Y- t/ ?& q
◎语  言 英语. x' s8 d2 T1 {% u
◎上映日期 1991-07-18(法国)
; s5 l; @1 g3 D+ s. Y' m6 _8 U" \◎IMDb评分  5.9/10 from 6,989 users8 T4 y5 l3 ~4 B* m% c& d3 R3 \
◎IMDb链接  https://www.imdb.com/title/tt0100107/
, [( k  ]0 j, D; d% |◎豆瓣评分 6.8/10 from 200 users3 @% w7 @6 e. Q- P# z' O- p/ Z
◎豆瓣链接 https://movie.douban.com/subject/1305909/
9 @7 e7 K" ^  J9 a◎片  长 1 h 27 min
: f7 S; V8 B/ [( |1 m2 W◎导  演 威廉·拉斯蒂格 William Lustig
8 f6 ~4 r2 x" O' u$ {$ A$ I◎编  剧 拉里·柯恩 Larry Cohen
! y" y! E5 I. Y( R/ e+ l  \1 Y       拉里·科恩 Larry Cohen
/ j1 i9 h6 A- f/ Z6 h1 X◎主  演 布鲁斯·坎贝尔 Bruce Campbell
* b( Q6 b' [! t$ `! J2 I       罗伯特·戴维 Robert Davi" U) b5 f# ]2 q% O0 W# H
       克劳迪亚·克里斯蒂安 Claudia Christian
8 `5 T+ x6 `( @  g& }1 z       迈克尔·勒纳 Michael Lerner  [; G$ x- }& c1 c% ]) J, b( I- G
       保罗·佩普 Paul Pape- D  @6 e! Z$ v; r) A
       Lennon Lennon
- r: y4 i* W) R. J  I+ ]$ ?# x$ D0 n       Vincent Russo9 Y9 z1 l& D/ |, N  D, x
       伯顿·夏普 Burton Sharp
0 y5 N/ x: `9 i: S" O! \& y       保拉·特里基 Paula Trickey/ u2 ]2 V& K$ f' Q' f1 E
       克兰伦斯·威廉姆斯三世 Clarence Williams III
2 h/ s# {: i2 c       Thomas Paul Croce' E7 C2 N3 @" }4 f, J2 A
       马尔科·罗德里格斯 Marco Rodríguez
! D- L1 T1 \' a- z3 b/ m' |       Charles Croughwell
5 N5 [* G* L1 e       Robert Earl Jones% T/ ~1 s4 i+ t
       汉克盖瑞特 Hank Garrett
8 j5 H, ]( m" L2 w# S6 H2 V# j       罗伯特·齐达 Robert Z'Dar
0 i) X9 o: I3 r. Q, J       山姆·雷米 Sam Raimi
6 {) s$ A0 O  M5 a3 {3 S       Andrew Hill Newman6 g4 u" X( i- p# M
       劳伦妮·兰登 Laurene Landon/ T  ?- d+ W3 t- b
       丹尼·特雷霍 Danny Trejo
' J2 ]; S# W& C0 z       卢·博纳基 Lou Bonacki
* L( X% ^1 l0 G- V/ M       恩里克·卡斯蒂略 Enrique Castillo
2 E6 c1 i0 }& d) u6 b' T       Roger Aaron Brown
& B) @+ d# M* `1 P       Jude Farese  X8 A$ b7 B; l6 R
       谢里·德赛 Shelly Desai
0 y) Z: D; t6 W6 p# |. k  x; ]       Rod Gist' W; U0 F/ K" p  S+ |+ I
       查尔斯·纳佩尔 Charles Napier
5 A* h- C/ @* y+ ~& }" N
& q" d8 D$ ?; Q4 |◎标  签 恐怖 | 犯罪 | 惊悚 | 美国 | 暴力 | 动作 | 1990 | 科幻4 _7 Z4 _/ p8 Y- q; a( k8 T
. v/ O+ b+ P% P7 p9 [
◎简  介   
8 V: y) i7 @9 v, r& e  ?7 U. D1 Z
' Z/ s4 K' C: ]! S5 J% e  b8 c  罗伯特·戴维依饰演纽约市的警官柯代尔,原是警界精英,但过分忠直却处处树敌,终于被敌人诬陷下狱。他在狱中受尽折磨,心性大变,复仇之火使他变成极尽毁灭能事的刽子手,甚至在出狱后仍要重回监狱去对付那些欺负过他的仇人。
7 c, X1 _8 C- G- H" G8 g1 H+ l5 Q) O* l0 ^' E
  This sequel to Maniac Cop pits Matt Cordell (Robert Z'dar), the crazed, murderous "Maniac Cop" of the first film (now horribly disfigured after a particularly brutal stay in prison), and Turkel (Leo Rossi), a serial killer who likes to murder strippers, against a frenzied NYPD detective, Sean McKinney (Robert Davi), who is just one step ahead of a nervous breakdown.
9 a2 w: I5 _  M! k4 l: l
2 J( n- o5 X4 r7 E! M
SWEATY BALLZ presents
0 R1 J, M0 e+ p, k, z  {2 e+ f) ]& r. s' F7 B, `8 n' m
Maniac.Cop.2.1990.2160p.BluRayCD.x265.10bit.SDR.DTS-HD.MA.TrueHD.7.1.Atmos-SWTYBLZ 55.30 GB
8 p6 n; [9 N! |. z, p+ oConverted from 10 bit HDR to 10 bit SDR using tripple mixed Hable-Reinhard-JJ per scene+frame analysis algorithm
3 T) Q' e6 J% Q1 z5 CScreenshots are 8bit SDR8 s! g, G4 K9 P0 f5 c# B
$ s" h3 R& E8 `2 g% y! f1 Z
Video+ E, [$ @% R. B
ID                                       : 1
* w3 r, K7 l- D1 r: O7 y; Z% IFormat                                   : HEVC7 x; c2 t3 X; P: T5 H
Format/Info                              : High Efficiency Video Coding3 Q( }( [: x" q- H
Format profile                           : Main [email protected]@High2 G4 w( L3 [5 C8 B( E
Codec ID                                 : V_MPEGH/ISO/HEVC
" {# @0 J0 v9 n+ [/ SDuration                                 : 1 h 27 min
8 H/ l& ]! r" oBit rate                                 : 80.6 Mb/s
# V5 j& E; x2 L/ LWidth                                    : 3 840 pixels
" Q9 ^0 @- J# d5 qHeight                                   : 2 076 pixels& }) z0 g$ E* D# f2 D2 ?
Display aspect ratio                     : 1.85:12 Y* X8 m7 t/ O! @, C, d
Frame rate mode                          : Constant$ ^$ W1 b5 w; W, d% c# C; G
Frame rate                               : 23.976 (24000/1001/189150) FPS$ i0 N8 e8 [$ K5 j  g
Color space                              : YUV
* c# n0 g$ \: i! r1 vChroma subsampling                       : 4:2:0- @5 D7 V! N8 v* F* w- g6 t
Bit depth                                : 10 bits
8 q8 n5 a4 Q4 `) C. h9 `Bits/(Pixel*Frame)                       : 0.422
& ~7 e6 G  G$ W% z( TStream size                              : 49.2 GiB (90%)
7 M( G0 Q+ }# U8 N( B" B- {Writing library                          : x265 3.0ed72af837053:[Windows][GCC 8.2.0][64 bit] 10bit- i% W3 \0 J6 b# h
Encoding settings                        : cpuid=1111039 / frame-threads=6 / numa-pools=40 / wpp / no-pmode / no-pme / no-psnr / no-ssim / log-level=2 / input-csp=1 / input-res=3840x2076 / interlace=0 / total-frames=125735 / level-idc=51 / high-tier=1 / uhd-bd=0 / ref=3 / no-allow-non-conformance / repeat-headers / annexb / aud / hrd / info / hash=0 / no-temporal-layers / no-open-gop / min-keyint=1 / keyint=24 / gop-lookahead=0 / bframes=4 / b-adapt=2 / b-pyramid / bframe-bias=0 / rc-lookahead=25 / lookahead-slices=4 / scenecut=40 / radl=0 / no-splice / no-intra-refresh / ctu=64 / min-cu-size=8 / no-rect / no-amp / max-tu-size=32 / tu-inter-depth=1 / tu-intra-depth=1 / limit-tu=0 / rdoq-level=0 / dynamic-rd=0.00 / no-ssim-rd / signhide / no-tskip / nr-intra=0 / nr-inter=0 / no-constrained-intra / strong-intra-smoothing / max-merge=2 / limit-refs=3 / no-limit-modes / me=1 / subme=2 / merange=57 / temporal-mvp / weightp / no-weightb / no-analyze-src-pics / deblock=0:0 / no-sao / no-sao-non-deblock / rd=3 / no-early-skip / rskip / no-fast-intra / no-tskip-fast / no-cu-lossless / no-b-intra / no-splitrd-skip / rdpenalty=0 / psy-rd=2.00 / psy-rdoq=0.00 / no-rd-refine / no-lossless / cbqpoffs=0 / crqpoffs=0 / rc=crf / crf=20.0 / qcomp=0.60 / qpstep=4 / stats-write=0 / stats-read=0 / vbv-maxrate=160000 / vbv-bufsize=160000 / vbv-init=0.9 / crf-max=0.0 / crf-min=0.0 / ipratio=1.40 / pbratio=1.30 / aq-mode=1 / aq-strength=1.00 / cutree / zone-count=0 / no-strict-cbr / qg-size=32 / no-rc-grain / qpmax=69 / qpmin=0 / no-const-vbv / sar=1 / overscan=0 / videoformat=5 / range=0 / colorprim=2 / transfer=2 / colormatrix=2 / chromaloc=0 / display-window=0 / max-cll=0,0 / min-luma=0 / max-luma=1023 / log2-max-poc-lsb=8 / vui-timing-info / vui-hrd-info / slices=1 / opt-qp-pps / opt-ref-list-length-pps / no-multi-pass-opt-rps / scenecut-bias=0.05 / no-opt-cu-delta-qp / no-aq-motion / no-hdr / no-hdr-opt / no-dhdr10-opt / no-idr-recovery-sei / analysis-reuse-level=5 / scale-factor=0 / refine-intra=0 / refine-inter=0 / refine-mv=0 / refine-ctu-distortion=0 / no-limit-sao / ctu-info=0 / no-lowpass-dct / refine-analysis-type=0 / copy-pic=1 / max-ausize-factor=1.0 / no-dynamic-refine / no-single-sei / no-hevc-aq / qp-adaptation-range=1.002 Y1 U* n( x* k8 W+ g4 w
Default                                  : Yes5 ?2 s* b. _# _, e
Forced                                   : No1 d8 C" Z% T  g3 `8 V

9 a4 V1 k$ u  Q2 H& Y2 E! _Audio #1) H6 Q( R* o9 ~* i8 g
ID                                       : 2
% O) v* r6 ^: T  Z; f& v5 ?) RID in the original source medium         : 4352 (0x1100)
) P4 t# y, i: @7 A/ w9 ^6 d+ |) SFormat                                   : MLP FBA 16-ch
  `% [1 Z5 W0 G: U4 [Format/Info                              : Meridian Lossless Packing FBA with 16-channel presentation. _% `7 m( d% M
Commercial name                          : Dolby TrueHD with Dolby Atmos# k7 B. y2 @1 ]7 H
Codec ID                                 : A_TRUEHD8 u7 l8 ?& n* r6 f$ D3 S
Duration                                 : 1 h 27 min. A1 m, \# I' a! p, C/ M! H
Bit rate mode                            : Variable
0 s- D  }$ f7 S2 t% p' g: K- C, fBit rate                                 : 4 283 kb/s1 x* `5 T- {! s) \, z1 t  ~
Maximum bit rate                         : 6 558 kb/s8 v# v( y  O9 _7 q3 p9 @  b
Channel(s)                               : 8 channels, Y. d, E/ _3 p# _9 z( g* b
Channel layout                           : L R C LFE Ls Rs Lb Rb5 t- G$ M, k, X' e" A
Sampling rate                            : 48.0 kHz' G& ^+ Q5 `# k1 C* Y# ^& q3 [
Frame rate                               : 1 200.000 FPS (40 SPF)/ e$ e+ M/ |3 k
Bit depth                                : 24 bits
1 q# d6 P% \3 ~9 F2 i- V8 ECompression mode                         : Lossless
" A: o' `9 o7 l- U; y6 XStream size                              : 2.61 GiB (5%)
4 _3 p& b' [- ]& P6 i* d% `/ ETitle                                    : TrueHD 7.1 Atmos
/ m6 Z) N' ]& ~$ I! rLanguage                                 : English
- H( u- L5 `$ m( oDefault                                  : Yes4 s6 D3 y! w) c+ @3 F, [( Q' W
Forced                                   : No
; f1 W1 s9 f9 I+ H0 m, b& Z: HOriginal source medium                   : Blu-ray
0 g0 _6 `. s0 @& a" v6 D! UNumber of dynamic objects                : 11; v9 [/ ~8 Q  |- |2 E
Bed channel count                        : 1 channel. w1 D3 _) D! F0 z9 ^5 k
Bed channel configuration                : LFE6 c; x1 R3 q0 j
2 p/ m5 ?+ U% L) w7 [
Audio #2
) k8 Y9 U, r0 e2 y0 iID                                       : 3. _, N- H% U2 ]
Format                                   : DTS XLL3 z5 c7 @- W6 t1 ^* F
Format/Info                              : Digital Theater Systems
4 m8 x. @+ r$ {- r" M" H" o. JCommercial name                          : DTS-HD Master Audio
% y6 V/ x3 p6 H8 g! T5 F: e$ R' _, _Codec ID                                 : A_DTS
0 o8 W+ r" u- M6 kDuration                                 : 1 h 27 min
' S( I" K  {, |Bit rate mode                            : Variable
" i- d- M( U' p+ j: p+ X; ~- `% V4 QBit rate                                 : 4 077 kb/s
; @& A8 L' Y$ Y# x. Z/ b9 NChannel(s)                               : 8 channels" Y# L" d0 ^! d# \+ }
Channel layout                           : C L R LFE Lb Rb Lss Rss" m# P. D% G% k$ f
Sampling rate                            : 48.0 kHz
% n$ u5 ~& T  N* N  bFrame rate                               : 93.750 FPS (512 SPF)1 T, e4 z7 L$ k5 k- T
Bit depth                                : 24 bits# L0 M+ r( a" P
Compression mode                         : Lossless
& g; @9 o: p2 `6 [/ I7 _Stream size                              : 2.49 GiB (5%)
1 q2 c- F: B- t; UTitle                                    : DTS-HD MA 7.1- m% j8 d9 |7 G) \/ O/ V
Language                                 : English
( I# H2 J: m- b" V8 PDefault                                  : No3 h- F5 N6 Q5 a' z, {# D6 M& g
Forced                                   : No; h/ b) o( {5 `# ?: Q5 W

4 B7 l( H: h7 ]& R3 O& FAudio #3
: `; X2 z0 R1 d- l3 S& dID                                       : 4
' X* E7 H: C# b6 i! lID in the original source medium         : 4352 (0x1100)' h9 b2 _8 W5 N8 o$ V# R: }3 D
Format                                   : AC-34 G  Q* Y0 T, b2 d
Format/Info                              : Audio Coding 3
2 a7 }1 A; r- gCommercial name                          : Dolby Digital
& ^% s! a: w' `; U# e. l- Q- d. ICodec ID                                 : A_AC3$ {: S, P- g7 |; j/ i# G' S; g
Duration                                 : 1 h 27 min
( ]+ q4 a, P  }. L! v7 k! c( OBit rate mode                            : Constant
" W& i( T: j( N) VBit rate                                 : 640 kb/s% D' Q0 x& C7 D# G, y4 T1 a9 F
Channel(s)                               : 6 channels) M2 y/ O; A  w: L0 k! _4 C" Q
Channel layout                           : L R C LFE Ls Rs2 F0 c& ?& e# [3 i" G- r
Sampling rate                            : 48.0 kHz: d) K# q( ], n' s: {& a
Frame rate                               : 31.250 FPS (1536 SPF)) u. |5 }$ U3 |; q
Compression mode                         : Lossy" J4 l# S. `7 }& y; L3 B
Stream size                              : 400 MiB (1%)
. @% x' W% j/ L# A% hTitle                                    : DD 5.1! p2 J( X& ~# v1 m% Q4 [8 e4 e* U0 O) Y
Language                                 : English
5 |( m0 X3 O4 X+ A2 aService kind                             : Complete Main
( M% S, Q# h8 H, Z+ sDefault                                  : No
3 O( O8 _5 ]# t# mForced                                   : No: q: r2 v' l, L6 c( B
Original source medium                   : Blu-ray
9 H# w3 {4 t4 [: s8 A9 [# D6 k- ^, q+ b1 u
Text #1
+ d  j  |; l, ^" Z+ G$ m( [ID                                       : 59 i( k; \" f1 m. K; k
Format                                   : UTF-8, f, V5 ~/ t( ^1 d) l1 T: N: o
Codec ID                                 : S_TEXT/UTF8
+ R& Q# a1 _! ~% K, l- DCodec ID/Info                            : UTF-8 Plain Text8 C$ O" e  y4 s$ `
Duration                                 : 1 h 26 min
, R5 u2 u1 {' R  b3 g: i' eBit rate                                 : 60 b/s
" a0 J! _+ V, J1 |7 n, QCount of elements                        : 1008
! F1 u5 m5 H7 z) K3 S* X  lStream size                              : 38.2 KiB (0%)1 r+ Q  D1 M# {  t: y4 G0 X) Z' z
Language                                 : English
- L7 Q; [0 s  Q' x5 N& p" E" WDefault                                  : Yes
0 d- A) S8 f! r& P& d8 }( QForced                                   : No* O2 S, f8 x$ m* |. b1 n5 j

4 y* |) X3 K* GText #2
* X( m! A; N% V0 L4 AID                                       : 64 I0 w0 c+ J1 t9 ]
Format                                   : UTF-8
% `9 v) {! r# Q) t* a2 aCodec ID                                 : S_TEXT/UTF83 ^! T# _3 a( k
Codec ID/Info                            : UTF-8 Plain Text2 F( G, s/ M; d* z' T2 }
Duration                                 : 1 h 26 min
6 }  E) j) _- p% i2 nBit rate                                 : 65 b/s
- u$ I0 k% \7 i% Z3 ~Count of elements                        : 11301 F; M; K3 ?- ]" ~
Stream size                              : 41.6 KiB (0%)/ W1 p( b$ e1 z  P* s6 q
Title                                    : SDH4 v$ m  B# w' @7 X+ h! i/ j" |
Language                                 : English
2 G: a1 o  r5 A  g. yDefault                                  : No+ m* h+ {% w9 U
Forced                                   : No1 z! N# d: M2 Q# P

2 E* q4 t( W5 S% ]  mText #3
! e( z/ f6 R4 n* s( q$ sID                                       : 7
; v: z, e3 s6 L: J0 B- LID in the original source medium         : 4768 (0x12A0)) g+ }& W- w0 B/ T1 `
Format                                   : PGS
0 f3 I* O7 p  s' M8 S2 qMuxing mode                              : zlib  ]  y3 E3 C, @: E/ P
Codec ID                                 : S_HDMV/PGS
9 d4 l* n+ ]$ p# ~4 V3 gCodec ID/Info                            : Picture based subtitle format used on BDs/HD-DVDs& D6 u/ C3 K  A' I1 p  J
Duration                                 : 1 h 26 min# P! w/ }+ `7 _" r+ X
Bit rate                                 : 43.6 kb/s. ?5 J# J6 R0 O
Count of elements                        : 22883 d) L0 E: P) p  v, ?- A- s& F
Stream size                              : 27.1 MiB (0%)
3 L/ X2 I) Z, ULanguage                                 : English
  z) t3 a" l- EDefault                                  : No
% V2 W# b7 p% KForced                                   : No# y1 j) c% H, T( F( I. d2 q
Original source medium                   : Blu-ray% c4 T6 f4 I8 h4 ^% ]: l

/ u9 q" C: r9 `) W7 _% I0 PText #4& m8 [. ?; D3 j7 C  E
ID                                       : 8
# B5 Q0 @& h- A2 q5 u" {ID in the original source medium         : 4769 (0x12A1); M9 \+ d: X/ w
Format                                   : PGS
: U8 Q# Z! s1 G! R: l# z/ iMuxing mode                              : zlib; q2 E! r2 D) W! R. Q
Codec ID                                 : S_HDMV/PGS
" d: u' E2 G( k! O# CCodec ID/Info                            : Picture based subtitle format used on BDs/HD-DVDs, N+ g* d0 N. a9 m' t- G
Duration                                 : 1 h 26 min
- i$ Z3 K8 k; L3 H. {Bit rate                                 : 35.2 kb/s. R" I  _) j5 Y9 S% A5 J/ M
Count of elements                        : 1934! O8 a7 z. R: k/ ]6 v. ~
Stream size                              : 21.9 MiB (0%)* ?5 W0 A% [! _  k
Language                                 : French
. m9 H9 O9 c' `. ]Default                                  : No
1 \, T' k% w' q4 f* F$ X* YForced                                   : No7 Z7 r7 j" A/ ^% l
Original source medium                   : Blu-ray
" r7 n. h0 `+ D! X$ J1 t1 ~$ {) I7 c8 M+ F
Text #5) R. D+ U+ q/ Z, P! c: ]8 e
ID                                       : 9/ J% P- D2 F# j" h* V
ID in the original source medium         : 4770 (0x12A2)( P; h8 Q  k, p: r
Format                                   : PGS% {5 V4 v+ F4 ]9 D  R
Muxing mode                              : zlib
; x& g( [" D) t. \+ qCodec ID                                 : S_HDMV/PGS9 ?' Q5 ?# M: X% }6 \! Z2 u" q
Codec ID/Info                            : Picture based subtitle format used on BDs/HD-DVDs0 M. }, ?! G3 ~3 k- }  I+ d- o" ?1 y& v
Duration                                 : 1 h 26 min, `( Y; p+ {2 f" C& ?" h& L4 M# e
Bit rate                                 : 34.0 kb/s( K' G2 ~6 s" g9 p5 k! }7 }
Count of elements                        : 1936
, c1 O4 d9 g5 z. QStream size                              : 21.1 MiB (0%)
1 l' B6 K% J! b1 a: g" TLanguage                                 : Spanish; h9 n) c) C% t. W0 _* S
Default                                  : No6 ]9 }* o: J" V6 V% s
Forced                                   : No: w8 Q; P; C  E5 u3 l1 l5 M
Original source medium                   : Blu-ray
- F# z# N) f$ U+ p, U8 P* r) Y# H  N2 P* l4 G- `5 K0 T: s% X; ~
Text #6( M" ?  h+ m5 P. ^' p
ID                                       : 10( v% P' l9 Q3 Z7 W1 q; M
ID in the original source medium         : 4771 (0x12A3)
6 g' x0 w$ f/ R; [  {8 |* K. m6 H! }Format                                   : PGS
% X/ J% l7 x. `Muxing mode                              : zlib$ E) x" v' f, R2 q- n: L6 ^$ J7 _
Codec ID                                 : S_HDMV/PGS
2 W& z! k" e$ I$ qCodec ID/Info                            : Picture based subtitle format used on BDs/HD-DVDs
  T- h0 j4 A' g8 ^: d3 Q7 iDuration                                 : 1 h 26 min) y( o  A- |) M/ d3 P6 t0 Y
Bit rate                                 : 33.9 kb/s
- {5 p" O7 @/ i, d2 I1 N$ WCount of elements                        : 1926
) M$ U% a: G" T2 pStream size                              : 21.0 MiB (0%)
; T7 X$ f  r7 t; n, [Language                                 : Portuguese
9 L( `/ U8 Z+ h0 nDefault                                  : No+ _8 Z' e* |2 t5 Y' k' ~/ J: D% e
Forced                                   : No$ F+ c2 A5 _& K/ U2 S% ?
Original source medium                   : Blu-ray) t; w0 Z: G+ @
. o# u! J. z2 p9 C
Text #7
: n+ Y2 y  r& ~7 F" a+ JID                                       : 11
7 a( g8 _' q& f5 P* {ID in the original source medium         : 4772 (0x12A4)
2 r6 p  i; K* }; f, J1 q1 }! G" ZFormat                                   : PGS. S! l3 a5 W9 T* f) [( a# R- q6 X4 {* |
Muxing mode                              : zlib9 c3 f- N7 F) ^; S0 b
Codec ID                                 : S_HDMV/PGS
1 W% S4 a4 O0 v, T4 G. h, JCodec ID/Info                            : Picture based subtitle format used on BDs/HD-DVDs
" v) O" h1 L( w9 gDuration                                 : 1 h 26 min
. [9 N5 j( h/ O% pBit rate                                 : 36.8 kb/s0 ~7 ^  z! ^8 L3 {" h5 |
Count of elements                        : 1872
! i3 d$ y! X: ]4 B0 d! j( J0 hStream size                              : 22.9 MiB (0%)2 l9 j% Z) T+ j! N6 O
Language                                 : Spanish9 m4 t9 m) H0 D1 \9 \
Default                                  : No7 P% L8 p% s3 N' Y1 b
Forced                                   : No
: v1 |  h) _5 z! e% `4 uOriginal source medium                   : Blu-ray! |7 F. Q; v+ I) e+ h9 h: a! T
1 A  V$ `$ u( V& a$ Z# P
Text #80 H3 b9 j" R1 }  y. ^$ i8 j- U/ Q
ID                                       : 12
# N3 g- o0 u5 @" ~. j* i* aID in the original source medium         : 4773 (0x12A5)
, ^5 S" ^3 L2 b, G6 t2 G) `; \Format                                   : PGS% ~) g2 ]% F7 ^: ~: T
Muxing mode                              : zlib. ~  v/ ]" @" f2 y2 l3 n  j
Codec ID                                 : S_HDMV/PGS' ~- G) Y! B" }( D$ h' g
Codec ID/Info                            : Picture based subtitle format used on BDs/HD-DVDs
$ _1 {8 `$ L+ h2 b- o5 e$ V+ |Duration                                 : 1 h 26 min$ S# @3 F7 `6 y+ ~$ F! ~# q2 s. Z
Bit rate                                 : 34.9 kb/s0 f8 E0 [! y9 c+ s- l- _" C
Count of elements                        : 1934
5 H) _( g7 I- G5 U& g9 RStream size                              : 21.6 MiB (0%)
1 |& H" m# ?" V2 O# c8 }: P0 ZLanguage                                 : French+ @) z% D6 B7 R/ O
Default                                  : No
2 R; [/ {" a$ ]. E: ^7 JForced                                   : No: n8 ]& g1 e2 |  Q5 M, e% S6 x" ~
Original source medium                   : Blu-ray" u" W' F; D6 G. V9 i& V; s$ i; }
# H+ v4 I) X* Q6 [  R! U9 h
Text #9
; C( W8 v3 @# WID                                       : 13
% \! ^/ F4 ?, A, e* UID in the original source medium         : 4774 (0x12A6)2 |5 O; J9 r4 x4 O6 N( A( J
Format                                   : PGS
. t. G4 q8 X( U. H% a0 mMuxing mode                              : zlib# q- w9 A* R2 M  Q
Codec ID                                 : S_HDMV/PGS
; T8 G7 U: ]* Z. `/ m/ SCodec ID/Info                            : Picture based subtitle format used on BDs/HD-DVDs
3 r' y% y- g. m: k8 {1 d2 UDuration                                 : 1 h 26 min
  H, J+ h0 x. tBit rate                                 : 38.0 kb/s
# f, D6 i5 w6 M) u- r: `1 zCount of elements                        : 1930
0 m* W7 P; }8 b" WStream size                              : 23.6 MiB (0%)
6 ^6 G+ Z/ A) e( Z- \Language                                 : German6 {1 L( M8 f4 X! x8 T) I
Default                                  : No9 [% ^: q' r& Q! B
Forced                                   : No
' `/ i8 j8 s0 WOriginal source medium                   : Blu-ray
5 H, c1 S1 J: ]/ Y4 @% V+ k8 Y  @. R
Text #10
$ P  @0 e/ ~: S3 |% ]! _. f  fID                                       : 14
/ S' t. O( _& uID in the original source medium         : 4775 (0x12A7)
- u8 d, a: h& G& yFormat                                   : PGS- Y6 M: Y' U4 s2 @0 ^
Muxing mode                              : zlib; A% \5 M0 g) W, u) Y) F, M
Codec ID                                 : S_HDMV/PGS; D/ c8 z- Z& t; x8 L
Codec ID/Info                            : Picture based subtitle format used on BDs/HD-DVDs1 V5 ~6 v2 X9 m0 J
Duration                                 : 1 h 26 min
5 d3 G7 Z1 D0 ~, v/ B8 XBit rate                                 : 36.0 kb/s
; b* P9 k; }; P# r8 ^# z) D+ F; yCount of elements                        : 1934
& f. i/ S4 }! qStream size                              : 22.3 MiB (0%)
+ U) \' ?" H8 u9 WLanguage                                 : Italian
2 R2 t0 C) Y* v2 ?0 @5 j; RDefault                                  : No6 @5 j7 \& @4 c
Forced                                   : No) f1 e' t3 ?% s* O* z7 r- ~
Original source medium                   : Blu-ray
9 L  C8 S; B) F2 ^% H" j" b9 y8 M# d* K
Text #11& J/ x# ^8 f3 H
ID                                       : 15$ s( [0 F% m, ~* H. P4 i# C
ID in the original source medium         : 4776 (0x12A8)
* l+ h$ b- z# _) V- fFormat                                   : PGS: ^  B! c4 n/ ~; N
Muxing mode                              : zlib
2 q) B3 @% A- oCodec ID                                 : S_HDMV/PGS
/ i$ i3 V9 y0 e" |Codec ID/Info                            : Picture based subtitle format used on BDs/HD-DVDs
$ m1 F/ v3 t% U# MDuration                                 : 1 h 27 min
  r0 l' w# G8 H: C8 WBit rate                                 : 30.0 kb/s8 E7 u( e1 d1 z( u$ N2 k
Count of elements                        : 2016
& ~* O6 H, Z6 K/ XStream size                              : 18.7 MiB (0%)* W) b7 G1 i" [4 Q9 V
Language                                 : Chinese6 H* r  \  E+ ]: v
Default                                  : No
0 k% ]' U& Q; O% R& H7 KForced                                   : No" Z; ]1 v' g: ]0 a8 h4 M8 {
Original source medium                   : Blu-ray
9 z2 f, }0 \2 E6 G% v
- g- G6 S: {* ]- V. j* m: v3 qText #12
! _8 {+ x) ~4 P( pID                                       : 16( @& @6 ]* m, g  `' K5 ~' I2 [
ID in the original source medium         : 4777 (0x12A9)
: b+ p5 K. Q% L, A# JFormat                                   : PGS
% U3 J, k- b$ g9 j) O% ~) ]Muxing mode                              : zlib
4 Q1 N0 r. Z& l( h# Q$ z6 WCodec ID                                 : S_HDMV/PGS0 X9 `: _, ^6 i  v+ ^; H" L
Codec ID/Info                            : Picture based subtitle format used on BDs/HD-DVDs
5 ^5 A% F; P# E. x9 @3 N4 fDuration                                 : 1 h 27 min
  |! k' Y% G4 D: R! [' s* ]Bit rate                                 : 29.3 kb/s
  E4 [0 O' ]; `- B+ @2 hCount of elements                        : 2016
2 h# c+ E2 r, t) [8 u7 V% |' i! `2 C' iStream size                              : 18.2 MiB (0%)7 J4 T( b( t4 l/ m2 _  @
Language                                 : Chinese
/ b& ?& s0 ?' M0 b5 m. _" GDefault                                  : No
& Y) `; P. D2 j5 i3 BForced                                   : No6 [# s( s; x7 m; v% b5 O9 i4 G
Original source medium                   : Blu-ray
$ a7 N3 h) ]/ o$ r: s5 |4 @
- n) g) t+ R5 `Text #13
. D; [0 g, I# r1 {ID                                       : 17
6 S/ K5 Z4 }; r+ ~8 hID in the original source medium         : 4778 (0x12AA)
2 x9 `9 z# f: oFormat                                   : PGS7 d7 `$ @. y: U) D& r7 {+ Q
Muxing mode                              : zlib; Q8 n7 f. G: e0 V' x, A
Codec ID                                 : S_HDMV/PGS. P/ s& o9 ]8 J$ ?
Codec ID/Info                            : Picture based subtitle format used on BDs/HD-DVDs
. M1 q# b& \# d8 `9 d# |6 FDuration                                 : 1 h 27 min
. g# R& u- t# y: ]( `Bit rate                                 : 25.3 kb/s
& a4 T- @! E) v% W5 NCount of elements                        : 2016
) Q7 k& q2 H/ \1 fStream size                              : 15.7 MiB (0%)# _8 I- |5 o' f/ S) |7 v
Language                                 : Korean
, ~4 {- g8 q5 {# D; ?Default                                  : No
" c, Q6 x. c% dForced                                   : No6 k; o; j- R: f/ u% \3 w) s2 s
Original source medium                   : Blu-ray0 V9 a0 M3 `* N3 O; C

$ r  F$ i8 @5 X7 u& |+ ZText #14
6 p% ~9 P+ z. [/ D2 f% yID                                       : 18
( p9 C/ U, }* g) `: p+ F0 _ID in the original source medium         : 4779 (0x12AB), q' U7 H+ K) j- H, j- H. X
Format                                   : PGS
; J$ G* b  H/ z  j. nMuxing mode                              : zlib
" ]: d$ V; g) ^. aCodec ID                                 : S_HDMV/PGS
2 q6 t6 u/ F. T% P8 f, WCodec ID/Info                            : Picture based subtitle format used on BDs/HD-DVDs
5 E1 d; W/ i, n4 m( KDuration                                 : 1 h 27 min
. X* f  {% `2 L4 J8 B$ R- ^) HBit rate                                 : 22.9 kb/s
# w/ q. \  M" h: cCount of elements                        : 1855
" s+ i) C0 X3 ~' dStream size                              : 14.2 MiB (0%)
/ o2 o, D2 A0 a0 g* kLanguage                                 : Japanese- s% V( n/ }' I
Default                                  : No1 n$ c' M$ w9 `* Y8 N
Forced                                   : No( `; x, r! u3 W. R& z
Original source medium                   : Blu-ray
4 H" u/ B  j6 d7 Y: K6 v) w# Q  O) \8 b% A4 @, L7 {3 p
Text #15* M: ]: b2 z7 U# Q% v* Z/ T
ID                                       : 19
8 J. k" h: B7 a9 sID in the original source medium         : 4780 (0x12AC)2 N  I" \' a( q' [
Format                                   : PGS# I8 g. B- k, f2 ^( i: x0 b' ?
Muxing mode                              : zlib) [: ~8 k2 V& a# T& ^& H5 a
Codec ID                                 : S_HDMV/PGS* _" I$ d# A3 P1 k
Codec ID/Info                            : Picture based subtitle format used on BDs/HD-DVDs1 @5 R% p! g' t( B4 l% T
Duration                                 : 1 h 26 min: C3 Y; K. O+ q
Bit rate                                 : 37.5 kb/s1 r8 E3 Y, ?/ f7 J
Count of elements                        : 1942
' r! [- Y) q8 w# u: `; h' JStream size                              : 23.3 MiB (0%)6 z6 \( B( ^. A/ @; Z
Language                                 : Russian
6 D5 V( p& R6 a+ w1 FDefault                                  : No
+ m( a% V! A  b& H& G! pForced                                   : No. w) _: p- l0 g( v8 D
Original source medium                   : Blu-ray2 j( M6 I& t' ^" h
3 Q) v0 V/ F" Z# R8 o3 m( N
Text #16; w' v8 t! }* |: f- F9 `
ID                                       : 207 L6 S" U# s2 N: |8 A, D
ID in the original source medium         : 4781 (0x12AD)
; Z& a0 ~2 `. G7 @& _6 s* k+ `  x+ \Format                                   : PGS
9 |6 B; }# M5 S6 _' bMuxing mode                              : zlib
( f% \0 P* Q' T; I: _( t3 ?Codec ID                                 : S_HDMV/PGS
- i8 I9 _" n, W8 L8 W( C+ b- P9 BCodec ID/Info                            : Picture based subtitle format used on BDs/HD-DVDs+ j% v5 Y1 i1 W2 p+ t% v6 r: a
Duration                                 : 1 h 26 min
2 ~  G0 V' y  u" _6 e2 f, L% d% eBit rate                                 : 34.0 kb/s1 U9 A9 k# E0 k' F0 N6 {  T
Count of elements                        : 19145 b% G0 b8 e" M4 a& V8 r
Stream size                              : 21.1 MiB (0%)( d2 b  C3 j* L4 k
Language                                 : Danish
! ^8 g7 V4 S+ P( i: n' \+ {Default                                  : No. W+ V' }! ~+ ~# a4 _
Forced                                   : No
9 a+ `7 \* r. AOriginal source medium                   : Blu-ray
! T- V, W) Q( q4 B7 _. l! H4 u* ^( X
  E% z2 p+ m+ p% b: k+ kText #170 c' G3 r. y8 Y7 k7 t
ID                                       : 211 o4 o) M5 g7 K; Y7 n8 ]3 }! }
ID in the original source medium         : 4782 (0x12AE)* r3 ?% M. `+ j$ e8 I  S/ v
Format                                   : PGS
* n' p3 g! t, w8 e3 D/ H) ~4 jMuxing mode                              : zlib
$ h4 a& f7 |4 DCodec ID                                 : S_HDMV/PGS
# f' C- ~, S0 ZCodec ID/Info                            : Picture based subtitle format used on BDs/HD-DVDs! _  z1 |# z+ t0 G6 y3 m
Duration                                 : 1 h 22 min$ S0 X+ n$ w. N. N7 `! p
Bit rate                                 : 29.9 kb/s
5 s$ C  V5 o8 F" z, r& a: BCount of elements                        : 1736& F0 a) A4 ~" _! l
Stream size                              : 17.7 MiB (0%)( ?9 C, ~- f" m. D5 N  \9 t
Language                                 : Dutch
' B; R% f# n% k6 a' |4 j! T7 NDefault                                  : No
9 |6 G4 ^0 c& @) PForced                                   : No
: M# }  B- x6 H3 U  QOriginal source medium                   : Blu-ray. ]. W$ P6 g2 t  x) |! m

! q2 L/ v( G# H& sText #18
) O1 ~- c! k' U$ y  c( D7 H& RID                                       : 225 T( Z/ p/ I3 \) Z. ^9 {4 I
ID in the original source medium         : 4783 (0x12AF)
# i! ]& o: @" f8 s$ ZFormat                                   : PGS- P% _4 q; e& C8 ?$ R
Muxing mode                              : zlib
' T' u1 C, h9 l5 BCodec ID                                 : S_HDMV/PGS
2 z! K7 d+ `- ?* C% \Codec ID/Info                            : Picture based subtitle format used on BDs/HD-DVDs
5 [1 ]5 S' k# c. ODuration                                 : 1 h 26 min/ C# X: d$ ]+ u
Bit rate                                 : 37.2 kb/s
5 T9 q$ R5 f. f4 v! L; p* u+ z2 ]Count of elements                        : 1898
7 Y( O3 H7 w2 mStream size                              : 23.1 MiB (0%)1 ~1 m6 a0 z" ^. l2 A1 f1 X
Language                                 : Finnish
9 N9 v$ K7 M) x6 \; d, c. CDefault                                  : No4 _% A* t+ o- B& O% v# I
Forced                                   : No  c2 M' [2 t3 Q! U
Original source medium                   : Blu-ray. R# ^! P4 z! _7 X, O% W' M

7 J" u! T8 E* }% tText #19
0 ^. u0 Z( Y* j& {ID                                       : 230 M6 d) \1 r# j4 Z  Q  |) f
ID in the original source medium         : 4784 (0x12B0)
0 u1 |" `2 Z, p* E" O8 x9 PFormat                                   : PGS) t+ p; L( Z/ A3 r
Muxing mode                              : zlib  x& l+ @, [. `+ }4 u) I; `
Codec ID                                 : S_HDMV/PGS
' H$ V( A3 O' ~+ _# q0 `Codec ID/Info                            : Picture based subtitle format used on BDs/HD-DVDs
) w% k4 [# Q4 l- O2 ?9 Z& n0 YDuration                                 : 1 h 26 min5 e) G& r( ^& z" c! J8 w% z
Bit rate                                 : 35.1 kb/s1 R6 Y: [9 U, _* U! e6 i1 ]( o
Count of elements                        : 1926
1 i- `- E+ F- c) NStream size                              : 21.8 MiB (0%)5 O0 P0 c: g, q+ C& d4 q( W
Language                                 : Norwegian
) M: ^$ }2 Z2 E: ?Default                                  : No3 v% b8 @3 N+ d/ o
Forced                                   : No
7 G" n* g- F9 KOriginal source medium                   : Blu-ray
* C4 s  F3 G6 c( \, s5 @/ T: ?$ c( s9 |' ~: d
Text #200 p+ w! n# E( g" p9 ^6 }, ~; @7 H
ID                                       : 24. g, l& I" j6 O* }
ID in the original source medium         : 4785 (0x12B1)
# b' N  r- h0 R+ C' n. }1 |2 mFormat                                   : PGS6 H- a  x, {9 ^" k/ a
Muxing mode                              : zlib
) @* G7 h/ x' N$ b- bCodec ID                                 : S_HDMV/PGS; k2 Y) ~1 r  Z, ^
Codec ID/Info                            : Picture based subtitle format used on BDs/HD-DVDs
  c3 m- B8 K, n" K) R8 ^+ l! k1 L. RDuration                                 : 1 h 26 min9 @' o6 S; \, [
Bit rate                                 : 32.6 kb/s" V& [% V, S2 Z' V6 t
Count of elements                        : 1908$ M2 }% @/ V, K! e( Z* r; `6 q/ h
Stream size                              : 20.2 MiB (0%)
* |/ D+ E! g" i5 F8 uLanguage                                 : Swedish
6 h& ~3 T' F9 m3 D! w9 ?: pDefault                                  : No: R9 l/ H+ M% f, R; m1 [) q" h7 o
Forced                                   : No. k2 x5 S5 F% h
Original source medium                   : Blu-ray
( r+ d, ^9 H" }9 G( q! f* [( P0 Q3 O: Y! K8 ]
Menu- n6 g! f" l# E+ A$ x- L
00:00:00.000                             : en:Chapter 00) G7 G4 u* ^5 Z$ m
00:00:01.001                             : en:Chapter 01/ Z. E4 x* H5 j( r
00:05:44.093                             : en:Chapter 02" E; H6 s# M5 Q$ y) m3 B
00:10:53.444                             : en:Chapter 03
* }/ ~9 q+ X! R2 i00:17:28.589                             : en:Chapter 04
/ v) A9 Q5 v  @$ V& {00:22:52.037                             : en:Chapter 05' y$ W8 q. L/ z$ O, \4 e2 ]) w
00:28:12.399                             : en:Chapter 06
6 S& K, g4 I9 @* U5 L( }7 K$ _00:37:31.332                             : en:Chapter 075 ~1 S6 e. M, q+ E4 U+ p
00:42:22.998                             : en:Chapter 08/ u) Z) E4 d' |1 _. D: J9 r1 `
00:46:22.821                             : en:Chapter 096 V* d2 t* t0 d/ L, v& r/ U
00:51:01.141                             : en:Chapter 106 h( T2 o3 \+ t7 c
00:56:43.441                             : en:Chapter 11
% R8 G; d8 [) w+ d2 f& Y; M8 |. d01:03:05.782                             : en:Chapter 127 W, g# ~7 H. C
01:07:35.968                             : en:Chapter 13
7 s& `* b5 ?4 v9 b. ]+ p4 W3 E01:12:51.325                             : en:Chapter 14* V8 a8 D. D/ t1 J. W; b
01:17:01.533                             : en:Chapter 150 n% X9 g1 z8 N. L
01:19:41.443                             : en:Chapter 16& \6 F  u8 M3 E: J5 a+ b- G; W
01:23:22.038                             : en:Chapter 17
SWEATY BALLZ presents. G1 s$ l3 k, w- k7 Q0 H9 d; Z

2 L: O2 e/ c7 mManiac.Cop.2.1990.2160p.BluRaycd.x264.8bit.SDR.DTS-HD.MA.TrueHD.7.1.Atmos-SWTYBLZ 58.24 GB9 H" v6 O. n. n; O
Converted from 10 bit HDR to 8 bit SDR using tripple mixed Hable-Reinhard-JJ per scene+frame analysis algorithm6 K/ C* A: }, p0 @) k
, K) ~( q% Z4 ]
Video  g/ Q- {) {6 w5 p1 l8 ]0 a
ID                                       : 18 Y  N: Z4 y' a6 S1 |( t
Format                                   : AVC
3 G/ z$ T# f( A, b, {8 mFormat/Info                              : Advanced Video Codec# S6 E4 d9 k- v: W+ E) A
Format profile                           : [email protected]4 q9 c9 v0 Y& r; q7 c3 T
Format settings                          : CABAC / 5 Ref Frames
7 a: ^5 D& l% [Format settings, CABAC                   : Yes
! d$ h6 N% ^+ P7 G: N" w& J% C- FFormat settings, Reference frames        : 5 frames* ]  ]* j; H6 j' t9 H* {% o; _
Codec ID                                 : V_MPEG4/ISO/AVC0 O2 P' f  v4 [
Duration                                 : 1 h 27 min
" c4 i$ q# X# \# \+ [. lBit rate                                 : 85.3 Mb/s
9 T% b0 D* |' w7 s' y! I" XWidth                                    : 3 840 pixels0 W1 P& }  Y. w% G7 t6 f
Height                                   : 2 076 pixels, x  V( u# k) B: d" h- S
Display aspect ratio                     : 1.85:1
7 g' l( [4 Y. r, t9 ^Frame rate mode                          : Constant
2 q- M# }. T7 _6 U3 Y" FFrame rate                               : 23.976 (24000/1001/189150) FPS
! j' n( a6 P: ]6 ~  Q" Y8 EColor space                              : YUV8 ~! g* o3 j& Q' L0 B, o
Chroma subsampling                       : 4:2:0( |$ Z* m8 E/ P- @
Bit depth                                : 8 bits: l4 v3 J2 K9 l* s  f: ]* q
Scan type                                : Progressive; v4 X3 F4 k) X6 ^4 [) r( _
Bits/(Pixel*Frame)                       : 0.446
! p- i# Q9 v& \Stream size                              : 52.1 GiB (90%)+ x6 f" g6 N; ~
Writing library                          : x264 core 157 r2935 545de2f; A2 g- K7 x5 t0 l, Q
Encoding settings                        : cabac=1 / ref=5 / deblock=1:-1:-1 / analyse=0x3:0x113 / me=umh / subme=10 / psy=1 / psy_rd=1.00:0.15 / mixed_ref=1 / me_range=48 / chroma_me=1 / trellis=2 / 8x8dct=1 / cqm=0 / deadzone=21,11 / fast_pskip=1 / chroma_qp_offset=-3 / threads=48 / lookahead_threads=4 / sliced_threads=0 / nr=0 / decimate=0 / interlaced=0 / bluray_compat=0 / constrained_intra=0 / bframes=3 / b_pyramid=2 / b_adapt=2 / b_bias=0 / direct=3 / weightb=1 / open_gop=0 / weightp=2 / keyint=250 / keyint_min=23 / scenecut=40 / intra_refresh=0 / rc_lookahead=50 / rc=crf / mbtree=1 / crf=22.0 / qcomp=0.60 / qpmin=0 / qpmax=69 / qpstep=4 / ip_ratio=1.40 / aq=1:1.004 z2 S. p6 E4 I- `) J, ^& |$ K# S
Default                                  : Yes/ a- U; V! D6 H& S, r( n0 Y2 e
Forced                                   : No- E* M( O* U% S/ }- c9 |3 D" o
+ {; L) C# J* d% q2 T# `
Audio #1
7 S: d: [" J; ~, CID                                       : 2
. _1 \4 W, p+ p/ U6 xID in the original source medium         : 4352 (0x1100)/ N9 I3 s/ B/ u" d: q: n) h
Format                                   : MLP FBA 16-ch$ g/ G2 @/ n, v9 b5 U
Format/Info                              : Meridian Lossless Packing FBA with 16-channel presentation, @* L% Q4 L$ P& c* f& {1 p( d
Commercial name                          : Dolby TrueHD with Dolby Atmos
% K3 r( O" B9 J- P) ~+ b+ v3 V, WCodec ID                                 : A_TRUEHD( M* Q: J7 a% g% [, J
Duration                                 : 1 h 27 min
' |# e) X) R+ E+ q/ `: yBit rate mode                            : Variable
+ T: a. w! |! Y* S4 u  gBit rate                                 : 4 283 kb/s" D4 w; w5 o7 J2 X" ^
Maximum bit rate                         : 6 558 kb/s
/ W& q; q/ P' J! lChannel(s)                               : 8 channels8 D: Z7 a8 B/ ?+ L' t3 t9 j
Channel layout                           : L R C LFE Ls Rs Lb Rb) h' W) g4 {2 X# k& Y: p
Sampling rate                            : 48.0 kHz8 @, {" C% x& i) F
Frame rate                               : 1 200.000 FPS (40 SPF)) m! K( k% K; S* t
Bit depth                                : 24 bits
9 L9 E  `4 S, u) @Compression mode                         : Lossless) b% t6 r' i+ _, z, r  L! t4 s
Stream size                              : 2.61 GiB (5%)
8 Y  S9 L6 t) `Title                                    : TrueHD 7.1 Atmos! ~& B. ]4 V/ k$ H. u) m: B
Language                                 : English2 U: Q3 S" H3 c
Default                                  : Yes0 v0 [( w+ X7 R) n8 M6 c
Forced                                   : No7 K( ?" q$ b) Z' h
Original source medium                   : Blu-ray5 u" {$ p: M: M
Number of dynamic objects                : 11+ g7 G4 N/ d6 }: l
Bed channel count                        : 1 channel. h. \$ [: P% f; c+ I1 s4 b
Bed channel configuration                : LFE
- U+ M6 ^* v$ d( R/ R0 w" \( K1 Y! h7 ~
Audio #2: j. Y9 Z' F* c9 h; _5 N% B2 z
ID                                       : 3
5 n- d3 b5 e7 W: C9 U7 _3 lFormat                                   : DTS XLL/ g+ Q7 c9 y, w7 ~2 R$ ]5 o2 @
Format/Info                              : Digital Theater Systems
. H: i- N0 i! O: pCommercial name                          : DTS-HD Master Audio6 A- v7 M% r# L9 {: @
Codec ID                                 : A_DTS
, J- n4 n% L! FDuration                                 : 1 h 27 min
8 a0 F8 M! X" R6 P6 y0 bBit rate mode                            : Variable- J( z% E% x+ s, I7 l( x* ~
Bit rate                                 : 4 077 kb/s2 c. h, D, j) r# g0 E7 ]
Channel(s)                               : 8 channels- n; v9 h. X5 z. ~
Channel layout                           : C L R LFE Lb Rb Lss Rss  q; M, A8 `3 N
Sampling rate                            : 48.0 kHz4 H" ]* X8 r6 s0 R5 s* V. A
Frame rate                               : 93.750 FPS (512 SPF)
: W- d  s0 m" f  W8 p% vBit depth                                : 24 bits
$ o  f2 ?7 ~  `0 x: jCompression mode                         : Lossless
8 \' r' ~* z! {: J/ i/ KStream size                              : 2.49 GiB (4%)5 D$ z& j! h+ b$ u
Title                                    : DTS-HD MA 7.1
0 d/ N" x. [0 L2 v! V$ Z9 mLanguage                                 : English4 E# F& O8 m" F/ m
Default                                  : No
5 h5 l- t# D2 O9 G0 d5 AForced                                   : No
" a# a9 r  {3 B4 u4 e1 A% j/ L* o$ t6 O, k7 ?  W! @- k/ X
Audio #3! E& u6 ~' ~* P& J
ID                                       : 49 o. M4 k7 @7 L- q" i" {
ID in the original source medium         : 4352 (0x1100)5 A0 \  S  k4 R2 R% h
Format                                   : AC-3
5 `. v# `; w$ [) H1 JFormat/Info                              : Audio Coding 3
( s; j8 O7 G1 j! x/ OCommercial name                          : Dolby Digital# {1 q: S8 {% W/ L% {; e
Codec ID                                 : A_AC3
% H% L9 x0 ?% F5 l; d0 L; J6 O. ADuration                                 : 1 h 27 min' m9 |/ Z! ^1 m5 c
Bit rate mode                            : Constant2 q7 T# }+ }% w7 K6 K
Bit rate                                 : 640 kb/s* A+ q/ w9 u" P* V& U2 o
Channel(s)                               : 6 channels0 L2 m7 m1 A. M7 F6 q9 c
Channel layout                           : L R C LFE Ls Rs3 V% o+ s# I# I6 T
Sampling rate                            : 48.0 kHz
% ?2 X: e* a: WFrame rate                               : 31.250 FPS (1536 SPF): x$ @1 g9 u7 w  l' y! q) D' h
Compression mode                         : Lossy
* b6 Z: t. u6 u5 E9 r( C" M) G2 ?Stream size                              : 400 MiB (1%)# w: }. V7 T  j% i/ K, \8 J- `4 f
Title                                    : DD 5.1# X+ h) _" g+ T' O8 Y" P% A: R* Q
Language                                 : English; F2 D, r0 R* \) E2 i' n% K
Service kind                             : Complete Main' o6 b; M+ T1 B$ ~
Default                                  : No! }4 W' v/ r3 e
Forced                                   : No- \# ~/ j( r" e1 j4 f2 e, ?
Original source medium                   : Blu-ray- `/ N! T7 ~& j3 H* b3 [+ N5 L

0 @' W+ K4 B6 W$ Q& t& NText #19 P, |: O$ F- U
ID                                       : 5) b, x; N0 v+ ]9 w6 o7 j7 f
Format                                   : UTF-8# e$ Y" B7 v. n# L" _1 m5 G
Codec ID                                 : S_TEXT/UTF8
5 Y- Q( R/ m! a% Z+ j! H! A+ yCodec ID/Info                            : UTF-8 Plain Text* ^* O2 |4 H( H8 y
Duration                                 : 1 h 26 min( t. ]" n1 b1 u& z5 H5 p. |
Bit rate                                 : 60 b/s
1 f& }$ ^- x! F1 S+ p9 [: t3 _Count of elements                        : 10087 z2 U8 L" P# i
Stream size                              : 38.2 KiB (0%)7 D7 Y  V" b6 v# e7 T3 w* x3 w! H
Language                                 : English2 I1 K" o( s( w3 W  i& [
Default                                  : Yes
+ {1 Q0 u: w, n4 t" VForced                                   : No
" R* s" E" D# R$ y* `8 \. [& }8 K% `( D4 U2 P8 C4 w9 W9 f
Text #2
% g  _1 O/ V6 g0 xID                                       : 6
: h  F, L) e$ l0 d. w: x9 IFormat                                   : UTF-8: X; R1 l  Z% z6 F, ?7 W8 o: f
Codec ID                                 : S_TEXT/UTF8
. b1 B0 z5 [- ], L" DCodec ID/Info                            : UTF-8 Plain Text3 b" Y" i& B+ T* n
Duration                                 : 1 h 26 min1 d7 e. {$ C+ W, Z4 v' w7 E' x8 Z) f
Bit rate                                 : 65 b/s
: W7 R. x  m) t% QCount of elements                        : 11308 O- S7 P# ?( B  U
Stream size                              : 41.6 KiB (0%)
+ \- S3 E8 T* q8 u& D1 V+ o; ATitle                                    : SDH# Y/ J) }  h6 e/ W# D
Language                                 : English8 O' R; O; F3 H4 w- `2 v
Default                                  : No; g' r$ M2 j9 J5 `9 @" a' T+ M
Forced                                   : No
# l$ s9 i2 r+ B& k. U* v2 T
* `7 L- b/ g$ O  Q' \" c4 GText #3. Z0 e9 e3 `, B( p, o
ID                                       : 7- k5 I, }% ]6 P5 a
ID in the original source medium         : 4768 (0x12A0)8 L) D, }! F( Z3 ?8 }) q% l
Format                                   : PGS
" _. p; p, ]" }1 dMuxing mode                              : zlib
) [$ r% {% X# ?1 {( lCodec ID                                 : S_HDMV/PGS
( L* O' n4 z6 r6 q" o. E+ W; |Codec ID/Info                            : Picture based subtitle format used on BDs/HD-DVDs
; T3 P: u' \) R3 Q! NDuration                                 : 1 h 26 min' m" d8 w! f4 u6 V# D" {
Bit rate                                 : 43.6 kb/s
5 h" \/ J. R! x- V: VCount of elements                        : 2288* s# f4 ?% Z' [. u1 e% h$ y' c* y" x
Stream size                              : 27.1 MiB (0%)" I2 `- }. F6 m$ y7 ?9 z6 X
Language                                 : English
, m0 v! _& u3 z  Z2 ADefault                                  : No3 x. \2 z- t5 z7 i
Forced                                   : No2 B, o0 e# R& g, p. j
Original source medium                   : Blu-ray- n9 V6 b! A- n* ~
8 w6 I- T- A5 A, d* X6 ?
Text #4
. @4 m) |8 i8 PID                                       : 8
" ^# l. V+ B, u; \" BID in the original source medium         : 4769 (0x12A1)9 l4 v5 y) B; O5 |- K" W' r! k
Format                                   : PGS1 t" o# q; z3 ]& m
Muxing mode                              : zlib3 G; K5 m. b5 x# n
Codec ID                                 : S_HDMV/PGS
8 A4 I) p" ^9 Z* ?/ p% [# X" `Codec ID/Info                            : Picture based subtitle format used on BDs/HD-DVDs
& v0 }* ]8 ^0 O9 q6 B8 [8 K5 DDuration                                 : 1 h 26 min
8 ~9 U5 o0 {# r) Q9 UBit rate                                 : 35.2 kb/s
; ], u: M- L. c; |' q5 ~Count of elements                        : 1934
" n( h6 p7 A) D3 \Stream size                              : 21.9 MiB (0%)
: y- d  ?+ K& MLanguage                                 : French9 H* y+ G7 D5 M9 |5 |
Default                                  : No
& W+ j1 {: \  tForced                                   : No$ {% s* [: W: H5 y
Original source medium                   : Blu-ray$ L+ V1 y7 B4 S2 [/ B: [

+ I. P! D5 o$ S/ w' PText #5
  |- X' v# @7 r& o( }" r5 T3 r+ VID                                       : 9  W2 t7 a# v0 O+ @" }3 X- e
ID in the original source medium         : 4770 (0x12A2)9 A6 D6 V7 Y/ ~
Format                                   : PGS
$ S5 R2 x# P* T6 l# i" yMuxing mode                              : zlib
" V( w8 J6 S& i* b4 j! wCodec ID                                 : S_HDMV/PGS5 F3 `- k& w% ^2 X
Codec ID/Info                            : Picture based subtitle format used on BDs/HD-DVDs
7 U7 X6 o: z8 K5 @# Y, Z# ~Duration                                 : 1 h 26 min
* E, H0 H3 ?$ ^! w# T/ M) zBit rate                                 : 34.0 kb/s, _1 A. T4 n+ s; ?  s' f  I/ n7 W
Count of elements                        : 1936
/ }( k* \: E( h* e" c" JStream size                              : 21.1 MiB (0%)
* ^. i- m$ |: ~3 ^1 w# v2 Q/ HLanguage                                 : Spanish- Z' c, G3 G2 C4 K0 `+ R
Default                                  : No
- U; R$ h, j7 nForced                                   : No
7 \; Y# M6 z* sOriginal source medium                   : Blu-ray% g" O4 A# d+ ~5 C( e- X: @% e* {

) Q9 t6 o' s9 v' C7 b# DText #6
. u8 W& q# K1 }  H3 X( pID                                       : 10
3 e3 [9 D* Q8 W) y4 J! [* [ID in the original source medium         : 4771 (0x12A3)+ H; P/ P" V( m9 J4 b5 @9 T; v# g& C
Format                                   : PGS3 o6 |; e3 V! @% U1 k: y8 G
Muxing mode                              : zlib
. F# D- ?4 ]  zCodec ID                                 : S_HDMV/PGS
6 U& G4 }  c2 D$ S; oCodec ID/Info                            : Picture based subtitle format used on BDs/HD-DVDs2 r9 P( K9 w! `- d
Duration                                 : 1 h 26 min  k$ B; i& z* l7 }1 s. p% W
Bit rate                                 : 33.9 kb/s
5 Y, ?! u7 A3 d/ v$ A/ c. VCount of elements                        : 1926. ^& X5 V+ y4 b- _4 I
Stream size                              : 21.0 MiB (0%)
% H2 r9 u6 m2 u0 ALanguage                                 : Portuguese
  y7 H/ h0 I+ J, Y9 CDefault                                  : No
1 `6 ~* _/ _; H1 s) J4 `Forced                                   : No
( I/ s! A4 u  d2 KOriginal source medium                   : Blu-ray
+ A! T0 e; @9 c
( Z* [  i# V. f$ W4 U, ^8 X1 G1 vText #73 d% t8 l9 k- Y/ j/ u
ID                                       : 11
* c# J1 \7 O* {% AID in the original source medium         : 4772 (0x12A4)7 @+ S% J4 j2 h& g. c
Format                                   : PGS7 s2 j6 c# I4 U$ _1 o9 L
Muxing mode                              : zlib
5 z0 D; _; O# Y5 a  OCodec ID                                 : S_HDMV/PGS
4 f% M5 l% H# J6 j6 i/ i4 o+ ]" wCodec ID/Info                            : Picture based subtitle format used on BDs/HD-DVDs+ P! ^" E  h# x
Duration                                 : 1 h 26 min! V5 L) ]3 t. m7 E+ g
Bit rate                                 : 36.8 kb/s2 ]6 f' c" i; p  ^
Count of elements                        : 1872
5 g3 r0 `* P! t1 z' w* VStream size                              : 22.9 MiB (0%)
# u+ S8 y7 n. x" S0 D- z( I! }Language                                 : Spanish
( w" l8 z: Q  n& E- HDefault                                  : No) w; q$ S& H- L5 G- A
Forced                                   : No
4 q/ r- H) w) j5 HOriginal source medium                   : Blu-ray, D: g. a/ a( T1 X( v
3 O. z) b0 m" C0 h3 ?2 O
Text #8( t; U" U8 o9 V. g4 u8 c
ID                                       : 12( t, f& h& i# `# Z
ID in the original source medium         : 4773 (0x12A5)
" ^2 f7 d8 W2 `9 G0 {; oFormat                                   : PGS' i" K6 k/ U. p( d) ]
Muxing mode                              : zlib6 J; V; a5 p! v- {, \( z5 K
Codec ID                                 : S_HDMV/PGS
$ h2 {6 V- n: N0 xCodec ID/Info                            : Picture based subtitle format used on BDs/HD-DVDs
9 c  B) [# T. a+ o) g: v$ fDuration                                 : 1 h 26 min: ]. i$ f/ ~4 s" C( H9 z
Bit rate                                 : 34.9 kb/s5 y9 G3 B$ k; H& H& z2 D: e5 Y( |
Count of elements                        : 1934
8 s+ R5 S1 z/ l% ?8 S' F. iStream size                              : 21.6 MiB (0%)
" `( y5 Y! c( w- FLanguage                                 : French3 v( }7 @( d9 j( M
Default                                  : No+ z+ ?  _% W* I( c6 z
Forced                                   : No
$ X% [9 I7 D5 E8 hOriginal source medium                   : Blu-ray( Q- F" y( _; t, X) Q6 ]

' |5 w) U" g0 x! gText #9, k7 _" [6 E4 o, W  e$ n
ID                                       : 13, a/ G, v. k3 @! I2 e9 ~& @
ID in the original source medium         : 4774 (0x12A6)8 k  i8 x3 q. Q- K
Format                                   : PGS
* |) `9 V: {& D& g/ MMuxing mode                              : zlib
, Q6 [( G+ \  I# q( Y& ACodec ID                                 : S_HDMV/PGS# C) l* s' K4 s1 F1 Q' D3 U0 e' L
Codec ID/Info                            : Picture based subtitle format used on BDs/HD-DVDs
: q0 u7 D( c  PDuration                                 : 1 h 26 min
( Y8 y, W' ]" `. C# E5 {1 SBit rate                                 : 38.0 kb/s
7 i) t. e/ l  y5 UCount of elements                        : 1930
* ~6 W+ K3 N& z( K: }/ e6 h5 `Stream size                              : 23.6 MiB (0%)
% B5 q) k5 b0 i! c" W1 s- Q# OLanguage                                 : German& S& l" S0 F* \; U! j
Default                                  : No3 s, c% v1 k5 y1 O3 f2 ?+ ^
Forced                                   : No
: w, |1 }, D. @' ?2 P7 OOriginal source medium                   : Blu-ray! t7 i) e. V+ p% [7 ^  l

4 W: a3 J* E, VText #103 _$ z( x1 o  P
ID                                       : 14
, Z) m5 W. [2 v/ c" i9 H" m. @ID in the original source medium         : 4775 (0x12A7)1 B2 C' d- E9 m
Format                                   : PGS
. Q5 R  R" o( Q( c5 _Muxing mode                              : zlib! g8 J/ k# g! I- x- h$ Y
Codec ID                                 : S_HDMV/PGS. I! X9 W/ `, Y( v* ]
Codec ID/Info                            : Picture based subtitle format used on BDs/HD-DVDs
! S7 {  F* h. Z/ E- d; HDuration                                 : 1 h 26 min( g+ G" _+ f* H. L' w3 g
Bit rate                                 : 36.0 kb/s  {& Q6 H3 w5 p5 ?
Count of elements                        : 1934
. L1 k2 y; A+ `3 o! }& x$ ^+ ZStream size                              : 22.3 MiB (0%)1 G0 z/ B, _0 Q7 ^/ \
Language                                 : Italian! L7 `! q  A9 _2 @" V: \
Default                                  : No
( m% ~2 }; B. t7 H& zForced                                   : No
0 P( K1 m  d( O6 p0 [% t5 MOriginal source medium                   : Blu-ray
, ]/ ~7 s) n3 F2 j4 Z- w" ~/ L4 N4 U) P# b6 f
Text #11
9 J7 J! S3 i: R+ M4 lID                                       : 15! c) r; l$ q( w
ID in the original source medium         : 4776 (0x12A8)
, v( H, z/ u7 C+ r% F7 U8 fFormat                                   : PGS
4 T: a( Z! @2 a" j" kMuxing mode                              : zlib
7 Q2 Q9 X* O) E. m6 k: f4 @2 MCodec ID                                 : S_HDMV/PGS
1 g% `6 R% h% A. ~Codec ID/Info                            : Picture based subtitle format used on BDs/HD-DVDs1 E8 C& W0 k) H2 F1 D$ L+ C! \
Duration                                 : 1 h 27 min6 V2 m; N5 Z1 F! y+ e: d
Bit rate                                 : 30.0 kb/s8 m* s3 G4 C/ B7 D" G- v
Count of elements                        : 2016
6 |+ B3 _7 W, p% }' b  rStream size                              : 18.7 MiB (0%)
* c+ o$ H, G4 [/ RLanguage                                 : Chinese& H5 h9 y  P- P" ^! {7 Z
Default                                  : No
5 s6 i) H2 ~! wForced                                   : No! e! H: T' l; S
Original source medium                   : Blu-ray
9 ?, o0 J. I; q: k: @" J% W( e: G) N$ `% `4 l
Text #12; |6 q7 r/ F# ~' ?# Z# e+ p
ID                                       : 162 c, x5 E) n" G* J- t3 @, c
ID in the original source medium         : 4777 (0x12A9)
7 o1 u% z+ S6 \$ @7 P! K% y, xFormat                                   : PGS
# {" P- }' p% ]# \) s3 M' PMuxing mode                              : zlib' `& P9 @* V9 |8 S
Codec ID                                 : S_HDMV/PGS4 }0 ~7 b6 k, J6 a5 o1 z+ K: ?( d
Codec ID/Info                            : Picture based subtitle format used on BDs/HD-DVDs& C' v6 }1 I: k2 @) c
Duration                                 : 1 h 27 min1 v- E% _  W* w* S5 Y, Y+ E# c
Bit rate                                 : 29.3 kb/s3 C! e! E/ a+ Z  K: Y
Count of elements                        : 2016) a! Q% b4 x9 b: l; q7 X% S! l* W
Stream size                              : 18.2 MiB (0%)# X- j, t+ p* Z4 S4 b
Language                                 : Chinese
' n" k6 e2 ]) G9 ?% {6 fDefault                                  : No- v% A' Z& {) _! V
Forced                                   : No
/ [) ?  D4 Z6 P+ ~" ~: L$ POriginal source medium                   : Blu-ray
$ |6 }, a) z. d9 J/ ~* Y# U; P( c- [. ^% y: Z7 y
Text #13
1 e1 T& R9 Q0 Y$ v1 gID                                       : 176 e$ ^! k+ v# H1 s8 k
ID in the original source medium         : 4778 (0x12AA)
% B, y$ \) y5 e6 z* Z8 j, ]2 ~Format                                   : PGS* U2 \& v6 e0 W
Muxing mode                              : zlib$ b( Y% {% v& _4 M! K" t6 l4 n1 g; R
Codec ID                                 : S_HDMV/PGS6 c8 f& f2 D9 i$ ?3 l
Codec ID/Info                            : Picture based subtitle format used on BDs/HD-DVDs+ B, x, @/ @! U6 i8 W* o
Duration                                 : 1 h 27 min! F. y; V* G2 H1 ]6 _. y2 M
Bit rate                                 : 25.3 kb/s; [- i4 v4 G* t1 S" |) i
Count of elements                        : 2016' p' W/ ^0 W) g; I  P2 P+ V
Stream size                              : 15.7 MiB (0%)
$ X+ S$ d$ f2 \+ E4 C3 QLanguage                                 : Korean- g" u) q/ i5 n+ g. Y
Default                                  : No
) b2 _! r  u* u( K7 r! d! V; KForced                                   : No
" ?; ], C: X& T& U$ DOriginal source medium                   : Blu-ray! w! K5 @' e* @4 ^# X5 a

9 @% m0 ~( E# k$ Q3 ]2 X& SText #14  D, B% j5 |' x8 v
ID                                       : 18
$ Q+ g) x0 G8 B4 ~1 n5 ~  E& @2 @ID in the original source medium         : 4779 (0x12AB)
% k' ~0 ]2 E6 X* ?- c$ F7 Y5 kFormat                                   : PGS0 @* b& t% m" p' c. @
Muxing mode                              : zlib
/ ~: \. I$ G1 ZCodec ID                                 : S_HDMV/PGS
& E" R9 F' g- D3 y& mCodec ID/Info                            : Picture based subtitle format used on BDs/HD-DVDs' S7 ^3 b6 a# C/ J2 t" O
Duration                                 : 1 h 27 min- c, x$ S  p+ g& S6 G
Bit rate                                 : 22.9 kb/s4 Z- X5 g) q1 c! L) r6 |# e
Count of elements                        : 1855
8 J; p+ W$ U  n8 MStream size                              : 14.2 MiB (0%)
, r& k! ?' p( ]/ j. iLanguage                                 : Japanese: L5 I% I0 i6 W5 u% X
Default                                  : No/ a& O2 m! k4 j2 v( @! |4 E- e
Forced                                   : No- A- h; L& P) U( g
Original source medium                   : Blu-ray
. e% V/ @4 _6 F% r/ O3 I* W; `: e# |
& f2 a0 [: s4 S$ N/ ]! n6 tText #15" \; W  D5 x* l+ r
ID                                       : 195 a/ R. }8 v& F, d4 j
ID in the original source medium         : 4780 (0x12AC)
0 s- b5 [3 K( _% OFormat                                   : PGS; x$ s9 t; g. p! l% C+ _+ U
Muxing mode                              : zlib7 b3 T" s0 y" L
Codec ID                                 : S_HDMV/PGS# R7 e! o. V+ N
Codec ID/Info                            : Picture based subtitle format used on BDs/HD-DVDs* v% C7 |, B- h% K- c1 c- V
Duration                                 : 1 h 26 min( W1 f! z4 w9 g# |
Bit rate                                 : 37.5 kb/s' v; z$ t0 w- m; U; G
Count of elements                        : 1942
9 g# ]" L  c/ s/ ZStream size                              : 23.3 MiB (0%)! y+ V5 w  B# y+ e; {; a2 q
Language                                 : Russian- o# V  d: i: C; C3 x: M7 H5 b
Default                                  : No0 M% J1 P$ N5 q7 D3 @9 t) u& R$ X2 F
Forced                                   : No
& t* q0 F; n$ C* ]Original source medium                   : Blu-ray
, r: I: H- T6 Y& H2 o: B& ?  `
; i1 Y: \2 b1 ]% T6 zText #16
: N# B9 [3 I# R# b, [ID                                       : 20
* _% J+ L& `; A0 j& k4 i; jID in the original source medium         : 4781 (0x12AD)- o! ?+ q. m# Y" f
Format                                   : PGS
' j) R& J& {+ k( M: s% j4 X! @- JMuxing mode                              : zlib
) `* }0 W, h4 Y. H* OCodec ID                                 : S_HDMV/PGS* S" T& w3 x+ v) P. p4 t
Codec ID/Info                            : Picture based subtitle format used on BDs/HD-DVDs
! C, m$ P4 U  j, _  f" BDuration                                 : 1 h 26 min
7 ]* d- ~6 D& G6 G) `Bit rate                                 : 34.0 kb/s
7 N/ Z+ x+ O3 G5 O9 m- qCount of elements                        : 19147 |  w1 r4 }1 c& w; P
Stream size                              : 21.1 MiB (0%)# z! U, R3 m( S" q" R/ P7 b
Language                                 : Danish
) D/ N) J& B% k" RDefault                                  : No* i3 }$ W/ c: E
Forced                                   : No
* a% K- R; e- GOriginal source medium                   : Blu-ray1 |, i, i: L! ?5 n' P8 w4 q, R
4 \5 D3 ]! Q: G9 V" a
Text #17
: U/ X0 ?2 p7 ^) D- q3 `* L+ V$ cID                                       : 21* X7 v/ x! e3 _7 L& x9 X: K
ID in the original source medium         : 4782 (0x12AE)+ C/ ^# P1 v9 ~" u( v8 ^
Format                                   : PGS- K6 j3 r% @, U5 @4 |& s7 G: L
Muxing mode                              : zlib
6 x4 P  R) }  R% }' v: j1 zCodec ID                                 : S_HDMV/PGS
9 i8 P3 R' [' [Codec ID/Info                            : Picture based subtitle format used on BDs/HD-DVDs, V" {8 L$ V- \
Duration                                 : 1 h 22 min
  R1 a  k" S; [1 n) vBit rate                                 : 29.9 kb/s
8 g) B; c1 W% L2 L1 qCount of elements                        : 1736* p" Z1 ^) I& g
Stream size                              : 17.7 MiB (0%)# d5 G: |5 Y3 b1 x
Language                                 : Dutch. w- r$ }2 P' y
Default                                  : No
  l$ ?- C. {8 k. h" p9 R! TForced                                   : No& H/ y2 u: {6 W9 @# I% s6 T
Original source medium                   : Blu-ray
' O; P) A+ a. s$ e* d3 d/ j* O* ]. a8 W
Text #18, I: i; e* c! Y
ID                                       : 22
/ x  h/ U0 L* O/ OID in the original source medium         : 4783 (0x12AF)
5 c4 n2 @( x4 S/ N1 G7 UFormat                                   : PGS  q) R& m+ q+ Q6 h/ e
Muxing mode                              : zlib  |1 o$ _9 I. i; U
Codec ID                                 : S_HDMV/PGS
/ g( }, f, O. K/ X. ZCodec ID/Info                            : Picture based subtitle format used on BDs/HD-DVDs/ f& G5 m% @) K7 [/ T8 n
Duration                                 : 1 h 26 min2 Y2 i0 }$ q' u- W/ l2 O5 n& n7 v6 \
Bit rate                                 : 37.2 kb/s2 o* W6 K8 s) A1 g, d% Y# e  u
Count of elements                        : 1898
2 h8 l' i& f2 j) @! lStream size                              : 23.1 MiB (0%)
) g! \0 L9 T$ x' ILanguage                                 : Finnish
  @/ N; U+ F1 h6 QDefault                                  : No
- a6 R4 J  Y! s$ iForced                                   : No8 \% z2 f7 u4 Q; N$ d
Original source medium                   : Blu-ray1 o4 F1 q% }3 z9 l

6 `! ]  ]! I7 S2 A# D* JText #19
; Y# x5 R- E  R) v5 U, U* `ID                                       : 231 p* j) |- Q: h6 b7 s' W
ID in the original source medium         : 4784 (0x12B0)
9 L6 S6 J* f6 j& KFormat                                   : PGS
3 L" L( B, |+ e9 lMuxing mode                              : zlib% U% C0 X! ?  p1 z2 h
Codec ID                                 : S_HDMV/PGS
  Y8 ~+ K- [2 pCodec ID/Info                            : Picture based subtitle format used on BDs/HD-DVDs
! f6 P, Z1 `' [' Y7 z- f( t1 |5 lDuration                                 : 1 h 26 min6 x% I' d0 i1 B
Bit rate                                 : 35.1 kb/s
& t0 {' A+ i6 B6 W& qCount of elements                        : 1926: U) S! |+ F$ Y. A: d9 w
Stream size                              : 21.8 MiB (0%)3 z8 n- A" S3 d
Language                                 : Norwegian
9 |7 h1 A, E/ e% n0 N+ |/ SDefault                                  : No2 M, ]$ V5 r) |5 A# b- |
Forced                                   : No* g+ F! E9 ^: B
Original source medium                   : Blu-ray
# P  G3 u% x9 ?4 v  T# B8 u- E- h7 k
& U* n3 D8 Z4 q2 Y# p5 SText #20
. v" [  e' i1 ?: ZID                                       : 24
8 ~2 p) V- x/ O+ p: p$ A! U2 ^ID in the original source medium         : 4785 (0x12B1)# h% e/ G  Q/ ^4 [
Format                                   : PGS1 q( t% c* s) r% t% d
Muxing mode                              : zlib& O. {! q- q( m$ I4 ~( i0 ?
Codec ID                                 : S_HDMV/PGS( E1 c8 G1 o! c) w
Codec ID/Info                            : Picture based subtitle format used on BDs/HD-DVDs
' H7 Z3 `; |) Y( S1 b. I" _Duration                                 : 1 h 26 min
' d2 M5 \! S, x5 r$ fBit rate                                 : 32.6 kb/s
! y! d, `2 O( h% LCount of elements                        : 1908
2 E/ y! e3 \6 ~. R, s0 iStream size                              : 20.2 MiB (0%)
; c% S! @" q# q+ O& rLanguage                                 : Swedish" K* x/ D0 I) D, x+ w3 g
Default                                  : No8 C: f+ ?" n- s6 K9 w* `' n5 [
Forced                                   : No5 L1 C8 `: G3 c$ q5 s2 J: k8 A
Original source medium                   : Blu-ray
/ P% O( g, h( q( y2 O+ z  q
+ O) |, W; Z3 U, e  e2 pMenu4 v; [0 N) K- I
00:00:00.000                             : en:Chapter 00+ m. t" A2 H' t
00:00:01.001                             : en:Chapter 01, h* r- K& J  S2 T) g6 e3 h9 ]
00:05:44.093                             : en:Chapter 02& W# V& l. T# x! A1 J$ u. S, ?
00:10:53.444                             : en:Chapter 03% \3 r6 Y  J1 w. ~- y6 u/ q1 S7 S
00:17:28.589                             : en:Chapter 04
8 [/ f( y  F; j" i% s00:22:52.037                             : en:Chapter 056 l& c; A) s/ p7 `+ Z
00:28:12.399                             : en:Chapter 06
+ G. `, d7 |0 k7 c, Y00:37:31.332                             : en:Chapter 07; ]+ e2 F- ?3 X( A
00:42:22.998                             : en:Chapter 08
% W* K* Q) G- e6 m# p& h00:46:22.821                             : en:Chapter 09" x( H. N3 J# }! }2 b
00:51:01.141                             : en:Chapter 10
* W% M+ L1 ~, d" b8 D/ O1 D) Q6 H* g7 k00:56:43.441                             : en:Chapter 11
; N7 n, Y4 q  Z: ^/ {01:03:05.782                             : en:Chapter 12+ N+ G  s8 }! E/ P" {
01:07:35.968                             : en:Chapter 13
) _3 P" S* g; \: _" C8 r01:12:51.325                             : en:Chapter 14" [1 ]; t5 q$ }: @
01:17:01.533                             : en:Chapter 15! Y% B" V+ h2 y4 l$ }! ^
01:19:41.443                             : en:Chapter 165 f' S: L6 @( F) q
01:23:22.038                             : en:Chapter 17
. P8 U* q2 Y( h! d2 \
游客,查看本帖隐藏内容请回复 | 加入VIP贵宾可免积分免回复 了解详情 | 还不是会员:点击获取邀请码 Invitation Code

本版积分规则

小黑屋|Archiver|蓝光电影资源网

GMT+8, 2021-12-3 00:28

Copyright © 2001-2022, Tencent Cloud.

快速回复 返回顶部 返回列表