BluRayCD Forum

 找回密码
 立即注册【分享大片】
查看: 4|回复: 0
收起左侧

[2160P极清] 谁陷害了兔子罗杰 [4K高清版] Who Framed Roger Rabbit 1988 2160p DSNP WEBRip x265 10bit HDR DTS-HD MA 5.1-TrollUHD 14.91GB

[复制链接]

7635

主题

8014

帖子

8万

积分

Post Share

金币
18254 枚
体力
15184 点

卓越贡献勋章

mvods 发表于 7 天前 | 显示全部楼层 |阅读模式

  O4 L9 ^& n4 D1 E# O  F% h
6 F# O6 e1 z5 q) i, {◎译  名 谁陷害了兔子罗杰/梦城兔福星/威探闯通关& D1 d9 P6 C+ }- E  r1 ?( [/ C* i: a; e
◎片  名 Who Framed Roger Rabbit / Who Framed Roger Rabbit 3D
! V. D& o* V3 h& \◎年  代 1988; Z  O7 c) S( _0 Z$ K
◎产  地 美国6 N: }6 D" ~# X
◎类  别 喜剧/动画/冒险) f9 G3 r* K- W" h
◎语  言 英语& V1 [) i. P1 u" Y/ |
◎上映日期 1988-06-22(美国)
1 u2 \- v& c2 Q- k2 e$ a◎IMDb评分  7.7/10 from 192,287 users) o# T; _, ?4 @
◎IMDb链接  https://www.imdb.com/title/tt0096438/: W/ N$ @0 B8 Z- e# F/ {: \+ Y
◎豆瓣评分 7.8/10 from 20,683 users
; ?' t+ t- V7 u( \◎豆瓣链接 https://movie.douban.com/subject/1297317/
& _& M3 u1 B3 d◎片  长 1 h 43 min
' R+ z3 V2 [) W' b+ H◎导  演 罗伯特·泽米吉斯 Robert Zemeckis
0 V7 e; `6 z9 O1 }◎编  剧 杰弗里·普赖斯 Jeffrey Price  J% t1 A* H3 B7 p9 h
       彼得·S·西曼 Peter S. Seaman
) y; F7 C8 }" a4 x1 J       Gary K. Wolf
' S; A/ M' k% _7 H5 ~: ^◎主  演 鲍勃·霍斯金斯 Bob Hoskins8 E2 s9 e# A6 ]# R$ ?5 _; K
       克里斯托弗·洛伊德 Christopher Lloyd: J' l- t& ^& G, ?
       乔安娜·卡西迪 Joanna Cassidy
1 [* k) O) ~* Z. H4 e7 ?       查尔斯·弗莱舍 Charles Fleischer- P! p5 N$ e8 c# }7 P( b# @5 d
       斯塔比·凯耶 Stubby Kaye
8 M+ M, d) A3 {' j       阿兰·提尔文 Alan Tilvern
  _3 R+ Y; \/ V0 s' ~       里夏尔·勒帕芒捷 Richard LeParmentier
, Q. j+ |9 l* y8 N: b* o6 z       贝齐·布兰特利 Betsy Brantley5 @9 x8 d( m& W( d0 O
       乔·西尔沃 Joel Silver4 c& [$ i4 Y' y" q# C4 _) t
       理查德·赖丁斯 Richard Ridings
& c- B$ Q1 c9 {6 M6 D       乔尔·库特拉拉 Joel Cutrara% [$ \8 F) o0 Y, Z, M
       艾德·赫利希 Ed Herlihy
5 [  G- @5 Q$ A5 X! d9 e9 @- h       艾普尔·温切尔 April Winchell
4 O7 m. i- {+ |2 ?4 Q) ^       梅·奎斯特尔 Mae Questel
; _: L1 c, W7 {1 q1 J' q       梅尔·布兰科 Mel Blanc
  C# \/ Q' X& I       托尼·安塞尔莫 Tony Anselmo
6 t6 X) h) t4 o1 ^! X       乔·阿拉斯奇 Joe Alaskey
* a% a3 W5 j, h: ]$ Y1 r) }       大卫·L·兰德尔 David L. Lander/ F  d* l& E  h2 x
       琼·弗雷 June Foray/ l; q* N9 F. _3 x3 c) P6 `
       露西·泰勒 Russi Taylor
/ |9 `+ C! E$ ]( Y9 d       理查德·威廉姆斯 Richard Williams
7 q8 A3 o9 R' V) z; u5 U! N       韦恩·艾尔温 Wayne Allwine: D2 z" |& G6 E. W' N$ Y
       吉姆·卡明斯 Jim Cummings
- ]4 |4 s' P. ^, K% t' _$ E       弗兰克·辛纳特拉 Frank Sinatra
0 C( h  A1 G8 `" L1 }* |       杰克·安杰尔 Jack Angel
! x7 S8 c; _8 e. t, z" t; `       科里·伯顿 Corey Burton
! v, M2 y4 I$ N* G       南茜·卡特莱特 Nancy Cartwright8 E3 n9 T- C1 R; Z. ?5 K
       萨迪·科尔 Sadie Corre
. \0 g, [0 @2 b  R+ u6 ?2 ^       比尔·法玛尔 Bill Farmer
! P: H% L6 S$ T) P" u! o8 X0 m5 j       德里克·莱昂斯 Derek Lyons
  ?: ~8 L8 `# @8 c       米凯·麦高万 Mickie McGowan
1 K% b7 d" U6 k' s5 M+ w: C       克拉伦斯·纳什 Clarence Nash8 u2 x- ]; I. M; W# \8 U
       菲利普·奥布莱恩 Philip O'Brien
3 ^) B5 O  N" a       凯瑟琳·特纳 Kathleen Turner
. z- J4 i3 k1 q( n  X       弗兰克·维尔克 Frank Welker4 E" U) j0 K: V  q/ N
       James O'Connell
5 Y8 a2 J: z& E       Pat Buttram$ _" M4 u; l" D5 w2 K5 p
       Tony Pope# g# f+ |3 v  ^9 P
       Christine Hewett
" M2 d$ p+ P8 t% `' i       艾米·欧文 Amy Irving# C3 D+ j7 x4 R+ ?% g
       肯·拉斯顿 Ken Ralston: O0 W/ ]) P4 X9 b* `2 q
  h% l, v% y8 y2 G8 h+ J. T
◎标  签 动画 | 美国 | 喜剧 | 1988 | 美国电影 | 卡通 | 动画片 | 美国动画
. ]; I# x- P; |4 ~2 _7 q0 E' n7 T0 S! h3 P  q- ]* N
◎简  介   
/ W7 e" W6 X+ f, f, D+ c7 [2 G2 ]8 t! M/ \+ W9 O
  在美国洛杉矶有一个专供卡通人物居住的“图恩城”,卡通明星兔子罗杰(Charles Fleischer 配音)怀疑妻子杰西卡(凯瑟琳·特纳 Kathleen Turner 配音)有外遇,拍戏时常常走神,遭到他的搭档娃娃哈曼的奚落。卡通电影公司老板马隆便雇佣私人侦探埃迪(鲍勃·霍斯金斯 Bob Hoskins 配音)去查明情况,并拍下杰西卡偷情的照片,好让罗杰下定决心,斩断情缘,专心投入卡通系列片的拍摄。埃迪因自己的弟弟特迪不久前被“图恩城”的卡通角色暗害,也急于早日追出凶手,便慨然将此事承诺下来。而随着调查的深入,事情并不像埃迪想的那么简单,其中还另有奸情,慨然将此事承诺下来,就不能轻易放弃,埃迪能否找到案件背后的真相呢……
) O, f% U4 l. g; e+ A' H) v  o
, u/ p  }% M$ G8 e" _: n7 x9 C" g  本片根据加里·沃尔夫的同名畅销小说改编,同时是一部真人和动画相结合的影片。) Q7 J2 n8 r4 L2 ^" I5 Z7 ~

$ n1 A+ \2 ^1 E5 w  A toon-hating detective is a cartoon rabbit's only hope to prove his innocence when he is accused of murder.; I1 [3 z& k. O, M" P" u" j

' Z. T4 T: |4 r2 v9 y' C" T/ g- s  m◎获奖情况   ) m8 H+ A7 l6 w% k( g/ c( E# W
) W( z- A  D1 g: D0 u' m
  第61届奥斯卡金像奖 (1989)
2 W; ?& N3 A" N& q- K  最佳摄影(提名) 迪恩·康迪
; I9 o3 d' p' `% p: B/ F/ ?) @& a8 F  最佳剪辑 阿瑟·施密特' B6 z3 K; U8 S, o; ]
  最佳视觉效果 理查德·威廉姆斯/肯·拉斯顿/埃德·琼斯/乔治·吉布斯
- w/ T4 a! o8 y, Q6 E8 `$ K  最佳音效剪辑 查尔斯·L·坎贝尔/路易斯·L·埃德曼恩
7 N$ o5 T) ~2 x- N  最佳音响(提名) 约翰·博伊德/罗伯特·努德森/托尼·道/唐·迪吉罗拉莫
  ~/ d* |1 C- p2 P) W, ?* V4 g  最佳艺术指导(提名) 艾略特·斯科特/彼得·霍威特
, p- P: S1 H1 Q3 N* c  特别成就奖 理查德·威廉姆斯
1 [, J1 l# S2 E! N0 ?9 f! K' k, l
Who.Framed.Roger.Rabbit.1988.2160p.DSNP.WEBRip.x265.10bit.HDR.DTS-HD.MA.5.1-TrollUHD 14.91 GB
, ]0 d' u: h( i3 e
) c, e, G3 I' e; EVideo% A/ K. h6 m" H0 j! W2 o3 o% b5 U0 O
ID                                       : 1
  k) q/ ~; B' C, ?0 j; B" ZFormat                                   : HEVC
# d& {( V/ s( A) E! lFormat/Info                              : High Efficiency Video Coding
1 W  |6 ?/ a* t7 l! ?Format profile                           : Main High@L4@Main# P" M& B/ h, N  T- V5 J
Codec ID                                 : V_MPEGH/ISO/HEVC% z4 |8 H* Y, k. ?$ ^5 I! O
Duration                                 : 1 h 43 min
. o* n3 W; @# vBit rate                                 : 16.1 Mb/s7 p+ ?4 L: d. H# ]5 Y- d$ ]0 n
Width                                    : 3 840 pixels: Z4 N, [5 P+ r$ i9 ?
Height                                   : 2 076 pixels
' r; `6 f+ j  G' C1 xDisplay aspect ratio                     : 1.85:1
' c0 ?  Y$ T; d& gFrame rate mode                          : Constant
2 u  G2 {  M8 t( D: Y  _Frame rate                               : 23.976 (24000/1001) FPS; o/ r0 `+ }6 x0 B/ B
Color space                              : YUV3 x7 {) W7 {) N8 `! c
Chroma subsampling                       : 4:2:0
0 ?% S* q6 I, K# O2 C% yBit depth                                : 10 bits
7 q. l7 {% y7 {* L6 G3 f8 x# ]8 J3 g: x3 qBits/(Pixel*Frame)                       : 0.084
! @# y/ a' ?7 {1 jStream size                              : 11.7 GiB (78%)
; H- v. s( p; P8 b- p; A# X6 aWriting library                          : x265 3.2971180b100f8:[Windows][MSVC 1923][64 bit] 10bit+ z0 ^+ I4 j. f; X/ o
Encoding settings                        : cpuid=1111039 / frame-threads=4 / numa-pools=28,0 / wpp / no-pmode / no-pme / no-psnr / no-ssim / log-level=2 / input-csp=1 / input-res=3840x2076 / interlace=0 / total-frames=0 / level-idc=0 / high-tier=1 / uhd-bd=0 / ref=5 / no-allow-non-conformance / repeat-headers / annexb / no-aud / no-hrd / info / hash=0 / no-temporal-layers / open-gop / min-keyint=23 / keyint=250 / gop-lookahead=0 / bframes=8 / b-adapt=2 / b-pyramid / bframe-bias=0 / rc-lookahead=40 / lookahead-slices=0 / scenecut=40 / radl=0 / no-splice / no-intra-refresh / ctu=64 / min-cu-size=8 / no-rect / no-amp / max-tu-size=32 / tu-inter-depth=3 / tu-intra-depth=3 / limit-tu=0 / rdoq-level=1 / dynamic-rd=0.00 / no-ssim-rd / signhide / no-tskip / nr-intra=0 / nr-inter=0 / no-constrained-intra / strong-intra-smoothing / max-merge=5 / limit-refs=0 / no-limit-modes / me=3 / subme=4 / merange=57 / temporal-mvp / no-frame-dup / no-hme / weightp / weightb / no-analyze-src-pics / deblock=0:0 / no-sao / no-sao-non-deblock / rd=6 / selective-sao=0 / no-early-skip / rskip / no-fast-intra / no-tskip-fast / no-cu-lossless / b-intra / no-splitrd-skip / rdpenalty=0 / psy-rd=4.00 / psy-rdoq=8.00 / no-rd-refine / no-lossless / cbqpoffs=0 / crqpoffs=0 / rc=crf / crf=18.0 / qcomp=0.60 / qpstep=4 / stats-write=0 / stats-read=0 / ipratio=1.40 / pbratio=1.30 / aq-mode=2 / aq-strength=1.00 / cutree / zone-count=0 / no-strict-cbr / qg-size=32 / no-rc-grain / qpmax=69 / qpmin=0 / no-const-vbv / sar=0 / overscan=0 / videoformat=5 / range=0 / colorprim=9 / transfer=16 / colormatrix=9 / chromaloc=0 / display-window=0 / cll=0,0 / min-luma=0 / max-luma=1023 / log2-max-poc-lsb=8 / vui-timing-info / vui-hrd-info / slices=1 / no-opt-qp-pps / no-opt-ref-list-length-pps / no-multi-pass-opt-rps / scenecut-bias=0.05 / no-opt-cu-delta-qp / no-aq-motion / hdr / hdr-opt / no-dhdr10-opt / no-idr-recovery-sei / analysis-reuse-level=5 / scale-factor=0 / refine-intra=0 / refine-inter=0 / refine-mv=1 / refine-ctu-distortion=0 / no-limit-sao / ctu-info=0 / no-lowpass-dct / refine-analysis-type=0 / copy-pic=1 / max-ausize-factor=1.0 / no-dynamic-refine / no-single-sei / no-hevc-aq / no-svt / no-field / qp-adaptation-range=1.00
; j6 u, ?) K5 h3 ~# [' E& T8 PDefault                                  : Yes+ _+ Y( U0 N% A2 D, w
Forced                                   : No. {! n- B/ r/ n: y# v6 g
Color range                              : Limited3 H6 Y) }& O* O0 N3 b
Color primaries                          : BT.2020
' S' G! a# k' q# `3 I4 {) ZTransfer characteristics                 : PQ
- S  @3 o' s: |. ?6 k; _1 `Matrix coefficients                      : BT.2020 non-constant
) W8 U2 |/ L2 g7 r- r9 x/ c
+ y2 l6 W8 w$ s% cAudio #1( O( \% }( C5 ]1 f+ U/ v
ID                                       : 2
8 [$ C: s7 Q+ g6 `Format                                   : DTS XLL
. X# A9 Q. Q  |& XFormat/Info                              : Digital Theater Systems
8 o* [7 `/ C% M; |1 X- d! bCommercial name                          : DTS-HD Master Audio
' n: x( o# k- uCodec ID                                 : A_DTS
8 p7 h4 U0 j9 Z, HDuration                                 : 1 h 43 min
; F3 }% u* n0 g' p' `& FBit rate mode                            : Variable
% H( I6 _& |" B* }- j5 OBit rate                                 : 4 004 kb/s2 C  p! C3 x9 s% l9 |% I4 N: c
Channel(s)                               : 6 channels
7 A* C8 I& v9 X; uChannel layout                           : C L R Ls Rs LFE
# ]2 D. y" L- G% uSampling rate                            : 48.0 kHz
! F: L6 j" Z0 G! o) b' CFrame rate                               : 93.750 FPS (512 SPF)
. X( _& m9 p2 ?Bit depth                                : 24 bits
" t5 u) N, b6 E" l8 w  jCompression mode                         : Lossless$ a6 V8 }$ N$ H; `
Stream size                              : 2.90 GiB (19%)6 [  w3 }) h) M! w/ I  T7 J  [
Language                                 : English
6 B: m: X8 E4 J3 mDefault                                  : Yes
2 R! I% ^% V0 BForced                                   : No
! ^, e4 C1 Q6 a! ^, Z; A! ]# k$ a9 X; ?: J% j3 t  Z* {' V
Audio #2
) L5 H% j7 f5 y. u/ S# t% c/ xID                                       : 3. Y, y! T/ L& ~6 n2 o3 s; c+ h
Format                                   : AC-3* ^4 ]3 n4 B) t" b4 U1 E: w
Format/Info                              : Audio Coding 3! {! |( c6 Q+ U* l
Commercial name                          : Dolby Digital
( [" U4 l- G7 t; M  i2 tCodec ID                                 : A_AC3
4 A  S/ X$ G7 e5 JDuration                                 : 1 h 43 min
- J2 M# Y# L2 K+ o# X' K4 vBit rate mode                            : Constant
$ ~  Y& ?7 C" ]4 s/ `4 RBit rate                                 : 192 kb/s, b' s/ w/ C3 K/ ^: W! Z
Channel(s)                               : 2 channels* S' ?6 a2 K4 \! B, H
Channel layout                           : L R
2 u+ T1 A; E2 ?( i% W- ~Sampling rate                            : 48.0 kHz
" u/ ]8 _# `* g9 [Frame rate                               : 31.250 FPS (1536 SPF)& B: [- x: W2 `9 N0 ]6 j4 n
Bit depth                                : 16 bits1 w2 k) i1 B5 w. z8 K1 l
Compression mode                         : Lossy
0 ~2 s- c# M/ q3 @9 }2 o1 E1 @Stream size                              : 142 MiB (1%)
/ s0 v2 q9 ]- @$ b0 {6 KTitle                                    : Commentary with Director Robert Zemeckis, Producer Frank Marshall and other crew. M# d7 w  Y( m7 T1 ~" K( S
Language                                 : English1 B# m1 |7 A7 j3 E
Service kind                             : Complete Main7 ^/ ^* z, G- V/ S3 N0 a
Default                                  : No! h2 t9 Y6 I& I6 N. m
Forced                                   : No
& C6 A+ p" [- J5 m6 y( R
  `9 N# d0 R" ^+ l# j3 m+ s2 |Text #1, U5 ~9 Z3 Q: v% b1 a
ID                                       : 4# V6 p# E: _! ~' [' b
Format                                   : PGS6 S2 \$ Z- Y) L3 l
Muxing mode                              : zlib
% V* i8 F; L7 G( bCodec ID                                 : S_HDMV/PGS0 t7 ?. W5 u" z
Codec ID/Info                            : Picture based subtitle format used on BDs/HD-DVDs, z- f. o$ e& B* t& T
Duration                                 : 1 h 41 min1 M, n! D# d9 [2 P' D
Bit rate                                 : 43.6 kb/s
$ p0 w3 `8 X9 I: \# z7 KCount of elements                        : 2970$ Q' |3 Z5 N6 x, o$ v3 u
Stream size                              : 31.6 MiB (0%)
' b- t, g  h8 S6 qLanguage                                 : English
& }+ |& I$ r" I) NDefault                                  : No
3 s, B+ {$ i# s- G$ \  |Forced                                   : No2 D0 @7 g) k4 f( m2 [
5 L) U' u0 }# z2 j7 K: M
Text #2. R% L! K$ R& z0 R6 Y( v
ID                                       : 5* S5 `. a0 D0 j# T( S
Format                                   : PGS
* u. i* p, R$ x- YMuxing mode                              : zlib6 x. b- P9 T' t& l0 E
Codec ID                                 : S_HDMV/PGS" ]0 r" Q: e9 d6 P) L
Codec ID/Info                            : Picture based subtitle format used on BDs/HD-DVDs# T4 |9 z* P5 K
Duration                                 : 1 h 36 min
6 }( M/ G/ `+ Y, Z: D  B( w; CBit rate                                 : 29.4 kb/s& X4 n4 q  }; @* S) F
Count of elements                        : 2094
( L; ?- H! g, w: W8 s3 yStream size                              : 20.3 MiB (0%)
- P$ Q5 g/ s* f' PLanguage                                 : French6 F4 ]3 n2 {$ {7 D0 q; H
Default                                  : No
& f3 X! S+ ^7 lForced                                   : No
: e8 g$ r4 q  m. @
  t* T9 c7 H' t& zText #3
6 _: G5 m$ M) I8 DID                                       : 61 n" m$ |# Z! \
Format                                   : PGS( f9 ~$ s1 m: s$ l3 K1 D, A
Muxing mode                              : zlib
9 o0 m* P5 w$ a. k3 g, ?5 ACodec ID                                 : S_HDMV/PGS
% R; y% W5 d0 g4 N. NCodec ID/Info                            : Picture based subtitle format used on BDs/HD-DVDs
6 h" [4 L+ E9 J1 S( c' @# TDuration                                 : 1 h 36 min
4 J4 t- z$ z* l9 i/ O7 H, OBit rate                                 : 34.8 kb/s8 Z+ \; o$ {9 u' }! E& R7 B$ I1 B, l! g
Count of elements                        : 22364 h0 p& T: [3 q7 D" N2 g# @
Stream size                              : 24.0 MiB (0%)
0 l7 Y5 A7 O. \+ V2 g; B. {( k" S- T% lLanguage                                 : Spanish
) w. @' x* x& H- Y8 nDefault                                  : No; v. O! V. k) L0 l2 l) g' Z
Forced                                   : No
# s$ p% x& x' v9 s% [, F- y% j9 x
Text #4* M( Q! h* _8 G; X/ F% C# d/ d' Z( p
ID                                       : 7
' Q+ L' h7 ?; N; S7 tFormat                                   : PGS" a. V* O! }& y" E9 K8 A+ ]# S
Muxing mode                              : zlib
; _8 x" d# _" @5 S5 L* F$ ECodec ID                                 : S_HDMV/PGS
) t2 u0 p7 c( @- z: P( @Codec ID/Info                            : Picture based subtitle format used on BDs/HD-DVDs
% G2 ~( ]$ ?6 nDuration                                 : 1 h 36 min! m: K2 Z5 l, y# Y
Bit rate                                 : 32.3 kb/s
- n7 |6 H' `. DCount of elements                        : 20461 j" f- G8 e6 `; j7 x
Stream size                              : 22.3 MiB (0%)
5 n- y+ i) R% pLanguage                                 : Russian: X9 N4 G8 Q8 @. y
Default                                  : No
. Y2 ?0 d6 l: LForced                                   : No3 O6 r9 L& p' l2 q& ^2 J+ K
7 R/ z2 K- c0 B" J  i  e
Text #56 a. H& K' T0 m( _5 z4 ]9 I0 ~9 [
ID                                       : 8
8 _, O/ K; a7 g" ^/ [Format                                   : PGS8 l% P& O' J. y! x
Muxing mode                              : zlib
$ E1 a  H! }% ^6 bCodec ID                                 : S_HDMV/PGS& |8 I2 _1 P) A# H4 U
Codec ID/Info                            : Picture based subtitle format used on BDs/HD-DVDs
8 E' M, A& l( }& L, ?* c; @Duration                                 : 1 h 36 min+ \7 F8 i* U, f, B6 n
Bit rate                                 : 33.0 kb/s) n& k2 G, n9 F
Count of elements                        : 22745 n) H# n3 G, g8 r: f" N9 I" H& [
Stream size                              : 22.8 MiB (0%)" y5 t& Z/ b9 |2 x5 X
Language                                 : Portuguese
' p# y0 `( d$ ^4 c) ?$ [6 W* qDefault                                  : No
7 n  R1 w# d; ]5 H  G4 {: b" LForced                                   : No
6 _2 g& A  b- z. h0 Y* Y+ }  |2 o1 O8 c3 E' @! Y; f9 q
Text #6. H' Q+ p5 S5 }9 {* z* S7 x
ID                                       : 9
% [9 z$ \& J4 eFormat                                   : PGS7 N' D- u. r' c$ f. n
Muxing mode                              : zlib- q! L) p& Y" @% {# }: I
Codec ID                                 : S_HDMV/PGS  e0 [1 Q% k- B9 a2 _
Codec ID/Info                            : Picture based subtitle format used on BDs/HD-DVDs3 L+ T. ~2 M: Q! n+ @' g
Duration                                 : 1 h 43 min  P: S7 B2 Y9 Y' V5 Q2 f
Bit rate                                 : 90.4 kb/s1 g. l3 v: V/ w$ E: B: m
Count of elements                        : 4568  _( R% z5 D; ?  I% ^  Z
Stream size                              : 67.0 MiB (0%)
1 {( v  J; n4 C  P0 N5 E! W9 R- i, KLanguage                                 : English7 x/ t! i$ S+ O
Default                                  : No, S' n" Q# e, y1 Y$ O6 O( f
Forced                                   : No% X1 J4 m- R; c9 a% E

* D; M9 g# F0 r1 Y0 K8 TText #7! [! a% N5 f- G8 i- t- B5 [: M, r
ID                                       : 10
+ x3 z7 q0 Q0 p: Y" r; sFormat                                   : PGS% ^  b1 r, h2 E* m* H7 B% N( n1 y
Muxing mode                              : zlib9 F7 R8 W6 X2 C/ u
Codec ID                                 : S_HDMV/PGS
7 @6 u; b4 U& f7 `; uCodec ID/Info                            : Picture based subtitle format used on BDs/HD-DVDs& C/ t' I$ X2 g
Duration                                 : 1 h 43 min7 |# M1 T! O! x, J- m. d
Bit rate                                 : 65.2 kb/s% p1 }9 _7 x! T; P' I" Q; F
Count of elements                        : 41743 H! _' z  p( {. ~1 Q
Stream size                              : 48.3 MiB (0%)8 |$ G1 y) w  h- w7 |! K5 z1 F
Language                                 : French5 Z/ N) P8 K' _0 k' k; |/ C: [" x+ C
Default                                  : No* r/ B- v% b( [6 @$ p% R' n
Forced                                   : No' a# ~6 R7 k3 a. D" N5 h2 J6 T

' V0 E+ \. \. L0 t' l' Q7 CText #8* q9 \/ z' g. J0 L) w+ s) i; m
ID                                       : 11
5 E7 @5 s2 _! o2 Q5 p. [3 F( UFormat                                   : PGS
; h9 t+ D' l/ ?, ?  vMuxing mode                              : zlib  l, L6 \( }2 i. Z7 i( {8 E
Codec ID                                 : S_HDMV/PGS
$ J7 F# |' z- N7 j4 @Codec ID/Info                            : Picture based subtitle format used on BDs/HD-DVDs
( T6 `" W; ?7 r6 oDuration                                 : 1 h 43 min$ ~; _5 R0 ~, n$ S% U, l9 i. G
Bit rate                                 : 68.0 kb/s
& t; u4 p1 f! Y6 ^: K( rCount of elements                        : 41744 ~! l( \+ Y  J3 s) |
Stream size                              : 50.4 MiB (0%)  z; D5 s+ F5 G$ H/ l& |
Language                                 : Spanish
! \# ?" u) C1 q6 T1 XDefault                                  : No" O1 z7 P8 ?3 t# Y7 B
Forced                                   : No
9 x' w; f) {  |$ I3 {& x) b; E1 v9 p  [+ H, Q( Q+ W& |
Text #97 }7 j, j4 N- ~+ Y$ N
ID                                       : 12
/ L% ]1 l9 x3 s1 o" s  YFormat                                   : PGS
8 a  `8 W( |) i6 r8 i& j( ~Muxing mode                              : zlib7 `2 E$ w3 ]8 Z( a
Codec ID                                 : S_HDMV/PGS  C& _* ]3 k5 [0 y
Codec ID/Info                            : Picture based subtitle format used on BDs/HD-DVDs9 D; j5 j# Y3 u4 z0 t; Z' Y0 q
Duration                                 : 1 h 43 min1 ~, G3 e# @' Y  A; v1 n8 |
Bit rate                                 : 80.8 kb/s# i* c* {  x) {; r2 V" ?' b
Count of elements                        : 4176. ]* C3 Z9 }2 O/ F4 j; w
Stream size                              : 59.9 MiB (0%)
1 j% H1 b  u2 i! GLanguage                                 : Russian  J8 v- q7 t! f3 [% z% V- j
Default                                  : No7 l; }  {  C- R2 y" g
Forced                                   : No
+ x$ t( f( S. Z0 ]8 H( a. j7 b7 D( j4 x- l' x' I
Text #101 B, n: G% \) A+ }
ID                                       : 13- ]& j4 y. S) L3 H7 e% Z
Format                                   : PGS
$ I2 h. Z; z4 i# l5 s3 h- PMuxing mode                              : zlib5 z9 x$ Q7 Y: r3 I' B( ~
Codec ID                                 : S_HDMV/PGS1 Z) A7 R3 \, L! x/ r& ?* c9 s
Codec ID/Info                            : Picture based subtitle format used on BDs/HD-DVDs
# e1 @+ s+ U4 c" VDuration                                 : 1 h 43 min* y0 v0 [+ p: |3 Y' x4 r3 \
Bit rate                                 : 76.1 kb/s, ]$ E9 M' V5 y* F7 b! ^% I
Count of elements                        : 4176
8 t% z0 u2 g5 b. C8 |Stream size                              : 56.4 MiB (0%)3 a- O/ B6 h9 G* \" {7 f: w4 O
Language                                 : Portuguese7 d1 m/ c3 E. r' a6 S
Default                                  : No
9 i# p" V; z' ^5 x2 l; MForced                                   : No
3 J! M+ e) d6 y8 N% g; K( T0 d5 u, W& a( F$ H2 A! M9 p+ ~
Text #11( {7 @2 L9 K4 {9 c; ?$ ]: Y! A
ID                                       : 14
7 S0 G3 ^$ I2 |' n7 K* r$ xFormat                                   : PGS
' X# _2 o/ A9 A  V8 ]- nMuxing mode                              : zlib( C  X$ T5 B6 ^  `  E# _: _
Codec ID                                 : S_HDMV/PGS# F6 I9 k2 a6 `  k6 i
Codec ID/Info                            : Picture based subtitle format used on BDs/HD-DVDs
8 e$ H7 X" j3 O  }4 E1 a9 hDuration                                 : 1 h 32 min
; z( a+ e7 F$ G" uBit rate                                 : 734 b/s4 U4 O, @/ i1 Z0 H' Q
Count of elements                        : 46% \) l  u( @& D; B, Y
Stream size                              : 498 KiB (0%), o; P3 J3 L# ^
Language                                 : French' s8 l8 c/ z3 V( y  J! M& b$ Y
Default                                  : No
6 K6 p; r( _. GForced                                   : No
9 B* ~! {7 G  h8 x
. h  L8 d* |' x- t7 ~/ TText #12
) \  p: c/ @1 \  \; U; fID                                       : 151 ]1 T4 h" o8 D3 @! O
Format                                   : PGS
) i- @- I$ A) |" f6 B; ]& WMuxing mode                              : zlib& G; O* e" @2 K& l% D* ~" m: }
Codec ID                                 : S_HDMV/PGS
1 u  }1 s. f/ T2 Z/ zCodec ID/Info                            : Picture based subtitle format used on BDs/HD-DVDs
6 V  V( ^) Z$ M  v# h+ k2 Y3 _4 UDuration                                 : 1 h 31 min5 |) v* R" Z/ O' b! R4 R- F) A- F+ s
Bit rate                                 : 372 b/s
% C& k4 D  y. u( J, Y. KCount of elements                        : 369 o: W( j  A; \; Z. t8 _" h% X( X* {
Stream size                              : 250 KiB (0%)# z1 l1 i, k4 H4 I' k1 L4 R
Language                                 : Russian# _- L# N( W5 z3 F/ k
Default                                  : No
4 Y+ y% E. {6 @# O" G3 r5 y0 LForced                                   : No! m( ]' F1 n! A  q4 e1 z
6 {6 H9 L; _" z9 Z- N
Text #13* C6 [- g  O4 Z! ]6 J2 O( x; ^
ID                                       : 161 _. X: h3 h1 e+ Q3 J$ z
Format                                   : PGS
9 o+ ^& N' q4 |* I; w! HMuxing mode                              : zlib# J# X1 i" ~) M
Codec ID                                 : S_HDMV/PGS, P/ a0 K" s9 D1 g6 `# s+ W9 Q
Codec ID/Info                            : Picture based subtitle format used on BDs/HD-DVDs
7 E& v, ]9 z! ?; X, I2 h" s5 vDuration                                 : 1 h 43 min' p3 _( L4 h1 z* F: `$ \2 V, \
Bit rate                                 : 91.1 kb/s
% H/ G) J4 \* }% i  J) LCount of elements                        : 782+ t. f: _2 @: F( X
Stream size                              : 67.3 MiB (0%)
+ l' _/ z  x' }4 W& p) }Language                                 : English/ ^8 y/ i/ r: j: \8 N
Default                                  : No
- x, L, g$ W% Z/ V- Q, rForced                                   : No
. ^1 l: }4 |2 [% `, y) b) `6 p: _) Z) A" s) b9 c
Text #14
' q# {+ B# S) r* v3 TID                                       : 17
+ ~1 L/ J/ Q. p- Z; G5 Y+ n- iFormat                                   : PGS% g6 p# g  Y9 N
Muxing mode                              : zlib; u5 }2 C- }! _# z
Codec ID                                 : S_HDMV/PGS) A# I- N; ^+ O7 p, A! L6 t: E2 _
Codec ID/Info                            : Picture based subtitle format used on BDs/HD-DVDs
. @) |5 Q5 I8 n" f  _" R- V0 |, @Duration                                 : 1 h 43 min! K8 F& _% _0 Z, F8 j
Bit rate                                 : 40.7 kb/s
2 c1 K0 [8 @1 i! W4 U6 H* LCount of elements                        : 782
' ^  ?3 T3 e" K! f* q+ u/ O+ Z# \Stream size                              : 30.1 MiB (0%)
$ e3 C8 t6 F2 h2 ^( e" p1 dLanguage                                 : French/ v6 e+ H% W; @0 V- Z
Default                                  : No4 l; I! I6 }1 B/ W& D+ n* S3 E
Forced                                   : No
+ k* V2 d: p$ Z: K) |! x5 T8 K5 w, o( Z, x4 S+ N
Text #15% I6 g/ S! L# f- |3 n
ID                                       : 18
& q, p; n0 D9 g! \  H2 Q; D  G/ _Format                                   : PGS+ h& r' t2 r2 v: q! F6 x, {' {" L
Muxing mode                              : zlib7 S6 t! ]# a  I5 x
Codec ID                                 : S_HDMV/PGS6 `  l5 t9 y- l
Codec ID/Info                            : Picture based subtitle format used on BDs/HD-DVDs
* [$ _1 X/ W1 ]' K9 ^* q" R) tDuration                                 : 1 h 43 min
% P7 i5 M$ z# V+ zBit rate                                 : 41.6 kb/s
! K" Y/ K1 [/ s! T2 B, X0 @- CCount of elements                        : 782( }; m# D5 Z+ W* L
Stream size                              : 30.8 MiB (0%)
' K+ l  E8 |/ l2 a9 C) ULanguage                                 : Spanish  h; K1 Q& V0 G3 `$ ^1 l
Default                                  : No
  N+ F) ?+ d( t1 DForced                                   : No+ F( b% U" x: k% G

) z! V; @( T5 f& p$ l. g/ q. c8 v; u' iText #16, _% v& H% \# |$ [' l. t3 C
ID                                       : 19
& ^$ S% N9 j3 y$ f4 Y0 ~! A/ F  {Format                                   : PGS
/ i$ S" m7 J: l0 _: @9 GMuxing mode                              : zlib9 g' I9 H+ d3 Q. R/ U5 P- F
Codec ID                                 : S_HDMV/PGS. W$ {% Y6 @3 O+ @
Codec ID/Info                            : Picture based subtitle format used on BDs/HD-DVDs. C" ?  l( p; Q$ W! c8 W
Duration                                 : 1 h 43 min( T( \3 ?( z1 c  _- I# x' P
Bit rate                                 : 40.3 kb/s
) Z5 U8 [& E& F2 R6 @1 B+ C1 rCount of elements                        : 782% ?7 B/ W& P; p8 r  t4 \: V- y5 h
Stream size                              : 29.8 MiB (0%)
& z' {+ m- x6 ZLanguage                                 : Russian
% j! E6 a" s; z+ oDefault                                  : No  H0 [0 q8 ~, V" z: N  i
Forced                                   : No* A+ h$ Q$ V% Y+ w, Z8 d
: a# ~: L- Y1 b( F, h8 o/ W
Text #17
8 \) ]9 d) ^& k! N+ L4 ]. a& @, nID                                       : 20
; a% I4 Y- E+ v. ~+ ~Format                                   : PGS# N9 b* b& Z6 j4 q! K
Muxing mode                              : zlib& U  v, ]! ~- z
Codec ID                                 : S_HDMV/PGS
3 K' D5 B& a  y) j3 c( E0 U4 ?; eCodec ID/Info                            : Picture based subtitle format used on BDs/HD-DVDs9 |( ^9 f5 d. r- M2 }! r5 m& f: @5 `6 ^5 H
Duration                                 : 1 h 43 min
) [1 [4 V$ W. n! `' y4 mBit rate                                 : 39.2 kb/s
# Z7 C6 A" s% y  E8 j3 MCount of elements                        : 782
) }* Y- K- l. rStream size                              : 29.0 MiB (0%)
+ j/ r3 p' W0 _8 N( X8 tLanguage                                 : Portuguese
4 c! l  b) ]- k# n4 o7 ^Default                                  : No
1 j$ {% y  {- b9 Z3 a+ NForced                                   : No
$ h/ r9 I, J5 l! Z" V5 `
! p/ i; Y7 j2 h" ^$ q1 J; cMenu
( f( I8 y3 U: E4 {+ y% G7 k00:00:00.000                             : en:Chapter 01
; K* c( H- m( @1 ?. s1 Z  q6 B# _3 D  ?00:05:33.458                             : en:Chapter 029 q5 M! e  O' |# Z/ S9 M8 a. _
00:09:44.625                             : en:Chapter 03
9 {# u- _3 w5 G2 s/ P; S00:14:06.136                             : en:Chapter 04) h2 n- A+ r: C% w( B
00:20:40.614                             : en:Chapter 05+ T" J7 H: r4 x! o. M
00:28:53.022                             : en:Chapter 061 m7 \9 U: X6 G) A
00:34:07.128                             : en:Chapter 07
$ D& n3 k- ?! n; I00:41:12.094                             : en:Chapter 08
3 w  ^1 q5 I4 L+ }( X00:46:27.993                             : en:Chapter 09+ T8 }+ f2 P; }" J" f8 M& r
00:49:36.890                             : en:Chapter 10  m/ F1 ?/ o7 R2 P8 G: t
00:57:14.013                             : en:Chapter 112 ^) N1 y1 i, j
01:03:33.434                             : en:Chapter 12
0 i& u1 Z% o* R9 a# @+ A01:07:24.373                             : en:Chapter 13: N) t  x: \, v6 D3 m1 H0 V
01:12:08.782                             : en:Chapter 14
1 L- N6 a5 N& D7 k% g  r$ h  b01:16:45.809                             : en:Chapter 15+ l/ K- i" g1 ?6 z8 h
01:22:05.921                             : en:Chapter 16
; ]1 r% P# U. _! @" r) i; X' O8 Z9 r01:28:49.032                             : en:Chapter 17! w8 s2 \6 w7 f5 n/ [" S
01:34:23.199                             : en:Chapter 18

6 f$ d' k* H' w
游客,查看本帖隐藏内容请回复 | 加入VIP贵宾可免积分免回复 了解详情 | 还不是会员:点击获取邀请码 Invitation Code

本版积分规则

小黑屋|Archiver|蓝光电影资源网

GMT+8, 2021-12-3 00:13

Copyright © 2001-2022, Tencent Cloud.

快速回复 返回顶部 返回列表