BluRayCD Forum

 找回密码
 立即注册【分享大片】
查看: 28|回复: 2
收起左侧

[2160P极清] 人类 [4K高清版] The Humans 2021 2160p WEB-DL x265 10bit HDR & SDR DDP5.1-NOSiViD 11.15GB & 15.62GB

[复制链接]

7633

主题

8012

帖子

8万

积分

Post Share

金币
18250 枚
体力
15174 点

卓越贡献勋章

mvods 发表于 6 天前 | 显示全部楼层 |阅读模式

; I  R" v8 {( z- U. @- S( \* q  w3 j( d% s. b' Q6 Z$ r3 ?
◎译  名 人类8 V* s; L7 h# j2 ?7 i
◎片  名 The Humans( z5 t$ f  X6 p: F
◎年  代 2021
" W2 |: G+ a$ B. u2 r◎产  地 美国, G8 c' c6 t, X
◎类  别 剧情$ l. h, o* j7 Q/ |$ V  G  Q
◎语  言 英语3 x% X7 M& d; N3 l8 _1 |
◎上映日期 2021-09-12(多伦多电影节)/2021-11-24(美国)& }. _: g% g4 U
◎IMDb评分  6.0/10 from 568 users
2 I4 a+ `3 [/ O# ~  d& E◎IMDb链接  https://www.imdb.com/title/tt10023286/1 j0 [$ [3 N+ X  T0 J
◎豆瓣评分 0/10 from 0 users5 H7 y) ]) c6 r
◎豆瓣链接 https://movie.douban.com/subject/34951045/
2 s% q3 Q$ [/ F) e1 d0 j' e◎片  长 1 h 46 min: U) \6 b, _; @; \1 j3 C8 C
◎导  演 斯蒂芬·卡勒姆 Stephen Karam
" @: J6 T9 m& B, g8 x◎编  剧 斯蒂芬·卡勒姆 Stephen Karam8 o4 J' K: l% N. u9 E5 ]  O
◎主  演 比妮·费尔德斯坦 Beanie Feldstein
1 K+ c1 R" P5 A* h' D8 _3 w       史蒂文·元 Steven Yeun- ^* V% f1 e% K! f
       朱恩·斯奎布 June Squibb
. |2 b6 q# b3 I0 ?/ m       理查德·詹金斯 Richard Jenkins
, J  ]5 s4 d8 D3 v. D3 u) s       艾米·舒默 Amy Schumer+ Y# K) ~( N+ E% C( [2 S
       杰妮·霍蒂谢尔 Jayne Houdyshell
+ l; g* d  J1 [9 W( t, g2 M       Shabbir Showne- p$ |( H2 z0 u* Y/ L. \6 G
) q, L0 B( A  Y* U  s
◎标  签 美国 | A24 | 2021 | 家庭 | 剧情 | TIFF2021 | 话剧改编 | 美國8 B) L& N$ p) d6 {. ^8 E

1 M" y/ g( N% }# l/ ~1 d% o  ~◎简  介   
/ l( g( K. x8 O$ |% ^+ {! d+ o8 x
  故事背景设定在曼哈顿市中心的一个战前复式公寓里,人类遵循了布莱克一家聚集在一起庆祝感恩节的一个晚上的过程。随着夜幕降临,这座摇摇欲坠的建筑外,神秘的事物开始在夜间颠簸,家庭紧张局势达到沸点。
  m& J( I( p6 V1 N/ c8 B' D& Z$ b0 I* n* b6 ]- w+ `5 o, N
  Set inside a pre-war duplex in downtown Manhattan, The Humans follows the course of an evening in which the Blake family gathers to celebrate Thanksgiving. As darkness falls outside the crumbling building, mysterious things start to go bump in the night and family tensions reach a boiling point./ G& @6 D1 z) ^6 j7 a$ B# k% G5 `
Video
6 F+ C+ _1 k/ o3 I7 K. |' EID                                       : 1
: y6 Q; @1 [: o2 X+ BFormat                                   : HEVC* V9 i( a# j1 s7 I; T- a
Format/Info                              : High Efficiency Video Coding' N. G0 z# s$ V+ l
Format profile                           : Main [email protected]@High
* F! O7 Y; j) w6 C2 o6 }. w8 BHDR format                               : SMPTE ST 2086, HDR10 compatible* L! p$ u& T( J, m8 Y
Codec ID                                 : V_MPEGH/ISO/HEVC
2 O8 L* [7 X" q$ f5 ^Duration                                 : 1 h 46 min% ^" u2 |$ i( k8 g
Bit rate                                 : 14.3 Mb/s
; b1 w, b3 e9 ^/ \Width                                    : 3 840 pixels! s0 N: k  X  o8 ~  D, `
Height                                   : 2 160 pixels3 L& u5 Z. A  G2 @  U5 u* D
Display aspect ratio                     : 16:9
! Z! }% K# O8 x6 H3 v; ?Frame rate mode                          : Constant1 ~/ Y3 m; y  x4 E8 ~
Frame rate                               : 23.976 FPS
$ V3 W9 w/ @2 E. V$ n, zColor space                              : YUV; Y3 l# T2 x7 T) i) ^' @+ g; i8 z
Chroma subsampling                       : 4:2:0 (Type 2)$ Z9 s; }, E1 C  ^& @
Bit depth                                : 10 bits
( n# w" P' s( W5 m" {8 \% f( O0 @Bits/(Pixel*Frame)                       : 0.072- J. S+ a4 f7 Z* @
Stream size                              : 10.7 GiB (96%): G& x- N6 w; v: R
Default                                  : Yes
( Y$ s4 v1 ~7 T3 x* U+ L; f$ cForced                                   : No
6 }" U+ u: n* g7 lColor range                              : Limited
% N  s" p0 U: S6 Z9 b4 H+ hColor primaries                          : BT.20201 k. |9 i' \' ]7 f
Transfer characteristics                 : PQ
7 ^1 y3 O/ N& nMatrix coefficients                      : BT.2020 non-constant
) [# V2 ?: J# {8 `9 ^3 RMastering display color primaries        : BT.2020
9 ^8 W  `. \- d* @( RMastering display luminance              : min: 0.0050 cd/m2, max: 1000 cd/m2
) g8 d; a. [2 P# FMaximum Content Light Level              : 468 cd/m2
. g- j& b( Q) c* uMaximum Frame-Average Light Level        : 15 cd/m2% E+ [# Z0 {+ b2 Z1 j/ ^- e
% N! d- Y7 _$ F
Audio, S2 L4 M: K; }) F
ID                                       : 2- i8 W* V, M' f+ ?
Format                                   : E-AC-3
- I2 {; }1 h6 c: Y) h3 AFormat/Info                              : Enhanced AC-3
9 c0 Y" i9 L, s0 \% F# qCommercial name                          : Dolby Digital Plus# e* n8 K; \* |5 A% _
Codec ID                                 : A_EAC3
  F& @+ Y8 ~* H, |1 O# X' r9 e: D* fDuration                                 : 1 h 46 min
" F8 {, Y& t1 V9 OBit rate mode                            : Constant! k' r- c8 {* b: A8 ^8 v- G
Bit rate                                 : 640 kb/s
+ H+ C" s8 x2 g" q9 bChannel(s)                               : 6 channels
: N: }- u  H* {# dChannel layout                           : L R C LFE Ls Rs
1 a% S' s* I" w+ z  ^Sampling rate                            : 48.0 kHz; Y* Z5 K8 R7 r( u( {2 ^  I3 f
Frame rate                               : 31.250 FPS (1536 SPF)( i7 B" z; W$ V, _* p/ q* M; g! V1 N
Compression mode                         : Lossy- Z: j) R5 O5 U$ B
Stream size                              : 488 MiB (4%)
! p& N2 p2 R$ [! \5 @Language                                 : English
5 \# i4 x4 E8 U" ?; ]Service kind                             : Complete Main
  J/ D4 ^1 M( f9 nDefault                                  : Yes" d& t7 ^3 x5 X/ L6 x5 F6 [. x
Forced                                   : No
* S( ?- n0 M3 k0 t2 S9 C
  T7 B3 ~0 a% H/ CText #1' b5 Y& i% W: R) ^: b& e
ID                                       : 3! M5 h6 ~' _  q7 N
Format                                   : UTF-8* r) _: f$ w6 P: S2 \) Q4 C7 D- c
Codec ID                                 : S_TEXT/UTF84 q0 z: m& z/ Z0 F) l1 J
Codec ID/Info                            : UTF-8 Plain Text' `6 T' m4 f3 a* b9 E0 I" Y% d3 G
Duration                                 : 1 h 37 min
- w# [% z# `3 z" A" l) {5 M: fBit rate                                 : 77 b/s
! ~9 T) @. o6 j. w& aCount of elements                        : 1900
- [' `/ q8 J1 y3 N+ WStream size                              : 55.4 KiB (0%)
; T8 X/ i2 C+ N- X, t- [3 fLanguage                                 : English
' Y, `/ I+ _: Z7 d/ BDefault                                  : No7 k1 c: w. V: Z' o7 Y8 F( q
Forced                                   : No
: M! x5 K- n+ C& g7 G
+ @. }1 R9 _- B0 g; V6 V! aText #2: Q! S- u, z4 q
ID                                       : 4; ]. S5 g) |- r5 s
Format                                   : UTF-86 r3 C4 c- b! H9 g
Codec ID                                 : S_TEXT/UTF8& \( P+ w! m  D! w# I2 [: L4 t
Codec ID/Info                            : UTF-8 Plain Text
/ p3 H; w8 `+ @3 cDuration                                 : 1 h 42 min3 z' R" V8 m0 O* V1 p, n, `
Bit rate                                 : 88 b/s
$ l- P* i6 w! B" C6 Q! Z/ ]4 @" [Count of elements                        : 2100
/ o6 X& S- Y4 d; i: z, h" H: KStream size                              : 66.5 KiB (0%)# j% G$ T! v+ V- E
Title                                    : SDH% ~4 D9 ]: G1 ]. T
Language                                 : English
) T' t/ ~3 V2 e/ j% d; vDefault                                  : No2 s/ j* E7 r9 x4 t9 F) F/ e8 d
Forced                                   : No; O% c& j/ n1 G& `8 T3 L" S* h4 ]
4 F2 t; q& D; A
Menu
9 F& k% y, R: M1 R01:46:25.000                             : en:Credits
Video
" E4 _0 o2 X- t9 Y4 K$ zID                                       : 1
( {1 |$ d% S* i0 K: ^( v( {$ bFormat                                   : HEVC/ O7 u  ]) V  s+ B4 a$ P0 \& R. o9 T
Format/Info                              : High Efficiency Video Coding
& w; o0 A# e2 |5 j; P, T9 ~5 _3 B; H9 {" KFormat profile                           : Main [email protected]@High
3 ?/ Q/ V+ B7 d9 h; k0 ^Codec ID                                 : V_MPEGH/ISO/HEVC
/ _! v* }2 {  J8 W/ sDuration                                 : 1 h 46 min
# r& b! Y; s1 e) L& Z3 V8 X2 rBit rate                                 : 20.4 Mb/s
& ~; I2 l  R/ F$ X. iWidth                                    : 3 840 pixels. C, D2 ^2 k, y& C) a# j# Z
Height                                   : 2 160 pixels
# W' d" K0 t7 o. C7 F, _Display aspect ratio                     : 16:9. n$ ~9 \) Y5 I$ x+ U8 a
Frame rate mode                          : Constant
5 [% O+ B* H% P9 ^: jFrame rate                               : 23.976 FPS/ n3 K9 t4 b1 ?& O9 b* r
Color space                              : YUV+ n0 n7 E3 v, H5 y* |% U
Chroma subsampling                       : 4:2:0' {9 }: w$ [" A# ?. R
Bit depth                                : 10 bits
' e" U) \* a; m6 B9 VBits/(Pixel*Frame)                       : 0.102
$ r+ n6 R% }3 IStream size                              : 15.1 GiB (97%)" S: p: C) a( s) d* V# ^' F
Default                                  : Yes, T$ L7 t$ R2 m9 X0 D1 [
Forced                                   : No1 y0 P, Z$ \% I: e
Color range                              : Limited  Z* J) }  R: G/ k$ y6 |
Color primaries                          : BT.709
' j& S: j! ?' A5 m- Y. ~Transfer characteristics                 : BT.709
8 e: j7 [/ N# u! v1 g' XMatrix coefficients                      : BT.709" [2 P# l' L. b: q6 t4 M3 w
# S8 g6 T4 R+ U# E" Y# j. W! j- }
Audio4 ~, @* H: h! L( b- T3 V7 x. s  U0 u
ID                                       : 2; D0 `0 J( d. z9 E0 h
Format                                   : E-AC-3
4 t* ~7 [- \. |1 ?Format/Info                              : Enhanced AC-3
- b( l' R" d' y' y% CCommercial name                          : Dolby Digital Plus+ r0 {+ q) C' H9 X! p0 c; e
Codec ID                                 : A_EAC3
% w: i; J. G2 lDuration                                 : 1 h 46 min1 v' ?- m; v; @. E) }
Bit rate mode                            : Constant
6 j( F' R: y- D% cBit rate                                 : 640 kb/s
: [$ E$ }- x0 G$ y% k5 BChannel(s)                               : 6 channels
$ t* Y" Q7 ?  a: \Channel layout                           : L R C LFE Ls Rs* [, O4 d2 h% J4 [' f. E# V( `: U
Sampling rate                            : 48.0 kHz
3 I) X1 G9 q+ cFrame rate                               : 31.250 FPS (1536 SPF)
0 h6 a6 @) A: [4 Y0 e! ]Compression mode                         : Lossy. ?' j" A5 @- n2 @6 p
Stream size                              : 488 MiB (3%)
% }, e; T1 o2 G' K; ]& y/ tLanguage                                 : English
2 l$ P4 P/ X8 C- p% o9 b6 n/ ^0 AService kind                             : Complete Main1 H# |5 I& H. g  R
Default                                  : Yes
$ V2 l! n- Z* ^Forced                                   : No, |6 [/ y- S# d" g& R5 P

9 x- ^! Z8 b5 Q, G2 t* {Text #1
, P- Y4 ?2 J, V2 ?* O/ B/ gID                                       : 36 \. H. H% \. L
Format                                   : UTF-8
% N7 h2 M2 b* j* V9 ~3 ~# N4 E+ dCodec ID                                 : S_TEXT/UTF8
7 o# f5 Q2 R9 |/ b. s! BCodec ID/Info                            : UTF-8 Plain Text
0 ~# ~  ]! w4 u. A/ m- SDuration                                 : 1 h 37 min
6 M( E; ~  t' A7 {# [Bit rate                                 : 77 b/s( Y9 c" m% f, H1 n
Count of elements                        : 19003 N7 |) V3 r4 C  |( N% ^* Y; U
Stream size                              : 55.4 KiB (0%)
+ y) `" `3 K2 J# H. R# `Language                                 : English3 U- O( D& C6 \$ q  s% i" E& r
Default                                  : No
: Z% }- A. b" F2 QForced                                   : No
; B3 j% Z& j# [  b: V7 _1 a8 |4 e' x
9 |5 `4 X$ x7 {* }: z( xText #2  N6 L! Y$ Q2 k* w, o; q
ID                                       : 47 K& }% h, s& \
Format                                   : UTF-8
3 x* L( i' G4 w; `6 `3 FCodec ID                                 : S_TEXT/UTF8
. Q6 n( M9 q' M+ X, V# \8 O$ bCodec ID/Info                            : UTF-8 Plain Text' _1 L' D  t$ Q' ]$ |& K
Duration                                 : 1 h 42 min
1 d+ A( Q, P: }7 {- @( L; }; ?Bit rate                                 : 88 b/s/ G; S6 P9 r- I/ g; E% }
Count of elements                        : 2100# X  m3 T# F% W: H* V3 q( p
Stream size                              : 66.5 KiB (0%)/ w+ X" f' _! W/ }; u3 D% u
Title                                    : SDH
7 |) [0 R' G+ l: FLanguage                                 : English
; R; n* Q( V. l1 s) d' @" P5 n  n7 m, CDefault                                  : No
; N9 u+ Q4 V. N. u$ |Forced                                   : No; P- a7 {7 A7 v9 J, _
/ i' k+ r" z$ w$ i+ i5 ~0 L& R% i
Menu
7 d0 w7 u9 o! i+ w% Y9 x01:46:25.000                             : en:Credits
! B, B8 b) ]. e) \5 X% p9 x
游客,查看本帖隐藏内容请回复 | 加入VIP贵宾可免积分免回复 了解详情 | 还不是会员:点击获取邀请码 Invitation Code

0

主题

101

帖子

620

积分

Sponsor

金币
6 枚
体力
397 点
138092291 发表于 5 天前 | 显示全部楼层
谢谢楼主分享

0

主题

374

帖子

1468

积分

Sponsor

金币
58 枚
体力
655 点
sebarstean 发表于 5 天前 | 显示全部楼层
每天都来蓝光论坛看看,我爱蓝光电影。
( w9 y6 F5 ]4 Q3 A6 `0 H1 Z" WNot see, I am a novice, the inadequacies of the first Please bear with me!7 c" t+ u5 J" f! t: Y( i

本版积分规则

小黑屋|Archiver|蓝光电影资源网

GMT+8, 2021-12-2 22:52

Copyright © 2001-2022, Tencent Cloud.

快速回复 返回顶部 返回列表