BluRayCD Forum

 找回密码
 立即注册【分享大片】
查看: 3|回复: 0
收起左侧

[喜剧爱情] 出狱一团糟/监狱外更疯狂 Crazy on the Outside 2010 LIMITED 1080p BluRaycd x264 REPACK-MELiTE 7.95GB & 9.87GB

[复制链接]

8326

主题

8705

帖子

8万

积分

Post Share

金币
19129 枚
体力
16746 点

卓越贡献勋章

mvods 发表于 3 天前 | 显示全部楼层 |阅读模式
2 M& t( I8 c, P% M6 v

* _) ?$ j; V: p6 t& I1 C$ z, W) A◎译  名 出狱一团糟/监狱外更疯狂
/ y# ^) q: |* |◎片  名 Crazy on the Outside0 z+ d$ l0 v& m6 G( t$ E* A" s
◎年  代 20103 @7 l. t# J1 j5 Y- P" a: k
◎产  地 美国+ W9 ^( x& v) j, b% E
◎类  别 喜剧/家庭/犯罪/ C0 M. ~9 q9 D1 l  ~: w# i
◎语  言 英语/法语/粤语
) K& h4 z* F4 ]+ m6 x$ v" M4 E◎上映日期 2010-01-08(美国)
/ N/ b( _% {& m, j◎IMDb评分  5.5/10 from 6,028 users" \6 V; p1 R" r/ @8 e, U, i
◎IMDb链接  https://www.imdb.com/title/tt1196134/
0 u3 p; _+ g; c6 S3 q◎豆瓣评分 6.0/10 from 2,446 users2 c" U& p) E/ a2 B
◎豆瓣链接 https://movie.douban.com/subject/3072149/
1 y+ D, C3 v6 R! z9 v) w◎片  长 1 h 36 min" F6 ]0 t) d" b& @. o$ p
◎导  演 蒂姆·艾伦 Tim Allen
$ o) L: h& W: S0 a* t. E◎编  剧 Judd Pillot Judd Pillot0 i( s0 u: Z" \: A6 \- \* Q: t
◎主  演 汤米·格里茨 Tommy Gerrits1 G% M8 @5 c# U# R
       蒂姆·艾伦 Tim Allen
3 o3 m$ [2 o& R4 N       肯顿·迪蒂 Kenton Duty
+ D. |( s! H9 b3 G# @" t       Darla Delgado Darla Delgado
; ?& k5 C! [! Z- h  Q       罗伯特·贝克尔 Robert Baker& K* `& W/ A1 h; C4 _1 M' f% k
       珍妮·特里普里霍恩 Jeanne Tripplehorn% g4 D+ ~0 v4 e  O  I
       强·格瑞斯 Jon Gries0 K6 |- |3 h5 o
       丹尼尔·博克 Daniel Booko
: ]4 Y" |  t9 B/ i% B: W  V+ k       朱丽·鲍温 Julie Bowen
, l% Y" G* W0 ^9 |       凯尔希·格兰莫 Kelsey Grammer
& g9 o2 n5 W" X3 [2 D3 y8 M       雷·利奥塔 Ray Liotta
$ E5 @+ t; |$ j4 P0 a1 T       西格妮·韦弗 Sigourney Weaver
/ X6 o3 r7 L4 |- \* L4 _       凯特克拉克 Kate Clarke0 k/ q3 Q! J* u7 J" o& n- Z. D  A
       Jeff Kueppers Jeff Kueppers# T9 U) J5 t$ V2 d8 t3 D
       凯西·山德尔 Casey Sander
% B/ H( U7 t' n       J·K·西蒙斯 J.K. Simmons
/ q, X$ D" U: U; }0 k4 R& p       Karle Warren Karle Warren
% j9 _. b+ I) [  Z" t       瓦内萨·罗斯 Vanessa Ross8 f( Q& G3 F$ {: c* X4 h
6 @% M; ?: q6 l
◎标  签 喜剧 | 美国 | 美国电影 | 家庭 | 2010 | 搞笑 | 剧情 | 电影) ]0 o- l  _! T$ T: O* u1 S- o
2 }! r1 T4 g$ p7 P; H  u
◎简  介   
" Z! s; p' F5 x3 M1 Y
% x% S# H9 K# k5 N* {& Y  经过了三年的牢狱之灾,汤米(蒂姆·艾伦 Tim Allen 饰)终于重获了自由,多亏了姐姐维基(西格妮·韦弗 Sigourney Weaver 饰)的不离不弃,汤米才得以在这个冰冷而残酷的世界中找到一块可以安生的土地。可是,对于汤米的到来,姐夫杰夫(雷·利奥塔 Ray Liotta 饰)的态度并不能算得上友善,可是汤米相信,时间能够证明他的改过自新。# B, j$ }' U: V. o1 P. `" x1 ~
) |6 r+ U9 H8 {3 y
  最让汤米头疼的其实是自己的祖母,亲人们向她隐瞒了汤米入狱的事实,这让这位老太太对汤米三年的音信杳无耿耿于怀。朝思暮想的自由生活就在眼前,可汤米发现现实并没有想象的美好,在诸多的压力面前,汤米能够顺利的融入新的生活当中去吗?) H! `$ O3 B/ i
& L7 H. Q7 v/ v) K
  A recently paroled ex-con who has trouble adjusting to the wacky normalcy of life outside of prison. He has spent the last three years behind bars after getting caught committing a crime and taking the rap for his much more dangerous pal.
5 Q! V- b1 b, c" Z; V
Crazy.on.the.Outside.2010.LIMITED.1080p.BluRayCD.x264.REPACK-MELiTE 7.95 GB
Video6 |- U7 i2 b7 W6 w6 U' E
ID                                       : 1
9 j/ z) Y, E. a7 rFormat                                   : AVC1 D. k7 u" \6 U) u5 n: m
Format/Info                              : Advanced Video Codec
' C$ y1 r+ a# K: z5 b' |9 BFormat profile                           : [email protected]
; A, \0 z6 w" g$ y! AFormat settings                          : CABAC / 4 Ref Frames. J7 f' F: s, Q. V2 u) v3 a% D5 r
Format settings, CABAC                   : Yes
+ W5 z3 Z  Q9 V! P; T7 ~Format settings, Reference frames        : 4 frames
9 N3 s/ X- w; v2 |Codec ID                                 : V_MPEG4/ISO/AVC: D7 a7 w- X1 `* @5 ?! F2 F
Duration                                 : 1 h 36 min$ m, j* N3 G& `' @
Bit rate                                 : 11.1 Mb/s
1 @; u6 [/ ?* ^2 D- d# FWidth                                    : 1 920 pixels
2 v. ~  I; S: JHeight                                   : 1 036 pixels6 H; {6 n, ]; b4 s& |; l
Display aspect ratio                     : 1.85:1; F, S6 r+ U8 x1 Y
Frame rate mode                          : Constant
+ I4 J9 A. X% g1 N" R, VFrame rate                               : 23.976 (24000/1001/189150) FPS
! l7 k% F+ {  l) l' L3 o4 A& T$ kColor space                              : YUV
. P# }$ v9 L) V, _( j* Y# Z3 {) zChroma subsampling                       : 4:2:0: l: \2 V% L' V+ k/ ]6 x+ k" i
Bit depth                                : 8 bits
' w( h% a8 ]0 x/ c! lScan type                                : Progressive. T; r; i9 e7 U- G1 w% b. l! A
Bits/(Pixel*Frame)                       : 0.233* ]& K8 X- q- Y/ b6 d
Stream size                              : 7.49 GiB (76%)
4 [$ g- k. B$ u  X/ MWriting library                          : x264 core 164 r3081 19856cc
; k) F. R( m$ x- ?Encoding settings                        : cabac=1 / ref=4 / deblock=1:-3:-3 / analyse=0x3:0x133 / me=umh / subme=11 / psy=1 / psy_rd=1.02:0.00 / mixed_ref=1 / me_range=32 / chroma_me=1 / trellis=2 / 8x8dct=1 / cqm=0 / deadzone=21,11 / fast_pskip=0 / chroma_qp_offset=-2 / threads=32 / lookahead_threads=8 / sliced_threads=0 / nr=0 / decimate=0 / interlaced=0 / bluray_compat=0 / constrained_intra=0 / bframes=16 / b_pyramid=2 / b_adapt=2 / b_bias=0 / direct=3 / weightb=1 / open_gop=0 / weightp=2 / keyint=250 / keyint_min=23 / scenecut=40 / intra_refresh=0 / rc_lookahead=250 / rc=crf / mbtree=0 / crf=19.8 / qcomp=0.60 / qpmin=0 / qpmax=69 / qpstep=4 / vbv_maxrate=62500 / vbv_bufsize=78125 / crf_max=0.0 / nal_hrd=none / filler=0 / ip_ratio=1.30 / pb_ratio=1.20 / aq=3:0.80) @6 g! Z, B0 U0 ~
Default                                  : Yes
: w6 J9 n# T2 Y: p7 B* UForced                                   : No
9 ^1 t& w; ~8 r+ Z: q' tColor range                              : Limited# z4 ~0 s  I. g$ J4 t
Color primaries                          : BT.709
0 ]/ {0 S5 @5 v1 x9 S" bMatrix coefficients                      : BT.7096 U* y$ D( K  E
4 X4 P& P" K) p7 q; m4 G- s/ T
Audio$ v5 \' r2 Q- ~2 U" k8 {, u
ID                                       : 2
" E0 |  Y: y% ?" aFormat                                   : DTS XLL1 t8 e2 N2 f7 ~; U
Format/Info                              : Digital Theater Systems& x4 R, h5 n- D
Commercial name                          : DTS-HD Master Audio1 |# T# r5 C3 r. X6 o
Codec ID                                 : A_DTS" X0 e6 _9 U9 Y3 p
Duration                                 : 1 h 36 min
! E( s7 E0 v3 g  UBit rate mode                            : Variable  |6 j' f/ G/ h0 P2 z! w
Bit rate                                 : 3 494 kb/s2 h: [, q, u( Z. r1 O
Channel(s)                               : 6 channels7 A' x* H& e: _# f$ Z) |: W5 c
Channel layout                           : C L R Ls Rs LFE( v8 E% Z6 ~4 a$ _/ k
Sampling rate                            : 48.0 kHz
6 C& ~  S9 ?3 {1 k: x: hFrame rate                               : 93.750 FPS (512 SPF): W7 T. d  {8 p1 x; Y  P
Bit depth                                : 24 bits
' {( n6 W6 I- {, k2 L2 BCompression mode                         : Lossless
; q- K' {# f, L4 ~' X& m* K: {5 {Stream size                              : 2.36 GiB (24%)
/ T7 z% a  h/ G+ nLanguage                                 : English5 K; s: A" [3 T
Default                                  : Yes5 {* p; V( f# D/ P' k0 H7 W
Forced                                   : No
7 g. N* y* Q9 Y9 a
, E# T2 d: S# mText #10 Y/ X1 {% x5 ~. G5 z. K/ b( l
ID                                       : 3
: a0 ]$ z5 w5 q* l8 dFormat                                   : PGS) i' B# b* \: M* V7 Y4 g
Muxing mode                              : zlib
( h* o. j# ]1 P; p% @" Z* pCodec ID                                 : S_HDMV/PGS
( X6 Z( j0 h" M) A/ D  ]Codec ID/Info                            : Picture based subtitle format used on BDs/HD-DVDs
* S# T) W5 y+ d' S  e6 a/ |Duration                                 : 1 h 36 min: }; k! J4 \0 M1 M
Bit rate                                 : 73.2 kb/s
9 n) x* Q; x4 \6 E' G* [1 qCount of elements                        : 30168 Z$ o! [' \% v" P3 k' K
Stream size                              : 50.3 MiB (0%)/ Q+ Y' l& E- S* t0 t  d
Language                                 : English+ B6 M# K: D/ ]; \/ t
Default                                  : No
9 E5 H" }' F+ e$ Q* ?* rForced                                   : No- S" v. l$ @- b2 H

6 z0 h. D) j7 _4 V" W4 _- UText #2
0 w8 d- E2 ~6 P1 a- [& uID                                       : 4& d- ^, D6 i/ ?. l" T
Format                                   : PGS
  X4 v- h: x* m3 c9 E& IMuxing mode                              : zlib7 ~0 ?, D. N  o* Q
Codec ID                                 : S_HDMV/PGS8 ?5 c, P0 k% [5 C# t- C
Codec ID/Info                            : Picture based subtitle format used on BDs/HD-DVDs
  r. P2 n7 r% ^/ m5 J7 kDuration                                 : 1 h 35 min
. X& L  g% l! c; OBit rate                                 : 57.8 kb/s! l! Z/ X, [/ q) v- }: T& ?# _$ p
Count of elements                        : 2584
8 T" K% N# l2 v8 D& tStream size                              : 39.6 MiB (0%)
  Y: }; b; ?+ C0 i! H5 l( oLanguage                                 : Spanish3 z( Q; Y- [# m% ]8 W* `# A
Default                                  : No/ K7 r4 L; |9 x( t5 L6 V* e
Forced                                   : No7 T, h- l" e. Z
+ B6 o( l* J' q( W( }
Menu( f, d1 R+ s% h" j& l: d/ L6 g4 B
00:00:00.000                             : :Chapter 01
  L6 B) @) l! q& |! J9 z00:05:52.561                             : :Chapter 02, Z" z; Z8 Y6 ]! t; u
00:10:01.226                             : :Chapter 03
8 F; s+ W) R8 h; T00:13:45.158                             : :Chapter 04
( ~2 d& m& H/ Q( X$ k00:16:57.099                             : :Chapter 05
6 I0 Y1 s  S; s) |00:19:52.274                             : :Chapter 064 I; y; v, M/ V) m2 E* M. m2 B
00:22:39.400                             : :Chapter 07' J" e1 b! L7 \9 h( Q+ [2 m
00:27:47.624                             : :Chapter 08
. q7 B! f# x, q1 {, p00:32:12.764                             : :Chapter 09- K1 y$ _4 \$ [% o
00:36:17.509                             : :Chapter 10. Y; J1 M( R' w9 w5 r& z
00:41:13.680                             : :Chapter 11( q* x2 U2 t- h& {- i# W8 R
00:44:37.550                             : :Chapter 12
* W- F, a2 N/ D; e& }  g  R00:48:10.429                             : :Chapter 13  a* x9 j, F/ H1 }" ^% }
00:52:43.744                             : :Chapter 14% A' Q# T" A' K  _- o
00:55:55.894                             : :Chapter 15
% C# z& y( m6 I( a00:59:15.469                             : :Chapter 16- o$ [2 E$ u( g% y5 p$ A$ e
01:03:25.010                             : :Chapter 17
1 N  N7 w: C% e9 `; m% y. |01:06:07.922                             : :Chapter 18
5 @" ~3 s4 X0 |/ |/ |) O! ^% R01:08:24.600                             : :Chapter 193 V3 B' V$ N- i0 f+ b. a
01:12:15.039                             : :Chapter 202 @9 p1 B7 d' S6 R+ w  |
01:15:11.549                             : :Chapter 21
0 }+ X" Z$ C( V) p" X01:19:36.981                             : :Chapter 22) B4 V3 x/ d' G* c$ m+ ~
01:24:18.762                             : :Chapter 23
# H& ^: p7 s/ f+ H01:33:27.977                             : :Chapter 24
7 E# X- ^4 E4 q; W
, e' B& l! g/ c* j$ ^  qCrazy.on.the.Outside.2010.1080p.BluRaycd.x264-PEGASUS 9.87 GB
1 s% o) q1 V: Y3 z" t0 Q" s1 l9 H0 s3 ]+ y: o6 w- D" H- Y: i
Genre: Comedy Crime
$ \" H" y& `0 s. a9 R  I+ xRelease Date: 1.2022
6 x- \6 d  \- g( x( e% VRuntime: 96  Min) D4 v# j1 t: l
iMDB: https://www.imdb.com/title/tt1196134/
; n! |/ r  B# b% kiMDB Rating: 5.5
3 A/ [$ V, z" u5 IVideo: 1920x1036p, 11.1 Mb/s, CRF 19.8+ Q) ?9 Z4 c  I+ [: a/ E9 A
Audio: English DTS-HD MA 5.1( G) S9 i& A9 S' s7 g* c( x
Source: 23997 kbps% \6 d/ R2 M/ d0 d/ u2 j
Subtitles: English, Spanish

3 m2 Y: Z" e) M8 v" x+ D$ d
游客,查看本帖隐藏内容请回复 | 加入VIP贵宾可免积分免回复 了解详情 | 还不是会员:点击获取邀请码 Invitation Code

本版积分规则

小黑屋|Archiver|蓝光电影资源网

GMT+8, 2022-1-18 14:39

Copyright © 2001-2022, Tencent Cloud.

快速回复 返回顶部 返回列表