BluRayCD Forum

 找回密码
 立即注册【分享大片】
查看: 3|回复: 0
收起左侧

[喜剧爱情] 出狱一团糟/监狱外更疯狂 Crazy on the Outside 2010 iNTERNAL 720p BluRaycd x264-PEGASUS 4.62GB

[复制链接]

8326

主题

8705

帖子

8万

积分

Post Share

金币
19129 枚
体力
16746 点

卓越贡献勋章

mvods 发表于 3 天前 | 显示全部楼层 |阅读模式
% f9 }8 u# t# v
7 T! @7 {  o& d0 L+ q
◎译  名 出狱一团糟/监狱外更疯狂5 W, c/ C& r, g2 b/ `
◎片  名 Crazy on the Outside3 P/ d; n. `% y- J0 K! V
◎年  代 2010
) O3 @: v: T5 W7 H- J◎产  地 美国, f7 k' |1 I4 |
◎类  别 喜剧/家庭/犯罪: ]* V5 f9 C# P1 L5 v+ L0 G3 Q7 S) i
◎语  言 英语/法语/粤语
; t* i2 ^% P) h) d5 _◎上映日期 2010-01-08(美国)
( X: u  h; }, ]0 @◎IMDb评分  5.5/10 from 6,028 users* j) [( g1 \. j
◎IMDb链接  https://www.imdb.com/title/tt1196134/
4 q' ?0 b- g  [; L" L◎豆瓣评分 6.0/10 from 2,446 users6 A" k$ L6 u/ t1 L
◎豆瓣链接 https://movie.douban.com/subject/3072149/* A5 y6 m+ D6 J4 V+ Y+ j
◎片  长 1 h 36 min, n4 s, l8 u- r! Q2 r
◎导  演 蒂姆·艾伦 Tim Allen
8 n5 _( B3 P/ h, @4 m◎编  剧 Judd Pillot Judd Pillot
2 l3 W4 z* z+ n+ Q$ {3 {* P◎主  演 汤米·格里茨 Tommy Gerrits
/ Y/ ~; Y8 \. Q       蒂姆·艾伦 Tim Allen+ y5 T* o- V# H# D( h* ~
       肯顿·迪蒂 Kenton Duty, N9 W8 L! X- Z  f# t+ p( ]
       Darla Delgado Darla Delgado+ U* p1 Q* p1 v& [0 w
       罗伯特·贝克尔 Robert Baker
5 Z4 Y" p$ K' h1 ~' E       珍妮·特里普里霍恩 Jeanne Tripplehorn
" d* w  m3 c) m. c" j       强·格瑞斯 Jon Gries
, p9 }) w2 n7 _4 r; G! r       丹尼尔·博克 Daniel Booko: p5 q3 m8 ]# q$ M
       朱丽·鲍温 Julie Bowen
9 }" S' R' S4 }" |  z! w2 v       凯尔希·格兰莫 Kelsey Grammer
, l% U" Z/ T6 W/ P# o% ]5 e9 O6 }       雷·利奥塔 Ray Liotta
# U7 J6 f2 d2 {2 j( O$ @) o5 ?; z3 {1 N       西格妮·韦弗 Sigourney Weaver+ ]  t. l  r; |/ {* H1 H- L
       凯特克拉克 Kate Clarke( I/ e* {0 {, w5 _. v6 J, D# c1 r
       Jeff Kueppers Jeff Kueppers
7 l+ R& e7 ]* L  w       凯西·山德尔 Casey Sander
( t; N8 l& G5 |, _9 |       J·K·西蒙斯 J.K. Simmons
0 Z# o. p, l) I1 D       Karle Warren Karle Warren: s: t6 B+ O8 r/ G
       瓦内萨·罗斯 Vanessa Ross
# e* k# U! d4 f2 D. o# M
3 [3 k1 k& a! N% Q* f4 r◎标  签 喜剧 | 美国 | 美国电影 | 家庭 | 2010 | 搞笑 | 剧情 | 电影& d& p& f, a. W  u5 u+ Q

; @: n" v' j* c; k$ @) X. J# j$ ~6 }◎简  介   % w# m0 x/ m) [2 o

7 S* D: ^+ M# x  经过了三年的牢狱之灾,汤米(蒂姆·艾伦 Tim Allen 饰)终于重获了自由,多亏了姐姐维基(西格妮·韦弗 Sigourney Weaver 饰)的不离不弃,汤米才得以在这个冰冷而残酷的世界中找到一块可以安生的土地。可是,对于汤米的到来,姐夫杰夫(雷·利奥塔 Ray Liotta 饰)的态度并不能算得上友善,可是汤米相信,时间能够证明他的改过自新。! _( k/ ?- f' r4 g
; k+ Q1 N2 h7 ^
  最让汤米头疼的其实是自己的祖母,亲人们向她隐瞒了汤米入狱的事实,这让这位老太太对汤米三年的音信杳无耿耿于怀。朝思暮想的自由生活就在眼前,可汤米发现现实并没有想象的美好,在诸多的压力面前,汤米能够顺利的融入新的生活当中去吗?
; A- t- v4 U+ [0 c5 L0 I# T; u1 e/ B1 p6 z# P# Z' Y5 v# W; n. o
  A recently paroled ex-con who has trouble adjusting to the wacky normalcy of life outside of prison. He has spent the last three years behind bars after getting caught committing a crime and taking the rap for his much more dangerous pal.
' D' t( ?1 A, C) q* i0 P- S
Video- A7 n" o. m% q' H  i! ]
ID                                       : 1% a( [9 @4 N% M% _3 [% v1 w$ c# A
Format                                   : AVC
6 V2 O- m1 ^1 Y  W: wFormat/Info                              : Advanced Video Codec
4 B7 m2 v( r: `4 HFormat profile                           : [email protected]1 Z' N( ^+ U  r
Format settings                          : CABAC / 9 Ref Frames
, @5 Q: L+ t( x4 aFormat settings, CABAC                   : Yes
# {! d8 Y5 p- cFormat settings, Reference frames        : 9 frames
3 [0 n! I5 Y) z* P& R6 {3 T& UCodec ID                                 : V_MPEG4/ISO/AVC4 A5 c: q, @5 n8 ?) f0 }) H# E% Z
Duration                                 : 1 h 36 min
2 y* Y) f8 K4 U: R* tBit rate                                 : 6 184 kb/s/ p3 ~9 i5 l: u2 k) ~# w1 A
Width                                    : 1 280 pixels
" T8 p: B' {9 X2 w+ }* YHeight                                   : 690 pixels
2 k  W2 W0 H+ N6 c) A4 m+ X( {Display aspect ratio                     : 1.85:1/ ], @3 f/ g/ }
Frame rate mode                          : Constant, w: G9 p. b, r9 i- X; Y$ C  q; ]
Frame rate                               : 23.976 (24000/1001/189150) FPS8 |2 |$ {; L  t( l' a
Color space                              : YUV/ H# l1 a5 z+ h7 l7 _6 ~# o/ |
Chroma subsampling                       : 4:2:0
/ C: p/ G. {- |% jBit depth                                : 8 bits8 D; P, i2 {/ T6 V. Q6 H
Scan type                                : Progressive
' s0 L2 N& S" ~; j4 JBits/(Pixel*Frame)                       : 0.2927 P8 B( k! \! q
Stream size                              : 4.17 GiB (90%)
" v4 B; a( o# ^% o* P$ ?Writing library                          : x264 core 164 r3081 19856cc
8 a4 z  G6 A. A& d* oEncoding settings                        : cabac=1 / ref=9 / deblock=1:-3:-3 / analyse=0x3:0x133 / me=umh / subme=11 / psy=1 / psy_rd=1.02:0.00 / mixed_ref=1 / me_range=32 / chroma_me=1 / trellis=2 / 8x8dct=1 / cqm=0 / deadzone=21,11 / fast_pskip=0 / chroma_qp_offset=-2 / threads=22 / lookahead_threads=5 / sliced_threads=0 / nr=0 / decimate=0 / interlaced=0 / bluray_compat=0 / constrained_intra=0 / bframes=16 / b_pyramid=2 / b_adapt=2 / b_bias=0 / direct=3 / weightb=1 / open_gop=0 / weightp=2 / keyint=250 / keyint_min=23 / scenecut=40 / intra_refresh=0 / rc_lookahead=250 / rc=crf / mbtree=0 / crf=18.0 / qcomp=0.60 / qpmin=0 / qpmax=69 / qpstep=4 / vbv_maxrate=62500 / vbv_bufsize=78125 / crf_max=0.0 / nal_hrd=none / filler=0 / ip_ratio=1.30 / pb_ratio=1.20 / aq=3:0.804 M# [- \/ ~4 A7 P  O! U( Y4 F( |
Default                                  : Yes
  `* c. N6 b2 OForced                                   : No
- n, {  v# b. G( q# W$ {# sColor range                              : Limited
& M) b, N5 N6 rColor primaries                          : BT.709
& a+ U  P0 e7 QMatrix coefficients                      : BT.709
8 k7 O& M7 O" m! ^& l4 m% X3 Z
( B" {5 x/ c/ f) }3 nAudio% E* j9 q/ {* w9 g& ^+ o" _
ID                                       : 2$ R: D" B: g  `; v
Format                                   : AC-35 q6 k7 B3 f5 ~! ]! D
Format/Info                              : Audio Coding 3$ k; |9 E/ a& N' E8 h
Commercial name                          : Dolby Digital
, k4 A( v; W* X% T4 _' UCodec ID                                 : A_AC3; }+ z3 ?( ~/ R$ b! Q
Duration                                 : 1 h 36 min
$ i: l8 V" H; U; J$ k7 J0 GBit rate mode                            : Constant
0 x% Y. H2 l0 a/ q, a- CBit rate                                 : 640 kb/s
: f# A& A) o, h/ jChannel(s)                               : 6 channels
  s+ O& K- ?" `) u7 T! eChannel layout                           : L R C LFE Ls Rs
9 W! v% I: s9 M+ |: [Sampling rate                            : 48.0 kHz7 y7 f' K3 y# P$ n* \. @
Frame rate                               : 31.250 FPS (1536 SPF)
+ v) M+ x4 N1 DCompression mode                         : Lossy2 O: {0 ]( f1 l
Stream size                              : 442 MiB (9%)
! b( \( X& L3 P3 A& `: xLanguage                                 : English
4 a/ p) W( `5 tService kind                             : Complete Main5 o/ \8 T. W! _, n7 _3 p
Default                                  : Yes
5 {* y3 O. J4 O. N9 E: p1 gForced                                   : No$ r2 |' [, \' j& }. l

: w0 [, s$ c5 i4 sText #1
. R% |( Z8 j8 z2 [2 w6 Q6 E. hID                                       : 3
" [. a* |) r' a" H! f8 E& Z: MFormat                                   : PGS0 v3 T0 o9 ~& J/ R8 K* m: s$ J1 J
Muxing mode                              : zlib
/ x0 w: ]1 x# NCodec ID                                 : S_HDMV/PGS
( M  t/ O$ `! |) RCodec ID/Info                            : Picture based subtitle format used on BDs/HD-DVDs
# F0 j5 l! b: P8 O7 [Duration                                 : 1 h 36 min
" u, W0 \. y, P( \" y4 j' E: vBit rate                                 : 73.2 kb/s3 x4 A1 A* D  j6 l, L
Count of elements                        : 3016
$ i1 v0 ^$ x# y0 ~$ H: _; MStream size                              : 50.3 MiB (1%)# g2 `+ N1 g# p% a/ R2 v
Language                                 : English' x/ ]( C9 s7 c) ^" r) j
Default                                  : No) {$ I# `, }- H4 O
Forced                                   : No, f! K* y+ ^/ n( s: Y$ C
+ b0 h) |. A. `, B) G7 c& R' ]
Text #2
' g- w9 o! u2 YID                                       : 4, Z, j$ q5 E  d9 Y7 [
Format                                   : PGS/ Q. g8 V! C' G6 X: T' M9 t
Muxing mode                              : zlib2 v  b7 `# c1 Q# r6 x
Codec ID                                 : S_HDMV/PGS
2 x0 q3 {5 B. c- U* o* z, G" D; kCodec ID/Info                            : Picture based subtitle format used on BDs/HD-DVDs
1 ]4 V: v! x! c2 A5 \0 [Duration                                 : 1 h 35 min! G2 i( W/ e- T1 v2 \
Bit rate                                 : 57.8 kb/s% L+ j' T! u9 x3 j3 E- d5 ?3 P
Count of elements                        : 25849 ~! ~' P  C2 j6 ?4 B
Stream size                              : 39.6 MiB (1%)
0 G( z* B9 ]0 b5 ?  d% e4 bLanguage                                 : Spanish
, k) p9 C5 Y  X% H2 D. }3 [Default                                  : No
. H+ y. {. B9 U( k% AForced                                   : No
% d% c! v6 k! T# a0 d9 u" {# `0 F6 G) _9 ?! N2 F& }: F1 V" q/ e
Menu
' }( L, A7 X) K7 |00:00:00.000                             : :Chapter 010 ~: M" y) z6 e5 e. S
00:05:52.561                             : :Chapter 02" O' i4 ]/ I4 c
00:10:01.226                             : :Chapter 039 m0 I7 \! \  r, R& L: o- l
00:13:45.158                             : :Chapter 04
; Q& Z. D, x) _7 `; s. X5 U4 D$ r00:16:57.099                             : :Chapter 05% I5 p7 w) c; h
00:19:52.274                             : :Chapter 06
/ r" U0 y& m# D8 |8 D00:22:39.400                             : :Chapter 07! p9 L* U( a' D
00:27:47.624                             : :Chapter 08( {+ T: ?% t& R. I. `# D0 }* U
00:32:12.764                             : :Chapter 09/ \- p9 ?0 g' ^* y3 @/ d
00:36:17.509                             : :Chapter 10% M& B) R$ l# t% y4 N8 N
00:41:13.680                             : :Chapter 11
/ o/ z* j  E+ Z7 `; h' J00:44:37.550                             : :Chapter 128 C, `! l- r8 ~
00:48:10.429                             : :Chapter 13* w6 U$ h+ K* m
00:52:43.744                             : :Chapter 14  N# T5 c  t& e0 h! T4 k% Y: {
00:55:55.894                             : :Chapter 15
1 b6 L! e) n% l& w& u- c; _00:59:15.469                             : :Chapter 16+ V+ X! z3 L4 m; h2 H2 d8 t/ D
01:03:25.010                             : :Chapter 17
7 Q; I7 ?- r% i01:06:07.922                             : :Chapter 189 H: f  g1 v1 ]
01:08:24.600                             : :Chapter 19! F& m- v4 ]/ O* t
01:12:15.039                             : :Chapter 201 }0 f. ^- B, T" N6 O) c
01:15:11.549                             : :Chapter 21
' h$ |$ L3 ^/ I  v01:19:36.981                             : :Chapter 226 k) d* _' @" G3 L& p+ O! A
01:24:18.762                             : :Chapter 23/ \! Y) ?2 X/ O4 _% ~7 x
01:33:27.977                             : :Chapter 242 F) k  k: }: [) T2 i+ G, ~0 V

) `  E0 o4 `4 vCrazy.on.the.Outside.2010.720p.BluRayCD.x264-PEGASUS 4.62 GB$ |! s! X* {/ u( D& w# [4 u

. P/ E, Q( w; E$ WGenre: Comedy Crime
9 ~$ w) u' k1 C8 `Release Date: 1.2022
( u  i8 k" x9 r" B1 y2 O9 |Runtime: 96  Min0 x) S: I4 @2 ?6 b  {+ z
iMDB: https://www.imdb.com/title/tt1196134/* }2 M. z- B1 ^/ l/ G3 N, n
iMDB Rating: 5.5' o% X* }# I" Y8 r& \
Video: 1280x690p, 6184 kbps, CRF 18.0
7 H1 K3 ]2 U- i& g$ hAudio: English Dolby Digital 5.12 I5 x! P' F0 |) d4 B. @- X1 C& ?6 Q  [
Source: 23997 kbps8 X$ N7 y% n( A/ Z+ Y; e  }
Subtitles: English, Spanish

. |6 C4 ^; J$ a. ?9 U
游客,查看本帖隐藏内容请回复 | 加入VIP贵宾可免积分免回复 了解详情 | 还不是会员:点击获取邀请码 Invitation Code

本版积分规则

小黑屋|Archiver|蓝光电影资源网

GMT+8, 2022-1-18 16:15

Copyright © 2001-2022, Tencent Cloud.

快速回复 返回顶部 返回列表