BluRayCD Forum

 找回密码
 立即注册【分享大片】
查看: 28|回复: 0
收起左侧

[动漫动画] 夜脊/夜脊战记 The Spine Of Night 2021 iNTERNAL 1080p BluRaycd x264-PEGASUS 11.28GB & 14.10GB

[复制链接]

1万

主题

1万

帖子

12万

积分

Post Share

金币
24000 枚
体力
24786 点

卓越贡献勋章

mvods 发表于 2022-2-4 19:20:51 | 显示全部楼层 |阅读模式

1 w% {% J6 R9 }' d1 f9 }( b% x$ H) Q: b1 \$ f6 Y& y4 q8 x% H: F. t
◎译  名 夜脊/夜脊战记2 x, x* c( p$ E
◎片  名 The Spine of Night
* U; G& s  {, W; k" ^$ H◎年  代 2021
: G/ k& U( ~5 @9 R+ H4 I  o) b◎产  地 美国; N0 k  T4 b( Q! _6 T9 H3 L: w
◎类  别 动画/恐怖/奇幻% v% @( u' Y" R5 Y' E
◎语  言 英语; `& K( ~  ~" V3 _
◎上映日期 2021-03-18(西南偏南电影节)/2021-10-29(美国)
8 N6 x" P3 u2 s: b0 K. F8 F$ L◎IMDb评分  6.2/10 from 997 users: ]# ]6 D" K' \# S& V
◎IMDb链接  https://www.imdb.com/title/tt3885422/
9 I6 |: Z4 S/ [# b- T◎豆瓣评分 6.3/10 from 626 users, D/ }+ m( Y) x8 w- {0 k2 w9 J
◎豆瓣链接 https://movie.douban.com/subject/30210361/
2 l5 E3 [5 x- k7 N◎片  长 1 h 33 min( W1 @( c7 F& a# |  u5 q. O
◎导  演 菲利普·盖拉特 Philip Gelatt
  A% }/ _3 H, o! W% W' |       Morgan Galen King) O0 o3 D6 r; a8 C% n+ V6 i/ ?
◎编  剧 菲利普·盖拉特 Philip Gelatt
$ X* f# F4 z* |       Morgan Galen King
$ r* P/ ]9 \7 H4 H* ^: f◎主  演 理查德·E·格兰特 Richard E. Grant
) c7 P  |. N2 Y) M9 E       露西·劳莱丝 Lucy Lawless
9 |8 K3 G1 X1 N3 n       帕顿·奥斯瓦尔特 Patton Oswalt
" m- F9 S% L. ^% k7 h9 R8 S4 E2 F       贝蒂·加布里埃尔 Betty Gabriel
. s, ~. n/ Y5 b4 y' s       乔·曼根尼罗 Joe Manganiello0 [+ ?7 k8 m! |/ e
       帕特里克·布林 Patrick Breen
* J& a# W$ s1 Q. j! N" p       拉瑞·凡斯登 Larry Fessenden8 J( b% h( o- C0 p) l) m
       汤姆·里皮斯基 Tom Lipinski
. ~- t3 o5 u6 ]' g5 `  m* m5 q       尼娜·利安德雷罗 Nina Lisandrello
. d! w, y! e% r/ j       艾碧该·萨维奇 Abigail Savage
; `# T, O' K& l       菲利普·盖拉特 Philip Gelatt
$ e; _/ g! h. ~* W" R3 ~7 Y       Jason Gore& s. I8 I7 D+ J- A" s7 V& G
       Maggie Lakis
5 O, N2 \3 `) L" b) m! l3 s8 M       Rob McClure5 Z7 P4 s$ [$ B4 i3 A: R# b: _
       Malcolm Mills
( M7 j6 H+ x0 m; T, A* u       Jordan Douglas Smith
6 ~5 c8 D- f2 I5 n
8 r  H! G2 R" M, \" L4 q4 O! w◎标  签 美国 | 动画 | 2021 | 奇幻' w" j( F: V, U8 G6 F6 X- T$ r/ m

" e( n5 }& I2 L8 A/ [/ `◎简  介9 V; l( ]; s$ r  @& W
3 V7 T' S& K6 Y0 I0 h0 p
  以魔法之地为背景,邪恶之人为了获得权力,从巫女身上夺取黑魔法,并攻占各城镇,给人类带来了漫长的苦难。来自不同时代及文化的英雄们为了讨伐邪恶力量,联手展开一段血腥暴力的生存之战。 血溅横飞的画面风格,将本片的暴力美学展现到极致,而故事的惊人发展,也让整部电影的张力爆发到极点,宛如动画版〈权力游戏〉令人热血沸腾,是动画少见史诗格局的奇幻艺术杰作。
# }% b1 x& h3 C' U+ n9 B: e8 m. \
) F" e# X: F  |  Ultra-violent, epic fantasy set in a land of magic follows heroes from a different eras and cultures battling against a malevolent force.
6 j& l9 R. F! d) O5 C
Video
. k# J! X; Z, ?9 x& Q. y2 SID                                       : 1
: m+ {& ?1 E. z* F) ?0 A, Z. OFormat                                   : AVC
$ a& V2 `# S/ B: z1 X/ q  HFormat/Info                              : Advanced Video Codec
; u  L; S# }+ r7 s) A. rFormat profile                           : [email protected]
! s; D4 [8 e6 V5 A7 gFormat settings                          : CABAC / 4 Ref Frames
. Q( e" x7 i  g, ~7 S: p7 k+ KFormat settings, CABAC                   : Yes+ K! b# h* Q/ V6 J3 u
Format settings, Reference frames        : 4 frames, L% v  \2 h1 v4 p9 {+ v1 Q
Codec ID                                 : V_MPEG4/ISO/AVC
  I8 w& I/ `5 I7 X2 qDuration                                 : 1 h 33 min
0 z7 G9 i5 o" Y2 {' \$ g/ zBit rate                                 : 13.0 Mb/s
( J+ a# x/ V" l' \& g' |0 h% xWidth                                    : 1 920 pixels; Y4 z& [& x3 \1 `( P; E) R+ _0 z
Height                                   : 1 080 pixels
) q8 T% U, ^3 W* f, S4 s# F  CDisplay aspect ratio                     : 16:9) ]1 W8 A/ c$ `4 O" J8 F
Frame rate mode                          : Constant
# s/ |$ \8 \4 @/ KFrame rate                               : 23.976 (24000/1001/189150) FPS
/ Z6 U4 I; T- e, v1 L& K* GColor space                              : YUV
" D2 D% Q( U* j; BChroma subsampling                       : 4:2:0
; m. q" s' _4 V# m4 |Bit depth                                : 8 bits
/ N- J9 [' Q. [- K2 w4 d2 E1 dScan type                                : Progressive
7 P0 ]! }2 s9 A" J/ P* G' BBits/(Pixel*Frame)                       : 0.261) Q8 D5 m. a/ g9 ]
Stream size                              : 8.49 GiB (75%)/ g4 ^" p6 L5 o
Writing library                          : x264 core 164 r3094 bfc87b7* i/ j3 w$ y$ }0 n# O) ^
Encoding settings                        : cabac=1 / ref=4 / deblock=1:-3:-3 / analyse=0x3:0x133 / me=umh / subme=11 / psy=1 / psy_rd=1.02:0.00 / mixed_ref=1 / me_range=32 / chroma_me=1 / trellis=2 / 8x8dct=1 / cqm=0 / deadzone=21,11 / fast_pskip=0 / chroma_qp_offset=-2 / threads=34 / lookahead_threads=8 / sliced_threads=0 / nr=0 / decimate=0 / interlaced=0 / bluray_compat=0 / constrained_intra=0 / bframes=16 / b_pyramid=2 / b_adapt=2 / b_bias=0 / direct=3 / weightb=1 / open_gop=0 / weightp=2 / keyint=250 / keyint_min=23 / scenecut=40 / intra_refresh=0 / rc_lookahead=250 / rc=crf / mbtree=0 / crf=21.0 / qcomp=0.60 / qpmin=0 / qpmax=69 / qpstep=4 / vbv_maxrate=62500 / vbv_bufsize=78125 / crf_max=0.0 / nal_hrd=none / filler=0 / ip_ratio=1.30 / pb_ratio=1.20 / aq=3:0.803 |! S$ B4 m( r9 `2 M
Default                                  : Yes5 `! @) S& Q( z7 ~# h) P
Forced                                   : No
1 W9 t- i7 r; h( D6 n9 m$ _% FColor range                              : Limited
* E( W0 B4 H' X- [; xColor primaries                          : BT.709
% i# p4 X$ C+ C( N. ~7 M# R1 f5 [Matrix coefficients                      : BT.709
; j" x. F9 P; i* \+ _, U; i3 `; |6 m' \$ s
Audio
/ ^/ e6 e7 Z! w, r6 o1 A4 y8 dID                                       : 2  |$ S! c/ v$ m+ b
Format                                   : DTS XLL
4 T. `( T% _1 V5 {, G4 JFormat/Info                              : Digital Theater Systems0 k. I# |6 M  C- K2 h
Commercial name                          : DTS-HD Master Audio
( [2 Q. w. d; ?) \% GCodec ID                                 : A_DTS
& x5 f2 {5 b8 p% k7 U7 i. [- R$ sDuration                                 : 1 h 33 min! y  ^0 @/ m3 @# Q
Bit rate mode                            : Variable
: i1 g: k( r8 Y% FBit rate                                 : 4 236 kb/s
2 `9 b5 m, M' n. _Channel(s)                               : 6 channels
4 x7 f0 k7 ]3 ]/ F# iChannel layout                           : C L R Ls Rs LFE
1 r4 P, S  O9 Q4 o# g, r# {Sampling rate                            : 48.0 kHz
* p- J6 _* c5 q& ~$ E: H2 I" h. ]Frame rate                               : 93.750 FPS (512 SPF)
& t9 T! L; E5 t0 F4 qBit depth                                : 24 bits
; x+ v: R+ Y' U. w( zCompression mode                         : Lossless
  v0 k- ^  o% J" {* s8 CStream size                              : 2.77 GiB (25%)
; z" ^; i4 A$ HLanguage                                 : English/ P1 Z: E" X; J9 G% y) U1 `
Default                                  : Yes8 Z+ m. u; F1 D3 n8 l& \
Forced                                   : No2 L- d: O  B, i+ h4 u& e

4 n/ X& z' Y, n' R, b, gText #1
, n4 c1 H6 s3 e  {+ ^ID                                       : 3
% [* U" y% S* a6 S1 o5 N+ lFormat                                   : PGS- U$ E  a. S; x& Q6 _
Muxing mode                              : zlib
# z! ~( l6 H. _; I" ZCodec ID                                 : S_HDMV/PGS. c& r) r# s; e7 q- c' b: D5 Y
Codec ID/Info                            : Picture based subtitle format used on BDs/HD-DVDs
" A. T1 X, R' g9 r( t6 _Duration                                 : 1 h 33 min% \. `& V3 n# \" \6 z/ j6 L
Bit rate                                 : 18.7 kb/s
: B* }/ C( b% {7 u1 E7 H4 TCount of elements                        : 2270
, {0 g, Z: T& Q  c' O5 WStream size                              : 12.5 MiB (0%)
: m! e) _: p: ELanguage                                 : English
1 j, L' |1 z& n/ W5 wDefault                                  : No# i. U' v* k/ `; Y* S7 Z
Forced                                   : No3 V+ v9 y# M/ E3 G2 F* A, m9 h
' A( l) ]( {: ^9 ?3 @
Text #2
" O* _' c6 I- ]6 G8 f3 LID                                       : 4
" I% I  Z" c/ y* q! R$ p; J' r0 QFormat                                   : PGS( x" E/ H1 D' ]0 o! G& d
Muxing mode                              : zlib4 Y/ \# e" ?, Q! d2 C/ M4 c
Codec ID                                 : S_HDMV/PGS
- [- K5 P2 P. b1 I0 _Codec ID/Info                            : Picture based subtitle format used on BDs/HD-DVDs: l5 ?; N4 x& r* J! {
Duration                                 : 1 h 25 min9 Z# r/ @8 B& l$ M
Bit rate                                 : 17.1 kb/s! H( x  r% f4 r- e) i0 d9 e  _
Count of elements                        : 16002 Y4 h4 g- w" M/ Z
Stream size                              : 10.4 MiB (0%): {# }3 ~) }& Q; A
Language                                 : French
0 [+ [9 g) G6 O& u5 Q4 o" k8 RDefault                                  : No" b: i5 K$ I- `/ v. W# [. C) U
Forced                                   : No, X: `& m, o$ B; K2 g' o

$ w8 `# w/ U8 ?% J; z& w; f- vText #3
. q8 ]" P4 ?  m3 n9 ?- I1 zID                                       : 5
; ]$ a* O$ t8 x; JFormat                                   : PGS: }, p; z  O& X6 T) I
Muxing mode                              : zlib- [5 J$ T! ^% x2 e- {; z6 K: J
Codec ID                                 : S_HDMV/PGS" ]( v9 v* g: z) d/ c
Codec ID/Info                            : Picture based subtitle format used on BDs/HD-DVDs( \" s# o4 z2 k) p+ F7 z0 e" J5 p' V
Duration                                 : 1 h 26 min
; e8 X7 `; v( k% a6 ~Bit rate                                 : 15.8 kb/s
3 y  `; F3 k! QCount of elements                        : 1536
" s" b" ]6 b2 D5 d* G- xStream size                              : 9.76 MiB (0%)
0 u$ V7 G1 f' P) }Language                                 : Spanish
9 z  m9 G2 b+ F& G& N, o; f  @Default                                  : No% W1 L* P& p! N
Forced                                   : No4 D+ v* Q- T, \# F0 {* [
, S% l5 R2 [( P" C0 G3 _# f1 c* w
Menu4 `: _1 B6 y1 \6 O+ k2 t4 p
00:00:00.000                             : :Chapter 01" _% t7 b- H2 F: t& t: y
00:16:16.475                             : :Chapter 02' h: c4 s: S3 l, q- W
00:29:04.284                             : :Chapter 03
4 ^# f5 @2 Z1 Q1 K: F' L  n) o00:46:31.914                             : :Chapter 040 w9 ], h4 _2 |" Z
01:04:57.727                             : :Chapter 05
, X0 _$ S% u, G- p; A+ I- {01:12:57.248                             : :Chapter 06
7 F- L: V8 B8 m5 e01:19:51.078                             : :Chapter 07) h1 P# _9 m" W# Q& e8 P/ }
01:29:07.133                             : :Chapter 086 J6 o- Z  F/ k0 H# e$ H
* z) Q5 r/ `5 P% D& H7 }& ?
The.Spine.Of.Night.2021.1080p.BluRayCD.x264-PEGASUS 11.28 GB! Z+ @( z% D" t' [0 q) d( F

6 h8 S: Y1 B0 |. ^  V" JGenre: Animation Action Adventure Fantasy Horror Sci-Fi1 Q( ~$ f, G) ?7 b4 H# x
Release Date: 05.2022
& ?: y7 W3 o  N: }- _) y) lRuntime: 93  Min9 I$ y( F# S0 X
iMDB: https://www.imdb.com/title/tt3885422/
% a% {& x8 }7 I( iiMDB Rating: 6.2
1 l3 L, R. \( {/ D- n) D( mVideo: 1920x1080p, 13.0 Mb/s, CRF 21.0
- _# u  `. C; w- b5 D3 lAudio: English DTS-HD MA 5.1
3 p7 w+ @: w! ]Source: 31993 kbps* R/ n3 G" s( V$ J! v
Subtitles: English, French, Spanish
Video
. }, }+ y: @& r7 S6 c0 tID                                       : 19 M" U2 j( a) M; L/ t
Format                                   : AVC2 ^: `, N  x# }
Format/Info                              : Advanced Video Codec( w/ o+ y: a8 J( ]2 E$ d. ]
Format profile                           : [email protected]
2 e; u/ W- |. p% ?Format settings                          : CABAC / 4 Ref Frames+ `2 [5 {/ g2 e* p& l3 L% S; H
Format settings, CABAC                   : Yes
$ r5 s0 _% `$ J+ \6 FFormat settings, Reference frames        : 4 frames
" k3 V  e1 J! S; oCodec ID                                 : V_MPEG4/ISO/AVC/ ~% t/ U* A+ v  x$ |6 K! ^7 ^
Duration                                 : 1 h 33 min
0 l! e) Y% B  H4 a- R5 N; q* sBit rate                                 : 17.3 Mb/s) Q7 U- W7 {; _0 F% k4 }
Width                                    : 1 920 pixels& N6 e, v; Y) {& K1 n9 x7 x2 G
Height                                   : 1 080 pixels
5 f7 C% }3 F6 ]Display aspect ratio                     : 16:9
* B& N: R& |) ?/ w0 J: Z' V+ o3 j6 s. pFrame rate mode                          : Constant
3 p, m, w/ b. EFrame rate                               : 23.976 (24000/1001/189150) FPS9 F! `+ s1 I6 {* f
Color space                              : YUV
, T; ?& R; q% E/ x* J. e3 bChroma subsampling                       : 4:2:0' S7 W( }) U: P1 v, {- y! K
Bit depth                                : 8 bits8 c( G- V: n! L7 S% r
Scan type                                : Progressive# x" f6 l3 |) X
Bits/(Pixel*Frame)                       : 0.3484 h8 q. K) P3 J" W  k  q# f- _
Stream size                              : 11.3 GiB (80%)2 a1 J) w# [$ S1 C  G
Writing library                          : x264 core 164 r3085 0bb85e8
* }) y! i  H0 C- |- CEncoding settings                        : cabac=1 / ref=4 / deblock=1:1:1 / analyse=0x3:0x133 / me=umh / subme=9 / psy=1 / psy_rd=0.40:0.00 / mixed_ref=1 / me_range=16 / chroma_me=1 / trellis=2 / 8x8dct=1 / cqm=0 / deadzone=21,11 / fast_pskip=1 / chroma_qp_offset=-2 / threads=34 / lookahead_threads=3 / sliced_threads=0 / nr=0 / decimate=1 / interlaced=0 / bluray_compat=0 / constrained_intra=0 / bframes=5 / b_pyramid=2 / b_adapt=2 / b_bias=0 / direct=3 / weightb=1 / open_gop=0 / weightp=2 / keyint=250 / keyint_min=23 / scenecut=40 / intra_refresh=0 / rc_lookahead=60 / rc=crf / mbtree=1 / crf=17.0 / qcomp=0.60 / qpmin=0 / qpmax=69 / qpstep=4 / ip_ratio=1.40 / aq=1:0.60
# L1 D; S0 ?4 [1 ~$ rDefault                                  : Yes  K& u/ u$ u/ k* A9 e3 ]
Forced                                   : No- d, V$ c! F! x! w8 X8 X3 l3 [; a! _0 ^# ^
4 `( f! ]2 D1 c; ^$ s7 I4 k, h8 ~' z
Audio+ ~7 l8 c& _* a3 s5 o
ID                                       : 2
. I. R* n' D0 ^) n* S7 U- \2 R" pFormat                                   : DTS XLL
) U; I6 `  [3 o& a9 DFormat/Info                              : Digital Theater Systems
! y9 p7 u3 a: D- m* e, O3 SCommercial name                          : DTS-HD Master Audio
6 e0 r' _! @; A! Z# m! Q" hCodec ID                                 : A_DTS0 A( F) g7 }5 W
Duration                                 : 1 h 33 min6 o! \4 Y, H4 n" f$ |$ ]
Bit rate mode                            : Variable2 W; O! L% H* M2 V6 {& Y! K
Bit rate                                 : 4 236 kb/s
+ p6 a4 w6 b  I$ D- X/ W- _Channel(s)                               : 6 channels
2 C' T  h% G. V2 a- y( @Channel layout                           : C L R Ls Rs LFE7 U  O  @. i7 _' t& z9 h# D0 A
Sampling rate                            : 48.0 kHz
* n& _5 ^0 w" x( C0 o4 Z) ~6 WFrame rate                               : 93.750 FPS (512 SPF): B4 H" n/ \$ a0 n
Bit depth                                : 24 bits0 i1 e$ \5 ~7 y6 F
Compression mode                         : Lossless: @7 {# q! |$ g; T% @  i# [
Stream size                              : 2.77 GiB (20%)5 o- w, Y2 {: A
Language                                 : English
3 z, r' b( y( e; t8 J# k" u' gDefault                                  : Yes6 h$ n- z* z" Z, o& g8 V0 ]
Forced                                   : No
% d. C: P% S8 R. |
9 _: K$ k8 {3 D# U! e/ eText #1) }* O  T5 ^- a* s0 `$ W$ E
ID                                       : 33 m+ h. ?0 u* e( b& j
Format                                   : PGS
) W( z& k3 D- N; r: K: Q9 z0 [+ q7 bMuxing mode                              : zlib  L; f4 \* j/ F2 X. H' s& T1 a
Codec ID                                 : S_HDMV/PGS( X1 d' n, f" `0 z( U, m
Codec ID/Info                            : Picture based subtitle format used on BDs/HD-DVDs
7 r! `' ]$ o# y* HDuration                                 : 1 h 33 min& `5 W# X. n+ Q" m  S
Bit rate                                 : 18.7 kb/s
- J  j+ {7 `$ cCount of elements                        : 2270% z0 h& ^4 t7 m) {8 C
Stream size                              : 12.5 MiB (0%)
7 H9 Q2 O" Z9 H" Y- N/ z: r, }Title                                    : English SDH6 i1 G: p- i; ]
Language                                 : English% \2 d3 f6 O: H
Default                                  : No
2 X1 N7 P% t0 \) {9 M: \Forced                                   : No
7 ^( x7 U. L  }' n8 U% B9 m8 }8 A+ v( Z# s  H9 \" {
Text #2
7 D: [9 |5 n8 Z4 P2 ?7 H" s" n# c$ OID                                       : 4
( K2 ?- ~  `' e1 w: I/ ~Format                                   : PGS7 J5 {/ d- x" }, R0 N; H  N1 ^
Muxing mode                              : zlib; f, y6 v5 c% S" U( H7 Q
Codec ID                                 : S_HDMV/PGS
  w/ b8 _. S8 l# m( E0 Z! k) TCodec ID/Info                            : Picture based subtitle format used on BDs/HD-DVDs0 T6 O; S/ y0 ^/ y$ p; W9 R; z
Duration                                 : 1 h 25 min0 q0 s1 E7 _  l8 M8 K! D
Bit rate                                 : 17.1 kb/s; l! x; T; W4 L3 C+ N. x. H. ^
Count of elements                        : 1600
2 l' x9 ?  F& y' M( t# kStream size                              : 10.4 MiB (0%)5 |: ]) h+ {9 {; I' f5 l: m
Title                                    : French
: `% ~+ V7 i( w& oLanguage                                 : French! F2 ^  c4 a! C+ l/ h) q& L; U
Default                                  : No
" [- g& [7 s; M8 }Forced                                   : No/ f& v' s; T% ?) n6 d9 v& z6 ^* y

) V0 Y8 M; k5 H1 ^, i! D/ _Text #3
- g' B$ T2 |) X6 C+ oID                                       : 56 w3 n6 S( U* a; d
Format                                   : PGS
* K8 g5 E' C( v! ]* ]2 YMuxing mode                              : zlib- J. a1 l5 q# }. n: D. K- h
Codec ID                                 : S_HDMV/PGS
, A, D* v4 A4 K7 ]7 \% Q0 E5 F4 HCodec ID/Info                            : Picture based subtitle format used on BDs/HD-DVDs1 X) K% k& W' e- `  S/ [; s: s
Duration                                 : 1 h 26 min
. a4 ^0 I9 v! h1 U7 V! K0 MBit rate                                 : 15.8 kb/s9 u5 a  a( c8 H3 D- w0 o" t8 ?- P4 Y
Count of elements                        : 1536; j! e8 J/ H; N3 Q" ]
Stream size                              : 9.76 MiB (0%)! x) Z5 `8 K, g& A$ J/ ?+ I7 [
Title                                    : Spanish5 d! D- r0 Q. }
Language                                 : Spanish
6 c  {# Q1 @9 b$ t- KDefault                                  : No+ f; l5 I$ r' g
Forced                                   : No
  s+ E7 L9 O7 c) I) t$ ?% [7 ~# b' j: u  S% X  l  j
Menu& P5 `! Q9 n3 E7 k" A: \# X
00:00:00.000                             : en:Chapter 01
0 y$ @1 _# l6 k2 P00:16:16.475                             : en:Chapter 02
6 i5 u: C3 m6 q& ^5 M" _9 a00:29:04.284                             : en:Chapter 03
* u) c; e6 h' D- d7 g00:46:31.914                             : en:Chapter 04
( W" r# S2 l  G( b) {0 C01:04:57.727                             : en:Chapter 05
4 o) m* ^, D  Z5 _0 O+ U01:12:57.248                             : en:Chapter 06% E9 ~$ Y5 O3 i$ r( c+ T. O' b# g9 H, ^
01:19:51.078                             : en:Chapter 07
4 o" P4 ^  @7 v2 {8 j) @01:29:07.133                             : en:Chapter 08: C" q; p1 C) e8 N! @; N" _
01:33:37.362                             : en:Chapter 09# R* o0 `  y6 k

1 q: U" j& X( q8 JName: The.Spine.of.Night.2021.1080p.BluRaycd.x264-PiGNUS 14.10 GB  6 `9 m0 F2 @' X6 l/ J
  r( U8 s. C+ J4 G6 a
Release date: 02-02-20228 s: \1 u* P5 N5 z4 ]- \) j: C

) |9 y6 P! Y+ I) Z' KIMDB link: https://www.imdb.com/title/tt3885422$ A0 z. A4 R4 R8 k3 e+ m5 l
2 Z5 j; X5 V. ]3 A7 e/ i& G4 y1 X
Resolution: 1920x10801 {) N' i: G! d+ n1 I3 D% T" M
Audio: English DTS-HD Master 6ch 4235 kbps  `& R. }0 U" M
Video: 17304 kbps, CRF 17
/ _- ?/ Q+ t# g/ aSource: 31993 kbps$ w$ F8 [; }- h( Z& y) z: c
% V+ y: j0 l8 A0 ^9 O
Subtitles: English SDH, French, Spanish
- K4 R! Z$ ~8 \) Z
游客,查看本帖隐藏内容请回复 | 加入VIP可免积分免回复 了解详情 | 还不是会员:点击获取邀请码 Invitation Code

本版积分规则

小黑屋|Archiver|蓝光电影资源网

GMT+8, 2022-8-15 05:15

Copyright © Tencent Cloud.

快速回复 返回顶部 返回列表