BluRayCD Forum

 找回密码
 立即注册【分享大片】
查看: 28|回复: 0
收起左侧

[2160P极清] 科学怪人之再生情狂 [4K HDR高码版] Mary Shelleys Frankenstein 1994 2160p UHD BluRaycd x265 10bit HDR DTS-HD MA 5.1-SWTYBLZ 45.74GB & 37.09GB

[复制链接]

7404

主题

7576

帖子

9万

积分

Post Share

金币
16600 枚
体力
23502 点

卓越贡献勋章

黄金嫖客 发表于 2022-4-6 22:08:34 | 显示全部楼层 |阅读模式

2 A4 l( r& V- y$ o3 t& L3 \1 [  i; J3 Z$ E) S3 p
◎片  名 Mary Shelley's Frankenstein / Frankenstein
# q+ C2 }; c) a3 b4 R5 j◎译  名 科学怪人/科学怪人之再生情狂/弗兰肯斯坦/玛丽·雪莱的弗兰肯斯坦/玛丽·雪莱之科学怪人
6 b% F% r, A3 |5 |◎年  代 1994
8 w* m8 A1 @) M◎产  地 美国/日本/法国
6 V8 }+ Y+ g) Q5 u/ ]◎类  别 剧情/爱情/科幻/恐怖
! ?# b# i0 T2 ^5 @9 R# \◎语  言 英语
  p; \9 t  @% @& }9 s! B  n◎上映日期 1994-11-04(美国/英国)
4 j  b- w- q0 u2 `3 k◎IMDb评分  6.3/10 from 54,661 users9 ^) `! i1 s1 a1 i( H* h. l6 W% s
◎IMDb链接  https://www.imdb.com/title/tt0109836/
- R4 u# L' {- S: L◎豆瓣评分 7.7/10 from 12,586 users
4 d+ X# Y/ G2 Y5 }◎豆瓣链接 https://movie.douban.com/subject/1293778/
! S! l' p, t' v( T+ H& Z◎片  长 2 h 3 min8 l  h( R  A+ O. g/ G- R  t
◎导  演 肯尼思·布拉纳 Kenneth Branagh
, Z- Q; G2 o' L! W$ B! z◎编  剧 玛丽·雪莱 Mary Shelley! K6 J! p3 }. C5 f  }
       斯特凡女士 Steph Lady
! d4 r$ u: k4 P, V, p3 L; P8 i       弗兰克·德拉邦特 Frank Darabont
+ U6 j9 q/ J6 n( [◎演  员 罗伯特·德尼罗 Robert De Niro# J- T; P: w' b- T4 G9 F& N& O% X
       肯尼思·布拉纳 Kenneth Branagh' X7 Y- m7 ?7 D( E+ N
       汤姆·休斯克 Tom Hulce
) t) O- s4 p, ]6 v       海伦娜·伯翰·卡特 Helena Bonham Carter
2 e. n, \5 E* N& y       艾丹·奎因 Aidan Quinn
) n7 o/ p4 |+ m# z+ |* H2 s       伊安·霍姆 Ian Holm2 F( f8 v6 q3 m: x9 B' V
       理查德·布赖尔斯 Richard Briers
! `% c# P" |. A& h       约翰·克里斯 John Cleese
& z+ f' l9 g4 Z  }: T  [) Y7 E& V       罗伯特·哈迪 Robert Hardy
- x" J8 U2 Y- G! Z* ~       切瑞·朗吉 Cherie Lunghi
. X8 I# j  h% K, K       西莉亚·伊姆里 Celia Imrie+ V+ F3 r0 `6 k1 b, a4 r# S7 h
       特里文·麦克道尔 Trevyn McDowell
* ~2 \! s  s# r; z; f       斯图尔特·哈泽尔丁 Stuart Hazeldine2 j! [6 T; N2 \  c
       杜迪·埃普顿 Dudi Appleton
! s/ K; b, T. w6 U       马克·哈德菲尔德 Mark Hadfield, F% p7 u  Z4 _
       阿尔弗雷德·贝尔 Alfred Bell# h/ ~/ T' Q7 |7 \" u; [5 w
       乔治·阿斯普雷 George Asprey# v0 p3 W* Q, _" T5 P' B* a
       乔安娜·罗斯 Joanna Roth  @) b5 V  m* u
       休·博纳维尔 Hugh Bonneville
$ {6 M* |* i0 c- r  m9 m       理查德·克里弗特 Richard Clifford, X" |# O; G0 X6 L
       詹姆士·V·哈特 James V. Hart
7 B9 |0 L/ T' s       大卫·帕菲特 David Parfitt
! o; H1 U" a/ C7 j! `       弗雷德·富克斯 Fred Fuchs3 m/ V( O# p6 d' g$ K
       肯尼思·布拉纳 Kenneth Branagh
, ~+ W" d1 O* B5 Q: i6 ~8 N       罗伯特·德尼罗 Robert De Niro
9 K0 y/ l( ?6 ?& V       弗朗西斯·福特·科波拉 Francis Ford Coppola
0 J& ~7 u- ]0 N! T+ [) x       帕特里克·道尔 Patrick Doyle: _5 M5 N7 g2 \
       罗杰·普拉特 Roger Pratt5 y8 Y$ q# S: Q1 P) k% `
       安德鲁·马库斯 Andrew Marcus
( A0 s$ j- w1 y7 Y: p  N       John Fenner' V5 ^  Z; b& L1 _
       Desmond Crowe+ O7 D2 q) r0 x0 ?
       詹姆斯·艾奇逊 James Acheson
2 }6 Y. o# F" o4 y# v       马克·凯奥耶 Mark Coulier
7 ^; e& T. Y$ i       安珀·西布利 Amber Sibley
- [" `, G- ]! z8 ?; q9 D       丹尼尔·帕克 Daniel Parker
5 p" E0 y4 w; r" l0 z# Z       大卫·怀特 David White
3 r, a1 y4 B: @$ I1 v7 V: L       Christine Allsopp
' X. A5 z( _# Q+ n0 L/ G/ N       卡罗尔·海明 Carol Hemming
4 A5 A" g5 e  s+ \& A! Q       Michelle Taylor Michelle Taylor
) O' `! i" F4 j1 O       Betty Glasow Betty Glasow
/ f. e9 ^9 V4 m" S       杰瑞米·伍德海德 Jeremy Woodhead" o) ^' b: `4 y
       安德鲁·马库斯 Andrew Marcus  {# c# v8 v: L
       西蒙·克雷恩 Simon Crane
- t7 t' ~) `1 n$ P6 A       Chris Watts Chris Watts5 m- o7 o9 d" B
       Val Wardlaw Val Wardlaw$ J5 _- \( m2 F( I1 I: \, p
       理查德·康威 Richard Conway
+ Q3 B! `6 D$ t2 j5 s8 t       马克·尼尔姆斯 Mark Nelmes: w9 ~( s# y' c& l$ f
/ a3 o# U) f2 `8 v* |8 g
◎简  介   # a! ~7 X2 C$ z& k" ?: G

$ _. |6 X/ Z5 I  Y, t2 b  奄奄一息的维克多.弗兰肯斯坦(肯尼思·布拉纳 Kenneth Branagh 饰)被北极探险船救起,他告诉了船长沃尔顿(艾丹·奎因 Aidan Quinn 饰)一个令人难以置信的故事。年轻的维克多与父母收养的妹妹伊丽莎白(海伦娜·邦汉·卡特 Helena Bonham Carter 饰)生活在一起,一次他偷取了一本使死人复活试验的医学笔记,并用偷来的尸体创造出了一个全新的生命“创造物”(罗伯特·德尼罗 Robert De Niro 饰)。可是“创造物”并不乐意这样生活,他逃走了企图开始新生,但是他失败了,经历了种种羞辱后他恨透了维克多。在维克多准备与伊丽莎白结婚时,“创造物”回来了,他残忍的杀死了新娘。悲痛欲绝的维克多故技重施,用伊丽莎白的尸体创造了一个再生人,“创造物”认为再生的新娘与自己是一样的,企图占有她,再生新娘以死相抗最后引火自焚。失去一切的维克多抛下一切追逐“创造物”,一直来到北极圈……8 O  D8 i, l( ~- z
3 I6 r4 J2 N7 Z7 C/ u
  When the brilliant but unorthodox scientist Dr. Victor Frankenstein rejects the artificial man that he has created, the Creature escapes and later swears revenge.
: u$ U* e: v; c3 g1 s+ w
( E) T/ a) M1 j6 [0 ?% }1 l◎获奖情况  : V& ]5 Q. z+ E' j

9 X- c8 J, z- H# `  第67届奥斯卡金像奖 (1995)7 m6 u" [9 w9 }
  最佳化妆(提名)' W, O- G$ N8 [% Y$ D: k' p
  第48届英国电影学院奖 (1995)( G' S3 q1 X# ]: s
  电影奖 最佳艺术指导(提名) 蒂姆·哈维
% J& c( S. f' k- C: S
3 [* p' z+ _: U6 t- h
SWEATY BALLZ presents
! g1 _4 l! ?8 e7 |/ K, d, d) X* _4 A4 T2 f# F+ I
Mary.Shelleys.Frankenstein.1994.2160p.UHD.BluRayCD.x265.10bit.HDR.DTS-HD.MA.5.1-SWTYBLZ 45.74 GB' N3 d/ [' K- U  h3 A
Screenshots are 8bit SDR& k/ k- Y6 K5 e# n% f; E9 w
2 Q/ V6 y" k8 R" K; N# l
Video
$ a3 @/ M. `) Z* H9 p6 [ID                                       : 1" N7 R- K! V7 e
Format                                   : HEVC
  S/ c8 E5 N( b* k0 ]Format/Info                              : High Efficiency Video Coding( N( d! i7 I9 D
Format profile                           : Main [email protected]@High
& u2 T) S" ]1 f& G9 q6 {& \1 GHDR format                               : SMPTE ST 2086, HDR10 compatible
+ t0 r4 `; v0 G5 v. e) zCodec ID                                 : V_MPEGH/ISO/HEVC  ~) Y( z* t% z7 l% R  B/ J
Duration                                 : 2 h 3 min
2 y: i1 H2 n$ j. L  ^1 ?7 I# c. E3 ZBit rate                                 : 48.3 Mb/s
5 h- n0 o0 L* ?+ t0 B8 Q% QWidth                                    : 3 840 pixels
0 d' F7 o2 T, [Height                                   : 2 076 pixels7 g2 |( a" t. R" r# Z- \, I! [
Display aspect ratio                     : 1.85:1
' g% {5 R8 B9 h& _; Q7 s, dFrame rate mode                          : Constant/ a  q2 }, J; K) O3 [
Frame rate                               : 23.976 (24000/1001/189150) FPS  |0 L8 l8 i( F" `2 t+ T* z% K. N7 m
Color space                              : YUV/ D7 d3 o+ |% ?
Chroma subsampling                       : 4:2:0 (Type 2). p6 l5 H5 X9 h  A9 i7 h9 ?9 Q
Bit depth                                : 10 bits
5 n+ j6 X2 }3 I) ~8 UBits/(Pixel*Frame)                       : 0.253; E; p, y' T( X" m4 m- \2 O) v4 D
Stream size                              : 41.6 GiB (91%)5 z8 {5 P7 {! @
Writing library                          : x265 3.0_Au72af837053:[Windows][GCC 8.2.0][64 bit] 10bit" D, O% s* y7 T% N4 O4 L
Encoding settings                        : cpuid=1111039 / frame-threads=6 / numa-pools=40 / wpp / no-pmode / no-pme / no-psnr / no-ssim / log-level=2 / input-csp=1 / input-res=3840x2076 / interlace=0 / total-frames=177264 / level-idc=51 / high-tier=1 / uhd-bd=0 / ref=3 / no-allow-non-conformance / repeat-headers / annexb / aud / hrd / info / hash=0 / no-temporal-layers / no-open-gop / min-keyint=1 / keyint=24 / gop-lookahead=0 / bframes=4 / b-adapt=2 / b-pyramid / bframe-bias=0 / rc-lookahead=25 / lookahead-slices=4 / scenecut=40 / radl=0 / no-splice / no-intra-refresh / ctu=64 / min-cu-size=8 / no-rect / no-amp / max-tu-size=32 / tu-inter-depth=1 / tu-intra-depth=1 / limit-tu=0 / rdoq-level=0 / dynamic-rd=0.00 / no-ssim-rd / signhide / no-tskip / nr-intra=0 / nr-inter=0 / no-constrained-intra / strong-intra-smoothing / max-merge=2 / limit-refs=3 / no-limit-modes / me=1 / subme=2 / merange=57 / temporal-mvp / weightp / no-weightb / no-analyze-src-pics / deblock=0:0 / no-sao / no-sao-non-deblock / rd=3 / no-early-skip / rskip / no-fast-intra / no-tskip-fast / no-cu-lossless / no-b-intra / no-splitrd-skip / rdpenalty=0 / psy-rd=2.00 / psy-rdoq=0.00 / no-rd-refine / no-lossless / cbqpoffs=0 / crqpoffs=0 / rc=crf / crf=19.0 / qcomp=0.60 / qpstep=4 / stats-write=0 / stats-read=0 / vbv-maxrate=160000 / vbv-bufsize=160000 / vbv-init=0.9 / crf-max=0.0 / crf-min=0.0 / ipratio=1.40 / pbratio=1.30 / aq-mode=1 / aq-strength=1.00 / cutree / zone-count=0 / no-strict-cbr / qg-size=32 / no-rc-grain / qpmax=69 / qpmin=0 / no-const-vbv / sar=1 / overscan=0 / videoformat=5 / range=0 / colorprim=2 / transfer=2 / colormatrix=2 / chromaloc=0 / display-window=0 / max-cll=0,0 / min-luma=0 / max-luma=1023 / log2-max-poc-lsb=8 / vui-timing-info / vui-hrd-info / slices=1 / opt-qp-pps / opt-ref-list-length-pps / no-multi-pass-opt-rps / scenecut-bias=0.05 / no-opt-cu-delta-qp / no-aq-motion / no-hdr / no-hdr-opt / no-dhdr10-opt / no-idr-recovery-sei / analysis-reuse-level=5 / scale-factor=0 / refine-intra=0 / refine-inter=0 / refine-mv=0 / refine-ctu-distortion=0 / no-limit-sao / ctu-info=0 / no-lowpass-dct / refine-analysis-type=0 / copy-pic=1 / max-ausize-factor=1.0 / no-dynamic-refine / no-single-sei / no-hevc-aq / qp-adaptation-range=1.00
! q' X* \/ ^3 C# XDefault                                  : Yes
9 f$ u6 a2 {7 d) X6 q! EForced                                   : No8 j: r1 Q+ M+ K, t
/ c7 D* K3 p, q% O3 t& G& d
Audio #15 M4 ]% p/ W+ W
ID                                       : 2
4 {# B3 b2 c( M3 S2 c" _9 S; VID in the original source medium         : 4352 (0x1100)3 m2 I& P+ G% Z
Format                                   : DTS XLL
0 H' F$ W( x) l5 ?( RFormat/Info                              : Digital Theater Systems1 G! H0 H" |0 E9 j% X7 p
Commercial name                          : DTS-HD Master Audio2 M# S7 [: R% d# e  E" w9 U) V# G! z, w- X
Codec ID                                 : A_DTS
( Z& E6 W' j8 |- `7 DDuration                                 : 2 h 3 min: u; E, c" j# o, Z  m5 E$ g
Bit rate mode                            : Variable
1 E( C* q" j" r, q9 TBit rate                                 : 3 899 kb/s
$ ]8 O- K* q$ {& @, K3 ]9 ^; GChannel(s)                               : 6 channels
2 W5 q. ^! k3 N. ^Channel layout                           : C L R Ls Rs LFE5 a- P' E9 ?8 G* u! ?4 M' R
Sampling rate                            : 48.0 kHz* G, ^& l" Z' b" e' m
Frame rate                               : 93.750 FPS (512 SPF). R* a6 g3 @+ L' k. i9 A, y
Bit depth                                : 24 bits' H* V1 s7 e& j& U% T3 s3 u3 n
Compression mode                         : Lossless% f8 A5 V. }: i3 n4 t. ^& h8 B
Stream size                              : 3.36 GiB (6%)
, M; E& @$ k: J& [  ?! ATitle                                    : DTS-HD MA 5.1. L: M; k1 L/ y9 Y, X9 L2 a3 c0 `
Language                                 : English5 j" w5 ~0 ?1 B
Default                                  : Yes
% _$ U' H7 U, h3 q( yForced                                   : No
: t' K4 {2 V* ~! o: o/ F$ Z; qOriginal source medium                   : Blu-ray
& m8 {- W! Q  S" @$ w" {) d# J
; n3 u- g: B' x8 s& W3 ]1 ZAudio #2
# h3 G: ~7 O7 B+ c# @3 S. I: t" u& nID                                       : 3
! c% B, D8 `; V$ A2 E/ m( v6 }Format                                   : AC-3
! c" w% K; A2 nFormat/Info                              : Audio Coding 37 q$ G9 k! x3 _/ C$ p
Commercial name                          : Dolby Digital
7 J) ~2 g8 }# g+ v5 R2 mCodec ID                                 : A_AC3- `& s; _( m( ^" S% P$ h3 U
Duration                                 : 2 h 3 min8 K4 c% f7 S/ {
Bit rate mode                            : Constant5 F  [2 R1 j! u# O4 e8 t% d5 R
Bit rate                                 : 640 kb/s
2 h: L$ c2 e' V' x4 O/ MChannel(s)                               : 6 channels
) U- H+ }. \9 V# f" n# [- ]Channel layout                           : L R C LFE Ls Rs$ P. e" v- s  N- ~' @. q* J
Sampling rate                            : 48.0 kHz  N! }, U9 B3 A) J
Frame rate                               : 31.250 FPS (1536 SPF)* Z2 J2 A7 b( N  C; F3 K+ b
Compression mode                         : Lossy( Y& h  q! U  _& a
Stream size                              : 564 MiB (1%)
  u2 e* C4 u( eTitle                                    : DD 5.1, F) x2 Y* |/ c
Language                                 : English
! Y9 I# @5 U7 s# iService kind                             : Complete Main
. v+ G6 {# f0 b: d  V4 B) jDefault                                  : No
0 [4 {* G7 h3 L+ C$ pForced                                   : No9 j3 ?* [; L- O( R/ s" X2 u3 _

0 v% N. f# A$ k' m& T( y6 S$ NText #1  v/ q+ Z' L( Q  Z1 f* v9 [
ID                                       : 4! S2 q# G" C! D* \# Y$ q* f5 \
Format                                   : UTF-8, j  \+ I4 b& m. B- Q
Codec ID                                 : S_TEXT/UTF8
7 }. O: m. z  KCodec ID/Info                            : UTF-8 Plain Text7 W4 p. \( O: z5 Q9 K+ q
Duration                                 : 1 h 56 min
$ f' _+ W  \' J- |' F- fBit rate                                 : 39 b/s# q/ k2 c6 @* N' e' }! |
Count of elements                        : 1022& w# K6 D4 ?" X, z( U7 o; H
Stream size                              : 34.2 KiB (0%)9 u* A9 T0 W! j7 U' X$ Z6 Z: E4 U4 u
Language                                 : English
) T/ ^% T( }% k+ i/ I5 o! K4 {Default                                  : Yes- O7 c) q5 J( ]' j
Forced                                   : No
& C" M8 m* M* |( l5 y8 {' O0 {+ s, Q; e
Text #2
7 Y9 ?) R$ @( vID                                       : 5
7 z# i7 `& j6 B) k" @. [Format                                   : UTF-8: b8 e# V( M( E* j. K- F
Codec ID                                 : S_TEXT/UTF8
# X$ O6 F+ e& j/ nCodec ID/Info                            : UTF-8 Plain Text4 p6 ?* I1 C0 o: Z/ G. A9 u" M9 H
Duration                                 : 1 h 56 min
3 Y0 v3 c8 ?6 zBit rate                                 : 42 b/s; a  J! t* ]  w8 ~2 f* d
Count of elements                        : 11129 u: }3 F9 c+ ^+ g
Stream size                              : 36.1 KiB (0%)+ \$ V" k  b7 G: \" ^
Title                                    : SDH
5 A! b; ~$ y  b% ?" i, {Language                                 : English
' u) e0 t' W5 B  l- m0 u+ s* s9 rDefault                                  : No( k. n: e6 ]  S) H
Forced                                   : No
6 `. L1 z# `$ }3 l/ w0 \5 H$ r7 j( @
Text #3
! V# M. z. ?5 F6 E) N+ q6 dID                                       : 61 h5 n  q( R  W2 g6 p
ID in the original source medium         : 4768 (0x12A0)
6 N' L* c" q% y9 n' P9 z& k" G* iFormat                                   : PGS1 O; _* e1 a+ {
Muxing mode                              : zlib
9 ~0 \8 y3 H# [; KCodec ID                                 : S_HDMV/PGS
* O, E. C4 ?1 X5 a7 y8 uCodec ID/Info                            : Picture based subtitle format used on BDs/HD-DVDs
! F; Y- _! C+ XDuration                                 : 1 h 56 min0 J/ j  s' T# i9 T
Bit rate                                 : 23.9 kb/s
+ E7 U" a' k$ ]3 z, ]& UCount of elements                        : 2262
. S( h7 A4 S- V4 pStream size                              : 20.0 MiB (0%)1 i5 r  b% a+ E$ v
Language                                 : English
2 [" x% v/ x- O  h6 SDefault                                  : No
* X" X) Q9 W8 Z3 iForced                                   : No
" i7 v% u- C' y1 [% b; gOriginal source medium                   : Blu-ray
4 I' ?7 {  T7 v7 \1 w2 x+ @% K6 e4 D: |2 R& G, X! `. J8 O" _
Menu3 @5 X+ |6 e# k( ]) Y' N1 d, Y8 t# X
00:00:00.000                             : en:Chapter 01
; z1 e4 o* _1 A, Z$ O5 c00:07:36.747                             : en:Chapter 02/ v. i" ^+ V" s3 o! ?: Y; c
00:20:23.055                             : en:Chapter 036 s/ ]2 |% I/ k& e2 A) T. Z
00:27:33.068                             : en:Chapter 04, U. t7 M8 Y) O# T/ i( Q$ p, c( K
00:34:44.916                             : en:Chapter 05
- w: P$ V) N* U- I00:39:50.137                             : en:Chapter 06! _  E& [/ I" H6 |2 n9 s  t* Z
00:58:07.609                             : en:Chapter 07
: X. m+ c- ]4 T6 {01:04:54.473                             : en:Chapter 084 p8 m* ]+ B+ Z: U* U" N
01:22:08.840                             : en:Chapter 09
5 P% k$ ~: Z' z7 K01:29:38.998                             : en:Chapter 10) W, I* T& z& ?( s
01:50:54.648                             : en:Chapter 11, J8 _- b/ {/ i: L( Z0 R
01:58:07.205                             : en:Chapter 12
Mary.Shelleys.Frankenstein.1994.2160p.UHD.BluRaycd.x265.10bit.HDR.DTS-HD.MA.5.1-GUHZER 37.09 GB: w: |& y" g- b  T
7 N' M7 V' ~  T" M. V/ I, C
Video
6 j5 e9 ~# H, g4 {- }" N. q" `# s; r7 fID                                       : 13 I# ]: p6 r/ _
Format                                   : HEVC
/ S7 N, x; }$ C2 s. O6 eFormat/Info                              : High Efficiency Video Coding
( R& O" ~8 ~! K7 c, SFormat profile                           : Main [email protected]@High9 U6 f) P" g8 x7 {
HDR format                               : SMPTE ST 2086, HDR10 compatible
) m( @- A5 B' ?Codec ID                                 : V_MPEGH/ISO/HEVC
8 L$ y6 U) s9 mDuration                                 : 2 h 3 min
' U0 @' ~% M9 ]9 V1 nBit rate                                 : 39.1 Mb/s
8 t# I. A. P6 eWidth                                    : 3 840 pixels/ c; k+ m, f  _; ]2 K2 ~  S
Height                                   : 2 076 pixels7 X) L3 j- d! R# v' p+ ]% J4 {
Display aspect ratio                     : 1.85:1
( O- Y" s3 M! Q/ k* MFrame rate mode                          : Constant0 |3 G- n. {$ v& u7 t8 M$ g
Frame rate                               : 23.976 (24000/1001/189150) FPS' I6 p/ O+ g& x; G
Color space                              : YUV
# i0 x: @0 a1 r( @5 ^Chroma subsampling                       : 4:2:0 (Type 2)
" L5 z- h& X1 D; F) k( q9 ABit depth                                : 10 bits
7 ^9 T1 ~8 c) [4 Z+ wBits/(Pixel*Frame)                       : 0.2040 e2 g( o' l) b( @6 r
Stream size                              : 33.6 GiB (91%)
# S, n0 M. _* t8 j! ^  H/ S7 i+ }Writing library                          : x265 3.5
" o5 l) g+ W: l* y3 p( C8 R/ o: Z  _
游客,查看本帖隐藏内容请回复 | 加入VIP可免积分免回复 了解详情 | 还不是会员:点击获取邀请码 Invitation Code

本版积分规则

小黑屋|Archiver|蓝光电影资源网

GMT+8, 2022-9-29 23:24

Copyright © Tencent Cloud.

快速回复 返回顶部 返回列表