BluRayCD Forum

 找回密码
 立即注册【分享大片】
查看: 16|回复: 0
收起左侧

[经典影片] 费城实验/飞越时空/第四度空间 [重制版] The Philadelphia Experiment 1984 REMASTERED 1080p BluRaycd x264 DTS-HD MA 5.1-NOGRP 9.21GB & 7.81GB

[复制链接]

1万

主题

1万

帖子

11万

积分

Post Share

金币
23176 枚
体力
23474 点

卓越贡献勋章

mvods 发表于 2022-5-24 10:15:56 | 显示全部楼层 |阅读模式

3 Z) q) o( _# i( y  r
- `% S* M0 o8 a) c  m0 v◎译  名 费城实验/飞越时空/消失的1943/费城超时空试验/第四度空间
/ h+ x( r  D2 T8 T. I' P2 \◎片  名 The Philadelphia Experiment
) u+ Q3 o0 ?( z. `◎年  代 1984
3 _  Y. y7 {) \& I" W2 A. s◎产  地 美国
- o- k, s) H: H0 B# u% q4 X◎类  别 剧情/爱情/科幻/奇幻/冒险) ~/ E% E, [5 q8 ?5 e5 D, z
◎语  言 英语
8 Q5 D  o6 P$ U. D, d◎上映日期 1984-08-03(美国)6 Y3 X4 q, d3 v0 R5 o  Z# \$ Z. E
◎IMDb评分  6.1/10 from 15,402 users
7 c* z' G4 r4 M) K* g# b, Z◎IMDb链接  https://www.imdb.com/title/tt0087910/. ]9 D6 c6 L  E! M
◎豆瓣评分 7.0/10 from 1,805 users9 k( k2 S' A7 O$ f  K/ ~
◎豆瓣链接 https://movie.douban.com/subject/1297489/$ D, R8 M. ~  p$ X* \. E* N& t; A
◎片  长 1 h 41 min2 S5 v  }! ?' [1 b4 {
◎导  演 斯图尔特·拉菲尔 Stewart Raffill + p6 ~/ s9 o1 @4 ?7 E
◎编  剧 查尔斯·贝尔利茨 Charles Berlitz
. [9 i( O9 Q* d$ I( |/ _, @7 Q) Y       唐·雅各比 Don Jakoby 9 G( F, d0 V6 T/ b$ E( F
       迈克尔·雅诺韦 Michael Janover
, I3 a0 J# j. W0 J, S       William Gray
$ @8 N- K' y7 K/ O  U◎演  员 迈克尔·帕尔 Michael Paré
$ r/ k, {- v9 P! b       南茜·艾伦 Nancy Allen ; M, H3 Q1 ]+ r- |3 P2 \$ T
       埃里克·克里斯马斯 Eric Christmas 8 k# c* z7 b: ~' u
       拉尔夫·曼扎 Ralph Manza. t. ^. q4 p+ h5 U+ `9 k7 `8 G
       Miles McNamara
0 R5 g0 W5 C1 w. D/ D2 a1 X       Stephan O'Reilly
8 o$ u" {" S9 i/ p       Rodney Saulsberry
' f: g) c- _1 ?4 @; t; Q       Bill Smillie Bill Smillie 9 f0 L* \2 C# n
       斯蒂芬·托布罗斯基 Stephen Tobolowsky
- o6 q! v. \4 r2 l# ?       Don Dolan Don Dolan
8 ^6 K! x. x% w9 A5 a/ A       格伦·莫肖尔 Glenn Morshower " S' F4 p# d+ ]) X! O
       加里·布罗克特 Gary Brockette
) u% ?/ n5 c7 s. ], t       柯耐·霍利戴伊 Kene Holliday
. C9 `7 H" y, }% D       埃德·巴基 Ed Bakey
+ G7 m9 l, K( w       沃恩·阿姆斯特朗 Vaughn Armstrong ' `6 I+ B: q' X" o# a
       迈克尔·柯里 Michael Currie
+ E/ P( `% o, U0 ^9 Q! v       Vivian Brown Vivian Brown
- }! t4 W3 Y" e5 v  k; Y       路易莎·兰瑟姆 Louise Latham ) I% e4 W. p" C  j& ]
       Douglas Curtis
2 ~+ U0 }# t( C$ B% d) S' @0 F       约翰·卡朋特 John Carpenter
2 u2 t& w3 u: C       Kenneth Wannberg 4 l' j4 S, M: z$ n* N8 N
       迪克·布希 Dick Bush 1 r- ^7 H( b, f" k) L, @
       尼尔·特拉维斯 Neil Travis & c# L9 V9 \' [) |' F. v# d9 }
       Linda Francis Linda Francis
: |3 n' }! i: S( k2 n       Annie Maniscalco
! ]( R" R: b+ V4 _% [       Pat Kehoe Pat Kehoe 3 b5 n: j+ H! i! s  t( ?
       Craig Clark Craig Clark 8 ~0 I- P2 H5 ]$ |4 Q) o1 T
       Bret Mixon Bret Mixon
/ Q3 M! A/ v* ^
0 H7 _3 v! H) Y% p* j7 s◎简  介   / S) Z& w- t+ y+ x3 ^7 ]8 S) I
) I. a0 v6 T6 u0 r
  一艘美国海军驱逐舰护送参加了一次海军“隐身”实验,无意中将两名水兵送到了40年后的未来。+ E" i, L5 ]0 {0 r

7 Q" o% _- W& {0 m  A United States Navy destroyer escort participates in a Navy "invisibility" experiment that inadvertently sends two sailors forty years into the future.' ?$ ]2 j% f9 G7 f. w" Q- C# A
The.Philadelphia.Experiment.1984.REMASTERED.1080p.BluRayCD.x264.DTS-HD.MA.5.1-NOGRP 9.21 GB
  e# `% l) ]- V) i0 P4 s2 q
/ o4 G% O6 f: P6 T( y: I, X: q9 Z+ aVideo. {& p- h5 q1 ~
ID                                       : 1
& P' S6 E, e# [' e" `4 l9 {Format                                   : AVC
$ b: K2 m/ p1 b) z8 H/ aFormat/Info                              : Advanced Video Codec  m" v8 Y( L: d4 h
Format profile                           : [email protected]3 X9 }" M+ s: j1 A/ i& r
Format settings                          : CABAC / 4 Ref Frames
+ |: m" h1 l( j1 t# K8 JFormat settings, CABAC                   : Yes
6 o) T( V2 A2 y4 y$ }; dFormat settings, Reference frames        : 4 frames
# m, Z, h1 Q  _8 X1 A+ ICodec ID                                 : V_MPEG4/ISO/AVC
3 {" B/ E# {- [5 \, jDuration                                 : 1 h 41 min1 }; D! v6 _+ u& [% h0 Z5 I8 @
Bit rate                                 : 9 537 kb/s8 n0 G' ~9 m. z, l: w. L: A
Width                                    : 1 920 pixels' g9 l2 B5 G8 P6 z% [
Height                                   : 1 040 pixels% T' t1 V$ U$ W# s
Display aspect ratio                     : 1.85:16 ?9 J/ j; @6 K8 ]; j8 N3 y! v$ }
Frame rate mode                          : Constant7 ~; k2 I* U) D) [6 {$ N4 N2 h3 S" h
Frame rate                               : 23.976 (24000/1001/189150) FPS
- \, O- Q$ }3 r3 VColor space                              : YUV3 o3 Q" K: p( l# ]
Chroma subsampling                       : 4:2:0
: l( X. {7 J6 y; y4 uBit depth                                : 8 bits
- F, m; ?5 P+ H9 bScan type                                : Progressive- n) b/ Y" G5 S/ P5 r
Bits/(Pixel*Frame)                       : 0.199
7 C0 C2 K9 B! P+ P6 P9 T) s0 v3 nStream size                              : 6.74 GiB (73%)
; E6 A3 y- ]' h% w" k/ KWriting library                          : x264 core 164 r3094 bfc87b7! m1 y' ]2 A- X4 G0 J
Encoding settings                        : cabac=1 / ref=4 / deblock=1:-3:-3 / analyse=0x3:0x133 / me=umh / subme=8 / psy=1 / psy_rd=1.00:0.15 / mixed_ref=1 / me_range=16 / chroma_me=1 / trellis=2 / 8x8dct=1 / cqm=0 / deadzone=21,11 / fast_pskip=0 / chroma_qp_offset=-3 / threads=32 / lookahead_threads=5 / sliced_threads=0 / nr=0 / decimate=1 / interlaced=0 / bluray_compat=0 / constrained_intra=0 / bframes=3 / b_pyramid=2 / b_adapt=1 / b_bias=0 / direct=3 / weightb=1 / open_gop=0 / weightp=2 / keyint=250 / keyint_min=23 / scenecut=40 / intra_refresh=0 / rc_lookahead=50 / rc=2pass / mbtree=1 / bitrate=9537 / ratetol=1.0 / qcomp=0.60 / qpmin=0 / qpmax=69 / qpstep=4 / cplxblur=20.0 / qblur=0.5 / ip_ratio=1.40 / aq=1:1.002 ?) X! u4 p/ F7 |) w6 K
Language                                 : English
' Q9 |& R+ j2 h1 M7 w! l( ODefault                                  : Yes# }1 b# f! U8 c6 u% d
Forced                                   : No
+ W7 g9 w" y$ e" N* Y4 u* @) _1 @9 D2 A) b; }8 T6 o+ f$ u9 `" w& ^/ J
Audio: W; U4 w0 C9 q/ x" X6 D$ K' d
ID                                       : 2
# [. v2 q  z. z. `( w3 tFormat                                   : DTS XLL, i* z3 R4 {7 T7 ]/ {
Format/Info                              : Digital Theater Systems
* i6 e  T- _* j0 k: ]0 p; q4 i7 O6 `Commercial name                          : DTS-HD Master Audio
7 z, T, p2 g& N  I- X  R) s# mCodec ID                                 : A_DTS, ^# v4 x# U$ M: q8 r/ D( N* a
Duration                                 : 1 h 41 min
: V6 e* b/ F( x* S, H; n/ jBit rate mode                            : Variable
) c: V3 l6 K% t, v, n( V+ WBit rate                                 : 3 471 kb/s- D6 H' u6 G9 b0 v$ l
Channel(s)                               : 6 channels
9 n" z0 B$ U* ]$ J2 AChannel layout                           : C L R Ls Rs LFE3 |$ ?9 T3 k* X% V
Sampling rate                            : 48.0 kHz
. G- G1 I1 j* a( e) ?' |4 c0 {Frame rate                               : 93.750 FPS (512 SPF)
7 D( d6 t$ j, G1 _0 d+ ?Bit depth                                : 24 bits2 g. ?. B& i9 ^
Compression mode                         : Lossless/ i$ P7 _; S) C! |5 O  j' M) r' e
Stream size                              : 2.45 GiB (27%), r+ e0 l, H/ T* D9 W6 Y
Language                                 : English
! O' R; n4 j' a. Q- [Default                                  : Yes
& n9 ~2 @: K" h3 oForced                                   : No
/ J4 F- _7 w" K7 G; X! X9 i# h- P8 d6 a2 w# f+ C+ Q( \# W
Text #1
9 A: S/ {+ e4 YID                                       : 3: d6 I0 R$ t7 e4 O1 _! i% p8 ^
Format                                   : UTF-8& j- j4 v+ w: R. \
Codec ID                                 : S_TEXT/UTF8
# E% L7 b* z: B/ eCodec ID/Info                            : UTF-8 Plain Text/ d1 ]; O# K' J3 Q0 {" s" [
Duration                                 : 1 h 36 min$ g9 a" h& T. B# i; Q; Z7 I* c
Bit rate                                 : 51 b/s- h- ^/ X& N+ D- A; [
Count of elements                        : 934
1 @/ |4 Y  Z: k, E+ s0 d; VStream size                              : 36.2 KiB (0%)
6 l; S' Z2 e. t/ h& Y5 qLanguage                                 : English
- g! X5 a6 N0 A- v/ ADefault                                  : Yes
! ^0 p) t; R. x& CForced                                   : No# b0 x2 r+ X$ d* g$ a# q

, j) p! e  `' w: f2 t  LText #2
  F! x3 b3 h$ u5 D" @( \. Z: kID                                       : 4
7 u3 R7 k% g2 x5 t3 h* PFormat                                   : PGS( M1 k  X/ v9 X) D* l2 @
Muxing mode                              : zlib
, {- @" {/ U$ k  o) o7 iCodec ID                                 : S_HDMV/PGS
+ L7 G7 v, n" s& z$ S  H2 Q- ]" q$ o5 eCodec ID/Info                            : Picture based subtitle format used on BDs/HD-DVDs+ I) _. U. h- g0 I( f  y* G/ ~
Duration                                 : 1 h 36 min
7 d6 c% Y) B; o+ ~& `Bit rate                                 : 28.9 kb/s2 ^" S* [  s, w  [8 t2 L2 |7 W
Count of elements                        : 1882  e8 S( @  @7 m3 k, t2 e2 {( k% ~
Stream size                              : 19.9 MiB (0%)( F6 e; W7 l' a% ?
Language                                 : English6 u+ t0 a5 Q8 W9 M6 Q
Default                                  : No+ P, U1 ^. n- f7 M2 N* j% `
Forced                                   : No3 z( U/ `; J, q% b; L$ u

1 z* G9 @4 A7 X1 [) ZText #32 W5 t5 \, M: g
ID                                       : 5
! a& }7 |  Q+ l% v+ u9 E1 f* rFormat                                   : PGS% b) U# c2 T9 z" T; A
Muxing mode                              : zlib
' q* F( o' u; q, _, @/ BCodec ID                                 : S_HDMV/PGS  V6 c8 b) C+ k: Q& d1 l
Codec ID/Info                            : Picture based subtitle format used on BDs/HD-DVDs3 C- E2 ^! C# v' A' d. s! b
Duration                                 : 1 h 36 min' _2 V; G" V- M5 s9 ]
Bit rate                                 : 31.0 kb/s
3 S) _# }5 _9 v7 o% w* DCount of elements                        : 18908 k) e% x7 B6 x2 `
Stream size                              : 21.5 MiB (0%)" L  h( s! f0 M1 G) t  P2 B# C+ A/ E
Language                                 : German# n! j3 D2 X4 b8 g
Default                                  : No/ o  N+ w4 R$ H; T" W( N% f8 R' {1 W
Forced                                   : No* v0 d3 t/ W* e" {

3 J- w) c1 b  q! \Text #4( C8 M5 |. L, B$ \
ID                                       : 6  @$ k. K- @/ B; M$ l+ h
Format                                   : PGS
- S$ e3 y7 f' p% ~Muxing mode                              : zlib. P. Y- y2 _; I  u# O1 m
Codec ID                                 : S_HDMV/PGS
. N5 |: a; @( J! h, E, d$ [Codec ID/Info                            : Picture based subtitle format used on BDs/HD-DVDs
3 D1 c1 [6 {" G* SDuration                                 : 1 h 40 min
0 u1 Q: f8 f+ i  k9 }Bit rate                                 : 19.9 kb/s
9 A' N7 y% r# y5 _) V( yCount of elements                        : 1752. I! f& c% f' ?; f2 I3 k& }
Stream size                              : 14.3 MiB (0%)
4 v% S% J8 f; n# N8 q5 hLanguage                                 : French
0 j9 c  _3 j' N0 _Default                                  : No
' g! @+ `5 V1 W6 u, I( dForced                                   : No; b" G. z+ W9 y: ~0 h/ H
" J' T3 m6 B+ Y+ G) |
Menu
5 ?) O9 _6 \$ z% U00:00:00.000                             : en:Program Start/Main Titles, {1 W. D! b7 Q+ @4 n) t) n* X! c
00:01:01.058                             : en:1943
1 W4 S/ u: ], ~0 a( L1 l1 K00:08:44.630                             : en:U.S.S. Eldridge& V0 f3 N: V5 `, A
00:11:29.540                             : en:The Experiment Begins
  B: Q) u8 |* M& Q" v' p- m  p00:13:40.469                             : en:Unforeseen Complications. |3 W$ _; Q1 f! [5 O+ o% {
00:15:16.486                             : en:Journey to Nowhere
8 e4 I& e! B) _5 C% F00:17:31.563                             : en:Clues and Confusion
, }* S3 z1 W" u1 q: R& K00:23:11.930                             : en:Shock of the New$ s, w0 K* b+ b# j9 e9 d
00:28:04.970                             : en:Carjacked5 _, H$ N; ]) Y) c# f$ u  b% ]
00:30:39.080                             : en:Base of Operations4 f" e1 C4 {. W' t, Z# J, m- i
00:33:55.650                             : en:Taken into Custody' c/ ?/ m" J! k; t# l% e7 d4 s
00:39:24.305                             : en:Lost in the Storm6 ~- ]( T, t& I4 a
00:43:49.400                             : en:On the Run
% i  x) u- u7 n9 a, l  X00:47:06.940                             : en:The Vortex
  {9 y% U. D3 ^( |/ u; ?) U00:48:36.520                             : en:Making a Connection# u' k  H2 V7 b" `, v$ T
00:55:12.360                             : en:Into the Unknown1 R3 x3 e: T* l1 j
00:57:22.850                             : en:Sunny California1 w$ {9 W+ b9 L) q" p
01:00:05.760                             : en:Identity Confirmed
! u  {1 A, c2 \" p, [! x01:01:54.240                             : en:You Can\'t Go Home Again
2 U  i3 x9 t) j  u2 x( F4 l01:09:55.720                             : en:An Old Friend  i0 E% @3 M, ]! k3 J
01:12:45.380                             : en:Hot Pursuit0 }& G- D0 V  {2 @. W
01:15:23.380                             : en:Soulmates
! C- I# V/ ^6 n* O, d" C01:17:49.480                             : en:The Storm Rages. t, e: O8 a/ J
01:23:04.720                             : en:The One Man Who Can Help
' {  J" s! N  @) x* b01:26:03.220                             : en:Final Farewell3 l/ ?# _4 M8 P1 ?% K. U
01:28:12.750                             : en:Desperate Mission  O/ M, k5 B- F, @  Q
01:33:29.300                             : en:Return of the Eldridge5 o# B1 A9 P7 d( {
01:34:40.470                             : en:Back to the Future; {: ?  X/ A+ ^  C
01:37:33.420                             : en:End Credits
The.Philadelphia.Experiment.1984.REMASTERED.PROPER.1080p.BluRaycd.x264.DTS-NOGRP 7.81 GB3 r9 B; y* Z3 M9 m
) _0 P( w. I( s  y  P0 D# }% N2 \
Video
, U( c2 M* ^6 K' O# M  ]3 xID                                       : 1
& p+ W! L& B4 Z5 m, h" lFormat                                   : AVC
. U6 ?' o* e3 I% r/ m$ N1 c' iFormat/Info                              : Advanced Video Codec
0 h  y* l& L+ [6 {" x4 k; M- a3 GFormat profile                           : [email protected]
. L% s% _, x5 P) W1 i/ nFormat settings                          : CABAC / 4 Ref Frames* m6 f: L3 u' I
Format settings, CABAC                   : Yes
' L2 ^) C1 ~) o, V) U. m4 X$ xFormat settings, Reference frames        : 4 frames
9 B$ [7 Q1 V6 f0 }+ i& v9 PCodec ID                                 : V_MPEG4/ISO/AVC
! [& w- t# R7 ~3 ?# T; k" {0 bDuration                                 : 1 h 41 min
9 O1 A, w% _6 c9 o5 T6 [. L  PBit rate                                 : 9 537 kb/s' \; D7 L, ~3 j& {. K. J3 c
Width                                    : 1 920 pixels
/ k9 r  ?% N1 G4 V* `1 E: QHeight                                   : 1 040 pixels
/ q  H0 }( S' m+ H5 W( DDisplay aspect ratio                     : 1.85:1
  h9 v! P& t) u7 j5 b/ f+ ]5 }Frame rate mode                          : Constant
2 f6 N9 A8 W7 I9 v- g6 t& l  c1 O' OFrame rate                               : 23.976 (24000/1001/189150) FPS
: W/ q9 h6 n- }5 p" MColor space                              : YUV8 b& V% k0 `, u
Chroma subsampling                       : 4:2:00 m/ e9 ?" _+ ^1 J" r- b
Bit depth                                : 8 bits! J5 R8 l9 A: w
Scan type                                : Progressive0 M6 F6 r! y+ n% P! Z* m4 ?
Bits/(Pixel*Frame)                       : 0.199
( i3 F  @3 w3 H: b5 H( bStream size                              : 6.74 GiB (86%); e, X. m6 }! x. s) L8 D% A/ e
Writing library                          : x264 core 164 r3094 bfc87b72 r/ V8 N+ A' u. |0 \" F
Encoding settings                        : cabac=1 / ref=4 / deblock=1:-3:-3 / analyse=0x3:0x133 / me=umh / subme=8 / psy=1 / psy_rd=1.00:0.15 / mixed_ref=1 / me_range=16 / chroma_me=1 / trellis=2 / 8x8dct=1 / cqm=0 / deadzone=21,11 / fast_pskip=0 / chroma_qp_offset=-3 / threads=32 / lookahead_threads=5 / sliced_threads=0 / nr=0 / decimate=1 / interlaced=0 / bluray_compat=0 / constrained_intra=0 / bframes=3 / b_pyramid=2 / b_adapt=1 / b_bias=0 / direct=3 / weightb=1 / open_gop=0 / weightp=2 / keyint=250 / keyint_min=23 / scenecut=40 / intra_refresh=0 / rc_lookahead=50 / rc=2pass / mbtree=1 / bitrate=9537 / ratetol=1.0 / qcomp=0.60 / qpmin=0 / qpmax=69 / qpstep=4 / cplxblur=20.0 / qblur=0.5 / ip_ratio=1.40 / aq=1:1.00' I4 z6 f4 g6 O! G8 a$ f
Language                                 : English1 y" n: T& G5 W0 W* e
Default                                  : Yes' J# s9 Q, p/ C3 Z* q1 t
Forced                                   : No
! Z% ^$ |/ C. m! t+ Y( a2 o2 e- J; E2 K- m; Q/ m8 p" K/ z+ Y
Audio
" J5 s* o& X; g; l. m7 n/ ], W! JID                                       : 2! S% T2 {) T1 w4 f! T
Format                                   : DTS
- h) h7 J+ A3 ?/ t3 J' n. WFormat/Info                              : Digital Theater Systems
5 F  G( [" P0 B' V  w; UCodec ID                                 : A_DTS# P. z. @2 I7 a  S3 ~
Duration                                 : 1 h 41 min- m: P' G3 |2 S* z' Q/ R
Bit rate mode                            : Constant; L* O' @  F1 d  S
Bit rate                                 : 1 509 kb/s' U* \) ]7 g& w* j
Channel(s)                               : 6 channels
9 ]2 F: N8 S! {7 m# |- }( r7 |Channel layout                           : C L R Ls Rs LFE  O% q8 S* E' q; _$ ?- P
Sampling rate                            : 48.0 kHz
: @* T7 j- o! L1 XFrame rate                               : 93.750 FPS (512 SPF)% A. i2 I7 y  B2 [& o0 q
Bit depth                                : 24 bits
9 _6 U- d$ ~. t9 r# B0 N1 C0 }9 d+ xCompression mode                         : Lossy, }' ^8 t5 d: s" ^1 a8 P  N& |
Stream size                              : 1.07 GiB (14%), R/ M& \9 [- I( E6 X8 q7 h/ ]
Language                                 : English9 B) p! R& `/ t3 I  Q+ U1 R
Default                                  : Yes
& j- ?# }6 l! a. D8 N9 p0 [( NForced                                   : No
6 q9 V) r3 }* [" u8 j6 M5 e4 \, @
% I/ C4 x$ Z: Z+ S6 Q/ i8 W# UText+ Q& H0 m7 w  G6 Q1 N- |
ID                                       : 3
5 S. t1 i) I# J! hFormat                                   : UTF-8
' L* e$ J4 b3 _Codec ID                                 : S_TEXT/UTF8
" C* u4 C: L: R) f6 _$ G* L+ b0 @Codec ID/Info                            : UTF-8 Plain Text# ^; `- R8 K: U5 `4 U  ^3 |3 t. d
Duration                                 : 1 h 36 min
( c7 w. m' D) p7 Q7 t) e/ A7 EBit rate                                 : 51 b/s
: j8 q3 b9 M* y2 a' y1 xCount of elements                        : 934
3 V% A1 \- E1 b" u( D  @# H  r6 @Stream size                              : 36.2 KiB (0%)
; ^% _0 i" O. Z3 KLanguage                                 : English: V. }8 r$ k; `' m1 I/ \
Default                                  : Yes: x6 _. u9 i8 h- G, L! w
Forced                                   : No
1 L6 _# J& G  O  ]( N& K" ]! Y2 d3 u5 n9 t/ A$ K' E# P
Menu
$ u1 M6 B% Y- V: n3 n) [00:00:00.000                             : en:Program Start/Main Titles
3 Z( X$ B/ A/ ]/ x# v00:01:01.058                             : en:1943* H( A: V! F2 g# K
00:08:44.630                             : en:U.S.S. Eldridge
+ @! f8 x  x. S/ ]2 M9 X00:11:29.540                             : en:The Experiment Begins. w9 ]& C5 B$ M/ y0 K
00:13:40.469                             : en:Unforeseen Complications
$ Y; {+ Z6 D' n1 d. x& g00:15:16.486                             : en:Journey to Nowhere
) {4 V+ c+ g3 I# K! g00:17:31.563                             : en:Clues and Confusion* v" J( {+ S/ q* Q' a9 f: h
00:23:11.930                             : en:Shock of the New
+ L3 |: g4 o! [' H7 J00:28:04.970                             : en:Carjacked7 i/ m4 W; Y+ u: }0 z$ B
00:30:39.080                             : en:Base of Operations
, Q7 @% y9 r. w1 Y5 y00:33:55.650                             : en:Taken into Custody7 B5 j% _4 n- o8 o; i4 G
00:39:24.305                             : en:Lost in the Storm
' s- R! w, Z- a1 _! Z00:43:49.400                             : en:On the Run
/ `! h/ ~& u% L4 y9 i00:47:06.940                             : en:The Vortex
/ C  r$ _, p) d00:48:36.520                             : en:Making a Connection5 d4 A* Q: Y4 W
00:55:12.360                             : en:Into the Unknown
7 p( M( Z0 D& x00:57:22.850                             : en:Sunny California, x, Q/ \0 s5 z3 l
01:00:05.760                             : en:Identity Confirmed3 F' z- d$ g' V3 M5 H9 O( Y# T
01:01:54.240                             : en:You Can\'t Go Home Again$ K  S( g" O! W2 x# f8 u
01:09:55.720                             : en:An Old Friend2 D4 \( i8 Y3 S; g0 r
01:12:45.380                             : en:Hot Pursuit
3 Q9 X4 h: D4 k' \, _) T; C01:15:23.380                             : en:Soulmates
$ s7 \  K" P) K9 Z( E4 ^01:17:49.480                             : en:The Storm Rages4 }& b: E1 [8 W& B  m4 n7 h( u9 W
01:23:04.720                             : en:The One Man Who Can Help
; G: k- d1 k0 f01:26:03.220                             : en:Final Farewell
; s: Q0 |0 Z+ Q01:28:12.750                             : en:Desperate Mission; C$ q3 K3 G0 J9 s9 l
01:33:29.300                             : en:Return of the Eldridge6 N- L6 p& T: h5 E
01:34:40.470                             : en:Back to the Future
4 U, @" x' g9 h3 N& D) F01:37:33.420                             : en:End Credits
Video- Z7 p3 J) R* s
ID : 1* x- g! E& L/ X$ b0 u
Format : AVC
3 i  A6 O1 R2 i( SFormat/Info : Advanced Video Codec
+ M+ h0 H) E3 x( G2 wFormat profile : High@L4.1& q1 `8 ^( b4 u
Format settings : CABAC / 4 Ref Frames4 q' L! z8 \* ]
Format settings, CABAC : Yes
8 X) y7 X. ]# yFormat settings, Reference frames : 4 frames
, N* I9 v9 k" Y+ dCodec ID : V_MPEG4/ISO/AVC
8 L' f# B& ^1 @1 `1 `Duration : 1 h 41 min2 t. m' t5 w& r6 Y
Bit rate : 18.7 Mb/s
. b$ }: z0 P! _! G; w3 d3 [Width : 1 920 pixels
5 ]3 a' U/ _$ |) _0 \8 P! `Height : 1 040 pixels
: g( R% V% Z9 ]1 GDisplay aspect ratio : 1.85:12 F$ t+ u- C8 e0 P1 X$ j
Frame rate mode : Constant
4 L/ O4 s' u# ?1 s0 \! d' nFrame rate : 23.976 (24000/1001/189150) FPS# h% Y; S# a* D: ]6 s6 S( D1 O
Color space : YUV  y: v3 j; r) G" Y& [0 G
Chroma subsampling : 4:2:0
6 y9 N" p) K( _0 H, m( j& `Bit depth : 8 bits9 _+ h7 O' {1 Z4 m4 |% M3 \; k
Scan type : Progressive. d7 C+ q3 a. \; K& s) Z5 B
Bits/(Pixel*Frame) : 0.391
+ `9 a3 J, Z/ Z2 M9 JStream size : 13.2 GiB (97%)
, M8 ~! v+ k% S0 r) ^+ w4 w& _Writing library : x264 core 164 r3094 bfc87b7
+ X) M( w4 D& j& W/ n& eEncoding settings : cabac=1 / ref=4 / deblock=1:-3:-3 / analyse=0x3:0x133 / me=umh / subme=9 / psy=1 / psy_rd=1.00:0.00 / mixed_ref=1 / me_range=16 / chroma_me=1 / trellis=2 / 8x8dct=1 / cqm=0 / deadzone=21,11 / fast_pskip=0 / chroma_qp_offset=-2 / threads=32 / lookahead_threads=2 / sliced_threads=0 / nr=0 / decimate=1 / interlaced=0 / bluray_compat=0 / constrained_intra=0 / bframes=3 / b_pyramid=2 / b_adapt=2 / b_bias=0 / direct=3 / weightb=1 / open_gop=0 / weightp=2 / keyint=250 / keyint_min=23 / scenecut=40 / intra_refresh=0 / rc_lookahead=60 / rc=crf / mbtree=1 / crf=20.8 / qcomp=0.60 / qpmin=0 / qpmax=69 / qpstep=4 / ip_ratio=1.40 / aq=1:1.00
$ A; U& u+ p4 @9 ~Language : English
2 `* [/ J0 b: i# P& C$ }. eDefault : Yes
( u$ r1 R2 b1 W2 e6 XForced : No. d$ J" b/ h8 P( I7 V4 K
0 m. i3 j3 n" u5 v
Audio
! ^5 {3 h: Y$ r7 l+ MID : 23 E0 V; v" p( `+ F4 Q
Format : FLAC2 F2 u1 G+ a3 M% X! Z4 H
Format/Info : Free Lossless Audio Codec
9 J7 }! I2 d  T8 q  ~Codec ID : A_FLAC
9 J: R9 l; w$ P" K8 BDuration : 1 h 41 min+ o4 N0 O, d3 Z4 o) U
Bit rate mode : Variable5 _; r/ u- W5 A! `2 K* b# K. y) i1 Z
Bit rate : 524 kb/s. ~8 M% i) J% j6 Y7 \
Channel(s) : 2 channels
0 B# t: s: l. m4 AChannel layout : L R7 e; u. X6 h# `0 j
Sampling rate : 48.0 kHz' i2 O8 W0 |  Z+ x, \
Frame rate : 11.719 FPS (4096 SPF)* P8 f* B0 I# D! |6 Q, X. K3 d
Bit depth : 16 bits
0 l2 G" m1 c# |7 U# QCompression mode : Lossless( e/ }/ r) S4 ]' U- H7 e
Stream size : 379 MiB (3%)  w8 p# r# w- Z* l  N% D$ Z, p
Writing library : libFLAC 1.3.2 (UTC 2017-01-01)& I' j9 |" a3 E' _, @$ Q+ a
Language : English' i' E4 }6 i1 `, z" a5 s, o* U* j
Default : Yes
" _) y$ k+ r: Z2 r$ r3 C9 Q: `Forced : No6 i, _# e, m' T# }$ ?4 P
4 ^8 N% T. ?+ M/ a/ ]! ?, \
Text #13 m8 |1 E3 F& f
ID : 3) d$ \1 d# n- l6 s, y. n* d! ?
Format : PGS
& t, ~5 D! E% W; h! I3 O: YMuxing mode : zlib
' k: r. Y  c7 ^: U. CCodec ID : S_HDMV/PGS. w6 T4 q! j- N
Codec ID/Info : Picture based subtitle format used on BDs/HD-DVDs7 C5 b; o: g/ W
Duration : 1 h 36 min
, N( d) g4 v$ O9 a! A. u, i1 lBit rate : 28.9 kb/s
; _2 f' l: h& c- D' ?2 ?Count of elements : 1882
3 N# g: t5 C0 d$ f  _1 Z: J3 oStream size : 19.9 MiB (0%)
5 N( f* Q( G7 h; B' WLanguage : English4 b8 y3 X5 j' E+ l# k
Default : No
/ @6 P8 Z& o- z. Q5 EForced : No
9 V7 O7 p* Z, L& n/ L$ V3 ~9 ~
, F" B- ?" v  iText #2$ P) i' j* v6 o$ x
ID : 4" g* x) N1 e2 L" y6 R$ W
Format : PGS' B2 j- \7 G! H  B& K1 q
Muxing mode : zlib# m! C4 S9 R4 A# F
Codec ID : S_HDMV/PGS* b- ]- r! z2 E! a, `" P
Codec ID/Info : Picture based subtitle format used on BDs/HD-DVDs0 x) R1 ~7 a$ f1 G# O
Duration : 1 h 36 min
. H' _+ z. Q& }* x$ T3 ^* SBit rate : 31.0 kb/s' W4 M) H; w/ L  |2 r2 t
Count of elements : 1890
, ]! `; z0 c' i; j8 kStream size : 21.5 MiB (0%)# P# ^0 m  l( @
Language : German
+ {) Z$ D& T2 d) x3 \( QDefault : No
+ A8 @" [  M' ^" OForced : No
% Y  _7 B! ~% O) `8 v, @/ j7 R. P, U; k! B
Text #3
6 [1 _* q" [! q- {ID : 58 O, a! L1 r  e; u1 R0 V# H
Format : PGS( Y) K2 }- ~0 @8 q- C  N
Muxing mode : zlib
: _: T" P( m! u) Z) ZCodec ID : S_HDMV/PGS) K7 p. ^- N) I8 A6 y
Codec ID/Info : Picture based subtitle format used on BDs/HD-DVDs
9 n0 q) a% |% a  w* }- `7 bDuration : 20 min 41 s! J8 w6 E/ \7 ^  ]
Bit rate : 1 318 b/s
  I! w* U) A( ^3 }0 q2 ICount of elements : 12
2 t# Y9 }0 Z% t1 JStream size : 200 KiB (0%)
  i" z6 t; Q9 E& R4 o) F$ X1 XLanguage : German
4 C5 b6 @2 L( WDefault : No
2 @4 D1 [+ H9 cForced : No
3 \1 F% _' m& b0 b% p  `1 m( S* w& m1 A; e5 X$ i
Menu5 ]7 V3 G8 h1 T& q% a, D6 v% B
00:00:00.000 : en:Chapter 013 Z  Y; t# U" v2 Y4 n
00:08:44.649 : en:Chapter 02+ K4 }, }. a6 |7 ?9 u; I( {. u
00:17:32.301 : en:Chapter 03
  Q- q" u, s3 U7 d, c' U7 Z00:23:12.057 : en:Chapter 04
; @" G1 J) D3 r4 Q  z! L: M0 Y- `00:30:39.171 : en:Chapter 05! z' b" ^3 k& \" W7 W: O& a) H
00:39:24.862 : en:Chapter 06
" }8 m$ w1 n, b4 n2 Y9 {7 G00:47:07.324 : en:Chapter 074 V, I$ I' n5 k! B/ y
00:55:13.185 : en:Chapter 08: ~6 a/ \# ?8 }( E( I, V1 X) `
01:01:54.252 : en:Chapter 09. }' g" `7 x# A  P% O; g
01:05:50.864 : en:Chapter 10& B9 U6 T. o+ z8 C. m
01:12:08.282 : en:Chapter 11
6 N, Y9 q' f' c1 t" P1 p$ Q; @8 R01:15:23.436 : en:Chapter 126 _/ K8 A5 [) Y
01:19:35.813 : en:Chapter 13
1 i5 k2 \8 m6 W01:28:12.913 : en:Chapter 147 g7 A  n* J( y7 D8 ]$ b
01:33:33.691 : en:Chapter 15
- R4 @/ E& I* X01:37:33.431 : en:Chapter 164 a, |* U! J, y, t7 ?

; K# W$ {- A* a9 Z# X& E) j. CThe.Philadelphia.Experiment.1984.REMASTERED.1080p.BluRaycd.x264-OLDTiME 13.61 GB: l6 p. M5 b5 V! v) y; M

% O- V3 |( y' ^5 g* }* ?Rel.Date...: 21.05.2022* S1 {. ?) f8 @$ J; }
Reso.......: 1920*1040 px0 W7 Y0 H0 E. n5 j* k' i( n
Bitrate....: 18,7 mb/s
; R  k  V1 J' O) DSource.....: 35,7 mb/s6 E7 S7 \3 B$ e( A$ f' V. E
Audio......: flac, z# p; ]& D5 j) Z) O- B' n
link.......: https://www.imdb.com/title/tt0087910/
' H" l0 \/ c& S1 C& fNotes......: compare on proof
. C3 z/ {5 ~+ F0 t: q, Y/ x1 ?! @
游客,查看本帖隐藏内容请回复 | 加入VIP可免积分免回复 了解详情 | 还不是会员:点击获取邀请码 Invitation Code

本版积分规则

小黑屋|Archiver|蓝光电影资源网

GMT+8, 2022-7-7 06:11

Copyright © Tencent Cloud.

快速回复 返回顶部 返回列表