BluRayCD Forum

 找回密码
 立即注册【分享大片】
查看: 7|回复: 0
收起左侧

[经典影片] 费城实验/飞越时空/消失的1943/费城超时空试验/第四度空间 [重制版] The Philadelphia Experiment 1984 REMASTERED 720p BluRaycd x264-OLDTiME 7.44GB

[复制链接]

1万

主题

1万

帖子

11万

积分

Post Share

金币
23174 枚
体力
23470 点

卓越贡献勋章

mvods 发表于 2022-5-24 10:25:06 | 显示全部楼层 |阅读模式
7 @) i& Q- {$ b  {9 r9 X

' Y7 c* Q; \9 A2 d. G' J4 i◎译  名 费城实验/飞越时空/消失的1943/费城超时空试验/第四度空间
+ t2 e" k0 q  ^◎片  名 The Philadelphia Experiment
. A% d9 j' H' l! ^. I◎年  代 1984
$ z  C* A4 }& x◎产  地 美国
3 W/ T1 O+ O/ U0 o' L9 r, ^◎类  别 剧情/爱情/科幻/奇幻/冒险7 S% a2 A: S2 p; a
◎语  言 英语
7 H4 m3 p; X$ ]$ ^/ k9 J, l8 \◎上映日期 1984-08-03(美国)
5 d* V- Q3 \( N- X9 {◎IMDb评分  6.1/10 from 15,402 users$ Y  u* u- |4 _* i; N2 [6 C  Z
◎IMDb链接  https://www.imdb.com/title/tt0087910/
3 Z$ M: D# a; y' b9 A  Z8 o◎豆瓣评分 7.0/10 from 1,805 users' u, B0 I! N5 ?" \3 H
◎豆瓣链接 https://movie.douban.com/subject/1297489// o, I) ~0 q: ~  u
◎片  长 1 h 41 min
% b. u) x4 c; [. g- n/ A◎导  演 斯图尔特·拉菲尔 Stewart Raffill 8 X" ^3 m1 y" x4 d0 |, q+ b! t# u
◎编  剧 查尔斯·贝尔利茨 Charles Berlitz 9 {/ p2 _% J0 o/ H3 i5 [$ D
       唐·雅各比 Don Jakoby 1 K5 v6 ~$ P, K, Q. q: w
       迈克尔·雅诺韦 Michael Janover 4 D5 P/ A, j, [9 \3 G2 P
       William Gray
  C: u" u0 B  b. x6 z1 U◎演  员 迈克尔·帕尔 Michael Paré
" ~7 s: [: q( Y       南茜·艾伦 Nancy Allen
6 p# b, P$ B& o% q1 z3 R5 f       埃里克·克里斯马斯 Eric Christmas
$ ]0 t9 Y/ O* o/ O5 z: j       拉尔夫·曼扎 Ralph Manza: f5 F: d# {0 d% \# v
       Miles McNamara - b( s! T) f4 B2 P/ k, l, k
       Stephan O'Reilly
  {+ y+ z, ~* P       Rodney Saulsberry
" q- M, [, f4 C& t8 e       Bill Smillie Bill Smillie ! g. H* J$ k1 E* p# P
       斯蒂芬·托布罗斯基 Stephen Tobolowsky + i; T' N: p; `; |, a/ k0 J4 M% ]! _
       Don Dolan Don Dolan . Q6 _* Q- h2 Y( W7 r4 M
       格伦·莫肖尔 Glenn Morshower
3 V2 j/ \0 \, V2 ~4 C6 j/ u3 ?       加里·布罗克特 Gary Brockette - t! B# E7 H0 F* R
       柯耐·霍利戴伊 Kene Holliday # R6 a; a, r" L
       埃德·巴基 Ed Bakey * @- y& C6 ~5 b! @" L
       沃恩·阿姆斯特朗 Vaughn Armstrong $ F% z& a0 y3 o7 d, O, J7 p
       迈克尔·柯里 Michael Currie
8 M1 g6 A! z2 x       Vivian Brown Vivian Brown 7 ]; m8 C! r% @6 M# r) m
       路易莎·兰瑟姆 Louise Latham   g! @; Z- W% t
       Douglas Curtis 4 Z# z$ ~5 \+ R% a* ~, h
       约翰·卡朋特 John Carpenter
7 ]+ P7 V* |: q9 \: u/ {       Kenneth Wannberg
4 y7 K$ G9 P8 {2 R       迪克·布希 Dick Bush
9 M& {$ e. k, a7 W& Z/ ?+ H, i  u       尼尔·特拉维斯 Neil Travis
' m; F: n! Z1 ?       Linda Francis Linda Francis
) v! l# Q- [1 ^1 x, e+ f, [) j# ]       Annie Maniscalco 2 M  i3 g9 o4 M& l
       Pat Kehoe Pat Kehoe
' b  F& Q5 l% _* c$ j8 q       Craig Clark Craig Clark + W+ G( N4 j+ S4 i& {
       Bret Mixon Bret Mixon ' V8 Q- X1 Z2 v$ I
; u/ A$ `1 e: X2 i& o! q
◎简  介   
1 b" r# x/ @: |6 w& A4 f( l9 m5 c+ Q0 p% w9 E0 w
  一艘美国海军驱逐舰护送参加了一次海军“隐身”实验,无意中将两名水兵送到了40年后的未来。! `- a& F, j/ r; e, g
# N; P, C0 x, ?, O8 w  _
  A United States Navy destroyer escort participates in a Navy "invisibility" experiment that inadvertently sends two sailors forty years into the future.
/ l$ r/ c/ d& |
Video
: K1 V& O/ k0 P- a3 P! Z/ oID                                       : 13 [9 T' R0 {) u+ b: J8 G! a
Format                                   : AVC
- q& `0 p* H! U/ y7 O. y, iFormat/Info                              : Advanced Video Codec
- g% r0 k6 q- j. B' t5 W0 `, eFormat profile                           : [email protected]4 x. _7 N  h- z' k$ Z' B4 d
Format settings                          : CABAC / 8 Ref Frames
$ v5 k5 f* s, b4 ]' QFormat settings, CABAC                   : Yes' J4 S0 C* s' s1 V4 d- L. t% Q
Format settings, Reference frames        : 8 frames
% H* m: ^2 t9 h2 |) P" a. kCodec ID                                 : V_MPEG4/ISO/AVC
5 I3 Q$ Z1 M9 `* sDuration                                 : 1 h 41 min
3 W- @3 R0 k4 z; E/ [Bit rate                                 : 9 987 kb/s9 `" ^4 m  G9 t) X
Width                                    : 1 280 pixels
0 l( k0 ~8 T% U# b& {5 Y6 [; EHeight                                   : 694 pixels
) C+ D- B# b0 s7 T$ o& ADisplay aspect ratio                     : 1.85:1- j$ ~9 E' a0 x& j8 A0 f8 p( s8 c
Frame rate mode                          : Constant! r- V" @" g6 [% f9 E" y
Frame rate                               : 23.976 (24000/1001/189150) FPS$ V  }& b4 h0 V0 X) N  W
Color space                              : YUV
3 x. X" Y3 g# o- S2 w/ nChroma subsampling                       : 4:2:0. {! b% \2 _" Z1 R
Bit depth                                : 8 bits) U: ]5 I5 y) P% g) w# v3 M- R
Scan type                                : Progressive* ~' Y3 [" a* }  ^/ N" }
Bits/(Pixel*Frame)                       : 0.469
4 ]$ }! ?) Q" v- i. M) dStream size                              : 7.06 GiB (95%)/ F' ~. f' f: I) B) p2 [7 r+ _+ U1 J
Writing library                          : x264 core 164 r3094 bfc87b7% c% _& Q3 `1 L8 k( ^' @
Encoding settings                        : cabac=1 / ref=8 / deblock=1:-3:-3 / analyse=0x3:0x133 / me=umh / subme=9 / psy=1 / psy_rd=1.00:0.00 / mixed_ref=1 / me_range=16 / chroma_me=1 / trellis=2 / 8x8dct=1 / cqm=0 / deadzone=21,11 / fast_pskip=0 / chroma_qp_offset=-2 / threads=22 / lookahead_threads=1 / sliced_threads=0 / nr=0 / decimate=1 / interlaced=0 / bluray_compat=0 / constrained_intra=0 / bframes=3 / b_pyramid=2 / b_adapt=2 / b_bias=0 / direct=3 / weightb=1 / open_gop=0 / weightp=2 / keyint=250 / keyint_min=23 / scenecut=40 / intra_refresh=0 / rc_lookahead=60 / rc=crf / mbtree=1 / crf=19.5 / qcomp=0.60 / qpmin=0 / qpmax=69 / qpstep=4 / ip_ratio=1.40 / aq=1:1.00% L. i" \; ~8 K& B5 _& t, A1 Z
Language                                 : English
  B$ E: T. U$ @* T1 P0 UDefault                                  : Yes$ J- e! U  M3 F# F
Forced                                   : No) S7 o" L7 h+ `7 X2 E

* o. v) ]$ t2 U" wAudio
+ m' h2 ^' n  ZID                                       : 2
$ K' h! |' P9 j  \& `Format                                   : FLAC# _( {7 h& n" r3 W  c
Format/Info                              : Free Lossless Audio Codec
% G2 }' z# w9 c0 a# L8 z3 iCodec ID                                 : A_FLAC
  l# r/ m* V: N6 qDuration                                 : 1 h 41 min0 d: G6 C& K7 ~6 r: Y+ M
Bit rate mode                            : Variable! I3 M9 W9 ?" K6 I/ K% W
Bit rate                                 : 524 kb/s5 p. }; Y. L* L" t+ E
Channel(s)                               : 2 channels
2 U$ A: @& n) [) ?Channel layout                           : L R, V5 J& O. s9 d4 T  E
Sampling rate                            : 48.0 kHz4 e8 n: [+ |2 n# r( P
Frame rate                               : 11.719 FPS (4096 SPF), N" S& m( ?6 V( Z4 G2 E& n
Bit depth                                : 16 bits* T# e' ?' L& T
Compression mode                         : Lossless
: I5 g. O3 ~; K' @Stream size                              : 379 MiB (5%)
' ?! t8 L' }+ M5 U! Y# PWriting library                          : libFLAC 1.3.2 (UTC 2017-01-01)
8 T4 t5 q* t3 a3 hLanguage                                 : English
; I% `1 H3 c* p# e" _4 ^4 ~Default                                  : Yes; A- A8 }6 X+ G9 G
Forced                                   : No) [- ^8 O4 G, j# m) D# c

: B! i2 M* R. f5 L6 ^" ?1 PText #1& h1 Z" ?" g5 ?4 M* @! N. z6 y
ID                                       : 3. @! p  t  ~/ A% T8 H$ `& @/ o
Format                                   : PGS* }0 Z# w/ y2 Q0 ~* V; A) N0 h
Muxing mode                              : zlib
; K& l1 [$ p# v: SCodec ID                                 : S_HDMV/PGS7 O# `+ }; {( z& z& [( o' ?
Codec ID/Info                            : Picture based subtitle format used on BDs/HD-DVDs% W  B* @* V, d" H) ^
Duration                                 : 1 h 36 min
9 \2 I3 m' w4 ^5 DBit rate                                 : 28.9 kb/s
9 c# O$ |  C! l9 W9 C! b7 ~+ O$ \Count of elements                        : 1882
, l1 O' ?3 n' d  Z/ H. e- Z  D; JStream size                              : 19.9 MiB (0%)* e. t5 R6 F2 f
Language                                 : English- G" N/ k. \5 F2 a
Default                                  : No
6 }7 X* |$ q- y  t  |% JForced                                   : No
1 b! n1 j! l; c6 N$ V
0 M/ i% J+ t$ I' i$ i# wText #2
9 Z) S* L4 n' q# L7 P7 hID                                       : 45 ]8 \3 C& Z6 D; t0 q' w) a& l, u
Format                                   : PGS- R% K' `5 S5 ?5 Z5 k+ U3 D; l
Muxing mode                              : zlib8 H$ R5 i- d- N2 V
Codec ID                                 : S_HDMV/PGS
  v' {2 K0 O6 |/ O' FCodec ID/Info                            : Picture based subtitle format used on BDs/HD-DVDs
0 s  F5 n& B1 b2 \9 M3 [9 Q: iDuration                                 : 1 h 36 min- `: p+ E3 L: a. b3 h+ M* J" H
Bit rate                                 : 31.0 kb/s
) I5 z, O- S, ^3 }9 _( v; B! I3 [0 PCount of elements                        : 1890
: Z) ]2 t8 M# ^! Z- q  w& CStream size                              : 21.5 MiB (0%)2 t. g+ s) r6 _1 ~* C; q, h2 t
Language                                 : German
' z+ J8 _3 q: b! `' jDefault                                  : No
- o/ Z0 `. T# H( D7 i5 ]# G) OForced                                   : No
' |/ S& g$ U4 m" L/ i( C+ H# e/ Y7 K! ~5 a
Text #3% B6 m8 `2 o7 N) z: z
ID                                       : 5
* K9 }0 ?- W/ Q. T) R( DFormat                                   : PGS; j  S# e* P. K  z8 a) o
Muxing mode                              : zlib
% @/ i6 A  V4 TCodec ID                                 : S_HDMV/PGS" J: r) B% `$ B& a! b" {
Codec ID/Info                            : Picture based subtitle format used on BDs/HD-DVDs
; Q9 e) r6 y/ `# IDuration                                 : 20 min 41 s
* k, ?, G: ~* r0 ~, K- cBit rate                                 : 1 318 b/s) G5 s% A3 G$ {
Count of elements                        : 12" k; H& T, O8 L* \( `2 R$ H) |
Stream size                              : 200 KiB (0%)
# L, ]6 }$ @' g9 j- xLanguage                                 : German
% \  \0 l0 s; c: r( _; _/ VDefault                                  : No7 n, C" ?4 e$ I0 g0 \/ J# j
Forced                                   : No5 D/ H6 E, s5 y$ H# n$ W

0 A0 @& I8 o) ^Menu
3 M' O, F9 X$ [1 x6 J1 w% Z00:00:00.000                             : en:Chapter 01
/ B- A6 D7 U" i+ J+ t- s  }/ h00:08:44.649                             : en:Chapter 02. p! Y$ O1 l, Z( d  b' l
00:17:32.301                             : en:Chapter 036 M' m& S" m2 m+ t
00:23:12.057                             : en:Chapter 04! z0 {- q# O* A; p, U
00:30:39.171                             : en:Chapter 05
3 B) p# l5 N; Y1 k+ r* V  O* x+ P' S00:39:24.862                             : en:Chapter 06! w9 E' h% {+ n* W" ]5 L5 @4 z3 `2 L
00:47:07.324                             : en:Chapter 07
2 ^' ?- |! n+ W, T+ |/ P. N00:55:13.185                             : en:Chapter 08
, U0 a0 w* D5 P0 V9 D2 g4 E; Y01:01:54.252                             : en:Chapter 09
6 k  R& T- `1 S2 K& G01:05:50.864                             : en:Chapter 10" n% O+ O! Y) Y; M; u: M2 w
01:12:08.282                             : en:Chapter 11
! _1 [! ?% P) M7 W01:15:23.436                             : en:Chapter 12: k* e. X$ G; t, l9 m
01:19:35.813                             : en:Chapter 13
( O3 M% W# I1 `. z01:28:12.913                             : en:Chapter 14
; @  s, h' v& I8 g+ [4 v% Y" g01:33:33.691                             : en:Chapter 15
0 E. U( S8 Q6 F3 i1 ~) V- W01:37:33.431                             : en:Chapter 16
* U. W1 q  o! ~1 Z" {3 p2 K. B8 _  I3 o
The.Philadelphia.Experiment.1984.REMASTERED.720p.BluRayCD.x264-OLDTiME 7.44 GB% W# s& B# D' h
4 x3 ]* }- w. h7 c& h
Rel.Date...: 21.05.2022
8 k6 u7 `* F) P+ ]4 I5 V% {3 _5 eReso.......: 1280*694 px
# C& ?5 j; Y5 ^Bitrate....: 9987 kb/s/ Q& L5 C$ N. N
Source.....: 35,7 mb/s
1 \, I; Y6 w2 d4 J+ {7 A! s) b  ]/ bAudio......: flac1 B( T( k# |5 E
link.......: https://www.imdb.com/title/tt0087910/
; e6 i- C' u, HNotes......: compare on proof
) S  m9 {) y: Y) Z# Q: R
游客,查看本帖隐藏内容请回复 | 加入VIP可免积分免回复 了解详情 | 还不是会员:点击获取邀请码 Invitation Code

本版积分规则

小黑屋|Archiver|蓝光电影资源网

GMT+8, 2022-7-7 05:45

Copyright © Tencent Cloud.

快速回复 返回顶部 返回列表