BluRayCD Forum

 找回密码
 立即注册【分享大片】
查看: 6|回复: 1
收起左侧

[蓝光原盘] 虎胆龙威1/终极警探 [REMUX无损版 自带中字] Die Hard 1988 1080p BluRaycd REMUX AVC DTS-HD MA 5.1-FGT 37.69GB

[复制链接]

7404

主题

7576

帖子

9万

积分

Post Share

金币
16600 枚
体力
23502 点

卓越贡献勋章

黄金嫖客 发表于 2022-8-13 08:18:44 | 显示全部楼层 |阅读模式
An NYPD officer tries to save his wife and several others taken hostage by German terrorists during a Christmas party at the Nakatomi Plaza in Los Angeles.
, j& [# W$ i, m9 x
/ u0 V9 \7 L9 e' o- L1 C" X6 b4 q 02.jpg
, H( w* `/ x0 K$ p/ \) f1 H3 l2 E4 w* L8 |5 }
◎译  名 虎胆龙威/终极警探(台). `" L( q2 _0 e" x* e, g
◎片  名 Die Hard / Piège de cristal / Stirb langsam: X* i9 k. A+ q$ Q: X
◎年  代 1988
, X: _9 }% v; |0 D; I- ]◎国  家 美国$ n' X# v# j5 F$ N( w2 @2 V2 l
◎类  别 动作/惊悚/犯罪( M' {  R- o/ |, |
◎语  言 英语/德语/意大利语/日语
. N+ r6 e- Z3 P- K! h◎上映日期 1988-07-20(美国)1 H/ ^1 k; _0 ?. |) @8 l
◎IMDb评分  8.2/10 from 865,118 users
: Q* F+ y) h; `4 ?◎IMDb链接  https://www.imdb.com/title/tt0095016/! Y0 M. M# t3 Q
◎豆瓣评分 8.2/10 from 78,222 users
0 s& r& v! k0 l' f  C5 U* d◎豆瓣链接 https://movie.douban.com/subject/1292697/
2 S! `( T& R' A9 K; P* V# ~0 C# u◎文件格式 x264 + DTS
. [. v- F% M, M5 |: {1 e5 e◎视频尺寸 1920 x 1080
/ [% L# H% C* w* S( N' k" r$ ]◎文件大小 1DVD 37.69 GiB. Z1 J+ q$ J0 b/ w
◎片  长 2 h 12 min, l2 Q. _  j# Y* }( J( X6 `3 P
◎导  演 约翰·麦克蒂尔南 John McTiernan
$ s- I+ A/ q/ D% n7 ~" _) m◎编  剧 罗德里戈·索普 Roderick Thorp
8 ~% X( G- Y" `1 d       杰布·斯图尔特 Jeb Stuart4 h7 V/ g% E' J. f
       斯蒂芬·E.德·索萨 Steven E. de Souza6 T, ?8 u- T/ l1 l2 p. M
◎演  员 布鲁斯·威利斯 Bruce Willis
0 R' A1 a2 D7 J  o6 M3 ^2 l       邦妮·比蒂丽娅 Bonnie Bedelia* P# O- Y; d4 u# W* v
       雷金纳德·维尔约翰逊 Reginald VelJohnson
! @7 R7 e4 O+ I$ {$ t- S       保罗·格里森 Paul Gleason
2 t! a1 q" [* M  k- b- R" c       威廉·阿瑟东 William Atherton
) a' H0 A; F  H) [* }' w       哈特·巴克纳 Hart Bochner9 _* u" M: o& g3 q8 H
       詹姆斯·繁田 James Shigeta
' L. J3 t' a2 W3 l$ E       艾伦·瑞克曼 Alan Rickman
0 A( _9 ^  w1 T/ v$ Z: [3 Z& F       亚历山大·乔杜诺夫 Alexander Godunov
1 G3 T! r8 @3 I( S" L       安德雷斯·魏斯涅夫斯基 Andreas Wisniewski7 f. H7 c/ Y/ ~, |5 O
       小克拉伦斯·吉尔亚德 Clarence Gilyard Jr.
; t. B3 E9 r) [8 L. Q       Lorenzo Caccialanza
. ?8 `" C' e& D- ~- F/ C       丹尼斯海顿 Dennis Hayden9 [7 U5 T% E) k5 T7 ?& @
       阿尔·梁 Al Leong/ r- ]6 i8 d# B3 p% E( j6 z3 L2 N1 V
       Gary Roberts
; v  `( O( X; O       Hans Buhringer
5 F6 h/ V' G/ r" L+ V6 }       威赫姆·冯·霍姆伯格 Wilhelm von Homburg
; n' `% N4 r# y0 S# m+ P       罗伯特·戴维 Robert Davi7 A' n4 G+ o+ K) K
       格兰德·L·布什 Grand L. Bush" g3 u: ]* A# a% J$ N" E( @) S9 u
       里克·杜科蒙 Rick Ducommun$ u6 ]: p) o& J5 \/ n3 O
       Matt Landers / B: n( o# Q$ ~; e9 Q1 h
       Anthony Peck ) G" c7 g9 o4 e, k( w% r8 r
       玛丽·艾伦·特雷纳 Mary Ellen Trainor
- K7 m( U) X) C# T1 u. l3 v       Harri James
  S$ Z6 K, g3 N8 D       Selma Archerd
' v& }# ]+ g! t5 Q       瑞贝卡·布罗萨德 Rebecca Broussard0 y4 f: Y  D% k! q
       Kym Malin
5 p( t# O$ l" v9 ^+ U       泰勒·弗里 Taylor Fry
* ^4 D0 M8 A* w  J) }, H       特雷西赖纳 Tracy Reiner
7 o9 [+ e9 m8 `2 ?       罗伯特·莱萨 Robert Lesser
9 f6 N  U4 b# A" d3 A$ K6 f       Terri Lynn Doss
6 [& ?6 d1 h/ a7 P       Conrad Hurtt ) d; E" Z7 T$ u: b6 b
       T.J. Jones* \. l/ Z% T9 \* Z
       查利·皮切尔尼 Charlie Picerni% o( I9 P& D9 \3 e; i6 N/ g: k
       迈克尔·凯曼 Michael Kamen
: B; |& e( \0 `4 l9 `       弗兰克·J·乌里奥斯特 Frank J. Urioste1 c- c5 P7 _% q6 B$ A* s% a# T  ^  p
       约翰·F·林克 John F. Link
$ H" M% y; U2 e1 u  ?       杰基·伯奇 Jackie Burch
" y# B: k3 m* y. E       John R. Jensen
" i; F  B4 ^0 _. n, |       玛丽莲·万斯 Marilyn Vance) O$ q' f+ A7 [" E
       Josée Normand * h8 z1 X1 I2 D9 U4 ]7 J, H8 Z9 ?
       Jim Kail Jim Kail! Y! r7 P( ]9 D. s
       Mike Chambers   u/ x1 r. h9 j6 a3 g$ X
       容.格瑞斯 Ron Gress% u) o& f( P9 U* S, k. D5 R) i
       布伦特·博茨 Brent Boates$ S" S$ p' T: I. F3 }+ I
       马修·尤里奇 Matthew Yuricich
4 H+ K; \& }1 R( x       派特·迈克朗 Pat McClung
* p% J% F. g" Y; l* a( [+ E. L       马克·斯泰特森 Mark Stetson
, c/ Y+ ~  J* N       加里·沃勒 Garry Waller
8 h/ k4 T" p$ n5 A, }! S7 C! L* K
" `$ l8 B: G+ d9 _% u, J4 r◎简  介   
9 _2 i6 `9 x. [2 `' r) d6 s6 g
2 m, ~/ ~. `& |; Q- z8 ^  警探约翰·麦卡伦(布鲁斯·威利斯 饰)从纽约来到洛杉矶,见他分别已有半年之久的妻子霍莉(邦尼·彼地丽娅 饰)。他被邀请参加在一栋大厦的30层举行的圣诞晚会。然而一群匪徒却打起了大厦金库中存有的六亿多元公债券的主意。他们封锁了大楼,将参加晚会的人扣作人质。麦卡伦侥幸逃脱,只身与匪徒们展开了激烈的斗争。
- w+ q0 S7 n; u3 ^9 \6 O
0 C* \, Y! [( t+ R, n6 f8 a" u  New York City detective John McClane, newly arrived in Los Angeles to spend the Christmas holiday with his estranged wife, but as McClane waits for his wife's office party to break up, terrorists take control of the building. While the terrorist leader, Hans Gruber rounds up hostages, McClane slips away unnoticed. Armed with only a service revolver and his cunning, McClane launches his own one-man war. A crackling thriller from beginning to end, Die Hard explodes with hear-stopping suspense.
/ I& t9 U' q. y/ c$ \# h: x4 I, R/ a7 @* x( }+ B
◎获奖情况: v0 M8 x2 J$ S* C$ a/ z

4 {2 u0 o& I1 `) _* h- h/ u  第61届奥斯卡金像奖 (1989)7 U' R1 ]* i9 Y% s
  最佳剪辑(提名)
& w6 o* z! [, [+ I) y& q3 m5 \  最佳视觉效果(提名). S3 y2 G' F( V- `* q7 A+ [4 |7 g& ~
  最佳音效剪辑(提名)
. @2 q0 H( d6 k' g  最佳音响(提名)
# P6 ?4 i/ E4 ?+ Z& ?  第13届日本电影学院奖 (1990)
  g- ?. n. V/ W1 u- @- M! D  最佳外语片2 ^& h, N2 ^1 v2 Q* D
  第14届报知映画赏 (1989)
( e2 G5 K- H3 i" V' a  海外作品奖
! G1 R- W7 |1 i' F   └──约翰·麦克蒂尔南
, d2 f& ~$ f2 A) p- W
" o9 B# e1 |! {6 n/ c" B
Die.Hard.1988.1080p.BluRayCD.REMUX.AVC.DTS-HD.MA.5.1-FGT
* J, @" o8 ]6 @( F" e( s
( D5 s. a+ ]( M" o" `Video1 P8 h- ]% L" \+ ?
ID                                       : 12 b0 h. n' ]3 j9 k6 i( w. v
ID in the original source medium         : 4113 (0x1011)
1 f! R9 g, V; {, x; l! GFormat                                   : AVC+ t4 b9 x" I% E) C0 k
Format/Info                              : Advanced Video Codec3 t+ h# s/ b; v' x4 O* J" V) L
Format profile                           : [email protected]8 s# V8 @8 B7 F
Format settings                          : CABAC / 4 Ref Frames
( V3 {% M6 z) f) r. k- E3 kFormat settings, CABAC                   : Yes( ]) }: q+ `7 M# y4 S) D
Format settings, Reference frames        : 4 frames3 N2 [9 n5 y8 t1 r' w- J
Codec ID                                 : V_MPEG4/ISO/AVC9 H1 \/ L/ g% K
Duration                                 : 2 h 12 min/ Z( P( Y& @: @  g0 O5 }
Bit rate mode                            : Variable
: p/ X; A  W( LBit rate                                 : 32.7 Mb/s4 n; `0 F% N( G
Maximum bit rate                         : 35.0 Mb/s
1 s6 @- B. M* Z$ c5 vWidth                                    : 1 920 pixels# J( ]% ^" v; u7 L* U- G, N3 f
Height                                   : 1 080 pixels
) G( [4 |' T- O% g: pDisplay aspect ratio                     : 16:9% r9 \/ L& l! ?6 [! m1 C
Frame rate mode                          : Constant* M" n7 w! |; R; E# T3 r! k
Frame rate                               : 23.976 (24000/1001/189150) FPS  F2 V9 n& J" Q
Color space                              : YUV
- i5 L# y+ h& I8 u. RChroma subsampling                       : 4:2:04 g# o* G/ c0 n+ R9 T" }6 d, r  D
Bit depth                                : 8 bits
$ h- ]0 C* t$ h- z6 I( ^+ aScan type                                : Progressive5 i6 S% w) [# X' r
Bits/(Pixel*Frame)                       : 0.658
! Y! e! m% T! D; u1 `- b; ~Stream size                              : 30.2 GiB (80%)% Z7 H9 @* m+ n
Language                                 : English
0 a7 J0 L" C+ m) J7 oDefault                                  : No1 X) X! A8 E! t# P' k$ t
Forced                                   : No4 Q6 m+ n$ P1 y7 L
Color range                              : Limited
1 M2 F3 R- F7 r. {" YColor primaries                          : BT.709
! G7 g3 H8 l$ I& Y* `Transfer characteristics                 : BT.7096 x' ]1 E$ S8 g8 @
Matrix coefficients                      : BT.709! a5 R+ x1 P0 [
Original source medium                   : Blu-ray& a6 l& d9 p1 y

1 R( j1 M0 b: o+ k5 P  pAudio #1. P: n4 ~: d1 E3 I; |0 V2 C
ID                                       : 2
, J  t. X- W6 B2 H7 h: W2 Z5 p* {ID in the original source medium         : 4352 (0x1100)
/ n0 @$ L8 n+ u1 K" q) {% NFormat                                   : DTS XLL
; v  ~$ ^. w1 l) T7 W0 c' I% `Format/Info                              : Digital Theater Systems
! V. Q. j1 a3 `1 L  a* xCommercial name                          : DTS-HD Master Audio& H9 r7 E9 h  |. r
Codec ID                                 : A_DTS
: {* l1 m, O8 u: _2 _9 v' U) tDuration                                 : 2 h 12 min9 \: A) p9 h! V9 i  p% [
Bit rate mode                            : Variable
2 l- p* c) u, Z1 X+ D, R9 Y# v% mBit rate                                 : 4 013 kb/s- ^, L2 t+ N" u+ I8 C
Channel(s)                               : 6 channels
) d* K6 h' R+ \! ?* B5 J4 Y% T* dChannel layout                           : C L R Ls Rs LFE; c6 W! |, |. `+ @' a0 b
Sampling rate                            : 48.0 kHz
9 t" h4 N+ m* q% OFrame rate                               : 93.750 FPS (512 SPF)
# G7 W* [; @& Z4 E" zBit depth                                : 24 bits. a0 J1 t7 J: M
Compression mode                         : Lossless) l7 j4 I& t+ r% g6 m( @# b" `4 E
Stream size                              : 3.71 GiB (10%)
1 W9 `, Z& t5 i9 U! `. ~( t3 \2 \Title                                    : DTS-HD MA 5.1
8 v) h+ b, g7 t6 uLanguage                                 : English" M" a9 G' i$ |3 |2 q
Default                                  : Yes) M7 I9 E7 Q& Y/ k
Forced                                   : No
( ?( `; a& t5 J; h- tOriginal source medium                   : Blu-ray$ D2 e. U8 F6 F

6 R& g& k& V* s! \' Q* ^, y1 MAudio #24 E* j) r) ^5 R0 D8 e8 i, i- f; M
ID                                       : 3/ c1 S6 o: n! E2 J, s( r2 \
ID in the original source medium         : 4353 (0x1101), N8 u2 z8 z! i8 J) F4 m6 A- W
Format                                   : AC-3
( j' g5 t, C3 N5 O: U+ T  _! JFormat/Info                              : Audio Coding 3
+ H, K6 F) @* ]& |Commercial name                          : Dolby Digital' C! @5 b/ A' C, n/ d$ X7 s- z/ |
Codec ID                                 : A_AC3
  j7 `5 J+ G& f$ i. X1 J3 j5 @Duration                                 : 2 h 12 min$ @" l! X$ E0 U
Bit rate mode                            : Constant
* ?, c. V0 I9 ?$ U* ]Bit rate                                 : 448 kb/s
" D' |- L" K! MChannel(s)                               : 6 channels
- P/ m6 x& a  A8 HChannel layout                           : L R C LFE Ls Rs6 o" q1 B" R* i6 y7 k. [, p
Sampling rate                            : 48.0 kHz# n! w0 ]3 i2 j
Frame rate                               : 31.250 FPS (1536 SPF)
8 C2 \0 u8 m- r  eCompression mode                         : Lossy) p" W* C% {. e3 C; W; ~  w
Stream size                              : 424 MiB (1%)6 c3 l4 B. V, E6 r* D+ t* [
Title                                    : DD 5.1
8 @  V; Y0 V% k6 x1 p  JLanguage                                 : Portuguese% v4 T' J( ~, ?
Service kind                             : Complete Main! m0 N& m  e- M& ?/ g# u
Default                                  : No! k, \8 Q. B. w6 s# {$ v1 N
Forced                                   : No4 x4 |7 M+ C, b: B8 F
Original source medium                   : Blu-ray" l0 E1 _! x2 z' o# _& |
$ M) x7 Y3 Q/ k2 y: T: r
Audio #3
6 y- ~! P2 @/ o; S/ N5 D% UID                                       : 4
9 J# q% {% r* E' ^6 U) }ID in the original source medium         : 4354 (0x1102)
# X9 ~) p; E. p7 D" `Format                                   : AC-35 v% f* {% J  ^5 x8 c' y
Format/Info                              : Audio Coding 3% \) l* `5 ~8 N
Commercial name                          : Dolby Digital
  B2 C) e9 A; m4 G( BCodec ID                                 : A_AC3
4 l( T' ]' c9 \* g' J4 bDuration                                 : 2 h 12 min$ v& I/ h' R3 |" M# s, i
Bit rate mode                            : Constant4 n0 |$ f# r3 v" I9 x
Bit rate                                 : 448 kb/s
1 W/ V3 W) [: J$ ~5 dChannel(s)                               : 6 channels
% U$ B9 m$ ^8 I! b0 ]) V, {Channel layout                           : L R C LFE Ls Rs
7 j! J$ |4 }0 k# T  i7 xSampling rate                            : 48.0 kHz
0 O0 ~' c6 `& F/ T' `Frame rate                               : 31.250 FPS (1536 SPF); {' z, c+ y; v+ M' t2 ]
Compression mode                         : Lossy
6 C- j: y. o4 g* A" ], G: sStream size                              : 424 MiB (1%)
. H) i0 l  v2 a3 J$ A! h8 cTitle                                    : DD 5.1  U! z/ H2 h* m: s- ?
Language                                 : Spanish
( Q3 o1 ]4 X/ j' @Service kind                             : Complete Main) T$ _0 y+ S" E, R9 G; T
Default                                  : No% V, y* H# A% ]; |0 @
Forced                                   : No
8 p9 W- ^& }$ O) S8 n* I% {# k4 r9 \Original source medium                   : Blu-ray
0 N# d( a3 N8 G& e( X' p. ]2 R0 ]4 P
Audio #4  R  L( b3 ]9 k
ID                                       : 5
0 o: x, q0 O- b2 xID in the original source medium         : 4355 (0x1103)
/ v$ ^6 W% w$ x  l/ _Format                                   : DTS0 l. ~, R/ M, L" U
Format/Info                              : Digital Theater Systems
* Q) b7 j1 f" O* n. l3 [" {! YCodec ID                                 : A_DTS
( Z+ u3 V+ @3 J$ ^/ ?$ HDuration                                 : 2 h 12 min5 F3 F" g2 p; x* U: x  D* c
Bit rate mode                            : Constant
3 n7 P  b* c9 W# M2 hBit rate                                 : 768 kb/s  {9 q. o5 s* T* ?- `
Channel(s)                               : 6 channels
. o3 j8 ^5 f2 ?" i7 I3 TChannel layout                           : C L R Ls Rs LFE0 E. p. a5 o0 X& b8 o
Sampling rate                            : 48.0 kHz
7 D8 Y1 f1 Z4 l" JFrame rate                               : 93.750 FPS (512 SPF)
3 g: M0 x; p8 |2 K2 r% \Bit depth                                : 24 bits
# d9 D, c2 g& M' q5 d+ q/ Q. HCompression mode                         : Lossy" r6 P* ^- F6 v( W
Stream size                              : 726 MiB (2%)$ N9 }4 A; A0 |- ?
Title                                    : DTS 5.1
# `* p0 W( M5 R+ k8 xLanguage                                 : Russian
" ~" {: g# \2 l/ QDefault                                  : No/ O) O+ d' i# @6 k- @& x1 z
Forced                                   : No
& y9 F# d# l( AOriginal source medium                   : Blu-ray/ r( V, \6 |6 a0 g/ O  e

9 h$ T; v: ?0 d8 }; s; o) ?+ QAudio #5
- O/ o9 |9 J/ ]' T" q$ e' DID                                       : 6
) q: G3 x- y$ s; r5 vID in the original source medium         : 4356 (0x1104)+ V& x; k" C5 ~! k0 K
Format                                   : AC-35 M% V! p$ p/ ^$ V5 q4 Q% m
Format/Info                              : Audio Coding 30 x  P" W0 [4 D$ F$ I, @
Commercial name                          : Dolby Digital& @. |1 Y# \( i
Codec ID                                 : A_AC31 s- H+ S) e3 L0 a7 ^; ~8 G: [) ?
Duration                                 : 2 h 12 min4 k& a# g& v; `0 I. }4 g
Bit rate mode                            : Constant: K6 O* T5 s( D5 U
Bit rate                                 : 224 kb/s+ g! }. P& F2 ]2 S
Channel(s)                               : 2 channels% E1 V# d) {' ~0 w9 z5 G1 |
Channel layout                           : L R/ h% Q. b' y$ g& K4 T' l' c
Sampling rate                            : 48.0 kHz
. K& `( ^3 j7 K7 L: O2 l# K4 qFrame rate                               : 31.250 FPS (1536 SPF)
/ F) F7 _$ x# fCompression mode                         : Lossy
* l+ o1 p9 s* ]1 U! K- W! b/ jStream size                              : 212 MiB (0%)
1 F0 Y/ s5 H4 H) G7 G6 X3 u; @5 ?. kTitle                                    : DD 2.0
% I, m6 Q- K, y8 {  \8 P, ^Language                                 : Chinese
: d* H; f4 [9 ~. ?6 nService kind                             : Complete Main
  n  n$ C- w( |! VDefault                                  : No" Y5 N0 P+ O. r5 j/ A
Forced                                   : No
9 q5 j3 z# R, BOriginal source medium                   : Blu-ray
8 J( u" [4 y& o. G2 ^! }- i+ |: U- n1 n) z- _7 D/ ~
Audio #6
) @. c4 p8 ?7 Y, [! \) s( m1 }: mID                                       : 7
9 t4 ]' E: g% A4 _/ O0 WID in the original source medium         : 4357 (0x1105)
, @- R; x3 S8 O- WFormat                                   : AC-38 G1 R- E. D; `4 z# m: W
Format/Info                              : Audio Coding 3
' @. _* v; J  N: vCommercial name                          : Dolby Digital& Q/ M# Y8 _5 g6 y2 C1 I  d  i1 _
Codec ID                                 : A_AC3
8 S( R! O! u- K% ~( T1 |" {% eDuration                                 : 2 h 12 min+ d. |- h3 B5 c! K. \
Bit rate mode                            : Constant- P, ?8 G: O7 L
Bit rate                                 : 224 kb/s
" [  X6 N; J( e7 E# K* \: }Channel(s)                               : 2 channels- I1 `- u$ h3 N7 v3 V$ Q$ E% I* J8 U
Channel layout                           : L R
9 d- s3 \& a- T4 bSampling rate                            : 48.0 kHz7 ]+ _( K  j6 B
Frame rate                               : 31.250 FPS (1536 SPF)
8 i1 O' V/ M6 K) k6 S+ Q* M( S. GCompression mode                         : Lossy8 W+ c! n7 i2 e, r* Q1 }6 m- R9 K/ m
Stream size                              : 212 MiB (0%)4 y3 d! z( D1 n' B" A: U
Title                                    : DD 2.0" F% b$ G- A/ G, `- {3 R
Language                                 : Czech
5 c0 o4 q* n% m6 M+ O- A! N0 x) i' hService kind                             : Complete Main4 {; j& F' a' S0 c8 P/ P2 _
Default                                  : No1 ?1 Z1 \2 u8 Z
Forced                                   : No
, z+ t1 }9 T% T# w( ^Original source medium                   : Blu-ray. R6 g2 F4 a- _- Q. a4 b# G% @" B

3 `1 P, o* d% |: ~3 `# vAudio #76 N1 L$ ^% q2 V8 L
ID                                       : 8
/ [; L  P  c! `ID in the original source medium         : 4358 (0x1106)- i1 b+ w% u$ m3 S7 s9 O. g# e
Format                                   : AC-32 L1 _. c- D+ S+ |5 j% O8 Q" r
Format/Info                              : Audio Coding 3
. `9 j* E) l! }4 a4 t1 u! [6 z! ZCommercial name                          : Dolby Digital
' |% {% g( L8 s1 b. S/ NCodec ID                                 : A_AC3) n* I% O* _9 D5 E% Q) U
Duration                                 : 2 h 12 min; z0 w( F2 d6 L
Bit rate mode                            : Constant
2 a7 z/ a% C  k2 ?Bit rate                                 : 224 kb/s2 N" u& P2 g& U) v
Channel(s)                               : 2 channels
. Y' C3 c" [; E/ Z: xChannel layout                           : L R' z- N  F- Y# n' Z- P0 z
Sampling rate                            : 48.0 kHz1 b6 n7 z7 R' E% D+ A
Frame rate                               : 31.250 FPS (1536 SPF)" L7 t! D9 M7 F( a: t
Compression mode                         : Lossy" R) O/ e9 t' F( R! n: |. y6 i. V
Stream size                              : 212 MiB (0%)
2 s. q# l$ G7 `7 C( UTitle                                    : DD 2.0# v! H1 p" @4 i! n: [4 Z
Language                                 : Hungarian
- Y/ R& l) p4 i8 G) HService kind                             : Complete Main
/ n4 r; ~: n+ Y. ^Default                                  : No' R5 k2 F# b4 m. J1 i0 ?2 `2 g# B2 ^3 }
Forced                                   : No/ w1 a; {- c0 E# q7 b9 @4 M6 u
Original source medium                   : Blu-ray
' ~. z9 {9 y- ]( s0 s& C+ }- X9 P" d- w
* ]5 y* A8 o" i% k* a) p! |Audio #8
* Q9 S& \" L6 jID                                       : 9
& H7 E( B  d0 Q# W9 u4 oID in the original source medium         : 4359 (0x1107)( a0 w4 G0 \" f0 k
Format                                   : AC-32 J& l0 M7 o& G% T8 X
Format/Info                              : Audio Coding 3
& w. n* Q) ]% }( QCommercial name                          : Dolby Digital
& ?  W7 F; G0 {# @, T9 ^Codec ID                                 : A_AC3
7 h: W: _0 P$ J7 d3 ?Duration                                 : 2 h 12 min
" i% _' K) p. q- E( y: FBit rate mode                            : Constant( p4 o" ?, n7 @' b8 Q5 f4 g, y
Bit rate                                 : 448 kb/s: L; @$ Q% F. |% r: ~9 s) W
Channel(s)                               : 6 channels8 s3 Q! f, ]  `0 N1 t$ c4 V
Channel layout                           : L R C LFE Ls Rs0 ]  ]6 \0 ^# h, Y& |! R3 F1 u
Sampling rate                            : 48.0 kHz, u; U+ {( j" g* b$ Q
Frame rate                               : 31.250 FPS (1536 SPF)' F1 n4 w, c& I/ V7 W+ @
Compression mode                         : Lossy! H( _# M0 q9 E* x. y; E2 J# J: T3 B
Stream size                              : 424 MiB (1%): Q* Y! |* q9 i. p/ a( ?1 _- D
Title                                    : DD 5.11 O: P! |' u. j. b2 e& f2 m
Language                                 : Polish
6 M  U, c# O* \; v* {7 B* Y/ p: sService kind                             : Complete Main
9 H0 s, t' T: m1 o* VDefault                                  : No
; r- O3 T7 Q, GForced                                   : No
4 Z) r; }8 |0 x4 g2 V+ ^Original source medium                   : Blu-ray0 r; R4 x" ^' ?- o) P$ d1 W
8 m2 }9 T; K9 g) u; J$ _# L
Audio #98 c! R% a  S8 h( X( a. y
ID                                       : 10
0 Z9 i) C* l+ N- v+ P8 C- AID in the original source medium         : 4360 (0x1108)
0 f. g" D: H/ h- z' B' R8 Z% Q$ l0 s( T5 ZFormat                                   : AC-3
4 w, A9 X7 }$ ?! m4 j$ Z+ qFormat/Info                              : Audio Coding 3. A/ [' f: Q- ^/ Y
Commercial name                          : Dolby Digital
; l4 ^) Z7 A3 K8 i/ w3 MCodec ID                                 : A_AC3& @0 ]* H* W0 A( E* S' r; K
Duration                                 : 2 h 12 min: o- m5 S& n/ H# }, k' g, i
Bit rate mode                            : Constant
; j( I+ q; N$ ~Bit rate                                 : 448 kb/s
/ e# U! C, s1 A" T; WChannel(s)                               : 6 channels; M& C4 Y/ m* _2 J! ^
Channel layout                           : L R C LFE Ls Rs& w* a% o2 {+ V$ w0 t
Sampling rate                            : 48.0 kHz
, A/ B0 T" n5 F' p7 q9 @" v* A7 ~Frame rate                               : 31.250 FPS (1536 SPF)
/ O0 N+ D8 G" g! UCompression mode                         : Lossy
( i7 m& S* I4 b2 O/ M8 S& ~Stream size                              : 424 MiB (1%)
2 F* q# R; u& }0 ?" R2 g' STitle                                    : DD 5.1
: o& |+ F9 ^; B3 oLanguage                                 : Thai
3 F0 J0 V# w& M$ i- F. f7 P! s1 hService kind                             : Complete Main
, u) |$ t9 k; \Default                                  : No
" l$ m1 g4 r5 m+ c& \8 n0 BForced                                   : No
+ I8 X! l: Y. C7 X! \1 ?2 p, [Original source medium                   : Blu-ray# F1 p  C2 B6 D! O  K: J
% [. M9 u; W* R$ i
Audio #10* G/ J7 H5 M0 h* _0 @, j
ID                                       : 113 ^; z+ G0 o% O9 o
ID in the original source medium         : 4361 (0x1109)
; a) {: _3 O3 p# yFormat                                   : AC-3) v# c& x. u0 t% ^& E( C9 `# E
Format/Info                              : Audio Coding 3
! o% L* N% D" n. r/ m' {6 oCommercial name                          : Dolby Digital
/ U$ m9 v- f1 j  e& D/ F( k. ^0 E& ACodec ID                                 : A_AC3
1 {1 s* K% h2 |# ]Duration                                 : 2 h 12 min
" i% M: O* m. H0 nBit rate mode                            : Constant# |; x+ @3 U- P( G3 D6 n
Bit rate                                 : 224 kb/s0 `5 `$ O$ ~5 K. X2 ~' A# b
Channel(s)                               : 2 channels
1 A/ w; A0 ]; u# U8 WChannel layout                           : L R
2 l4 D% h' F/ `  e& z8 SSampling rate                            : 48.0 kHz
8 m3 o+ j- k- r0 H+ ]( k5 Z" X* PFrame rate                               : 31.250 FPS (1536 SPF)& y6 g5 E% e( X/ l6 `3 \# \# G; P
Compression mode                         : Lossy
7 N9 v7 `) `( R8 j" ^+ p1 kStream size                              : 212 MiB (0%)
' V/ i2 i* }' a' m: fTitle                                    : DD 2.0
2 }( F+ ^) P/ Y$ d3 jLanguage                                 : Turkish* x$ ^$ e0 r3 Y$ A" w
Service kind                             : Complete Main/ u7 r1 i& c  U$ J# g9 s* |( M# z
Default                                  : No' v/ D; X# [3 M9 V# F+ L
Forced                                   : No2 B% p  o" w: x" F4 {
Original source medium                   : Blu-ray
! q7 V6 {0 ?+ o! `$ i6 z* \$ Z
7 V4 C: m+ m; N$ |8 P/ ?Audio #112 P, o8 }2 }9 K* [' a  P
ID                                       : 12
, G' \0 @+ b# @- o, NID in the original source medium         : 4362 (0x110A)
+ ~: q" s. r' K0 s8 d3 Z9 CFormat                                   : AC-3, U) k; {1 E& q+ s
Format/Info                              : Audio Coding 3! ?9 P8 W# h: F9 p4 s- G* K
Commercial name                          : Dolby Digital
) a1 w" \; X) v+ YCodec ID                                 : A_AC3
5 M8 i7 _- l9 J8 C% J; fDuration                                 : 2 h 12 min/ n5 U! M  u2 N
Bit rate mode                            : Constant& l1 c3 X! _4 i2 a+ q" O
Bit rate                                 : 224 kb/s
6 O% F/ P5 D' xChannel(s)                               : 2 channels
2 r( D. q* \4 n! JChannel layout                           : L R9 @0 }5 t5 [4 D( ?9 h; f" y$ M
Sampling rate                            : 48.0 kHz
& V. k0 J) u1 A7 ]Frame rate                               : 31.250 FPS (1536 SPF)& V* E+ `4 u- S  A  s0 N
Compression mode                         : Lossy4 S1 r5 o0 ^. ]5 f- p
Stream size                              : 212 MiB (0%)
6 n( y4 m+ ?- V2 T; I% PTitle                                    : DD 2.0
! R' Q- a, o$ @2 q- ULanguage                                 : English/ ^+ }1 k/ ^# n: |) |
Service kind                             : Complete Main( C4 _' J2 p/ U
Default                                  : No
" m, L% ]7 D4 ~Forced                                   : No2 J6 o' I* Z/ q. j. c* F, Y  _
Original source medium                   : Blu-ray
; ~) f& S( b- \  R3 X6 E  s2 c3 O
Audio #12
1 D: T4 C& E% _3 i1 J0 x4 s- LID                                       : 13
: e) {8 M  z, b* \$ M$ IID in the original source medium         : 4363 (0x110B). N; B; @( K- }: g. q. d; ]
Format                                   : AC-3
; T" H1 J* Z( v% w9 O. AFormat/Info                              : Audio Coding 37 L0 k. B2 O- j2 l/ F
Commercial name                          : Dolby Digital$ Q& H5 y2 B, Z
Codec ID                                 : A_AC3
/ e. K* o- E0 N9 {( @Duration                                 : 2 h 12 min
% |, P9 ~# |, c9 dBit rate mode                            : Constant
8 P  E4 Y# z; i  L& T  {7 LBit rate                                 : 224 kb/s
' b0 j, R0 b" vChannel(s)                               : 2 channels( g9 V  f4 P4 t8 e9 t4 G
Channel layout                           : L R
! N+ D% u& T2 ^1 C* s  sSampling rate                            : 48.0 kHz
' v/ U0 q! |6 ^7 i. @Frame rate                               : 31.250 FPS (1536 SPF)
0 a! d( L8 _; C( s) U6 d3 i2 mCompression mode                         : Lossy6 |7 q9 U5 V" e2 V- V5 H& r
Stream size                              : 212 MiB (0%)# x. ]# }9 O% t/ U  W: h
Title                                    : DD 2.0
2 v/ e) t+ a$ s2 v7 L/ r( `Language                                 : English
" ^8 t5 |* b0 u5 E, ~  c; bService kind                             : Complete Main  @0 Z* @# P, F; Z
Default                                  : No
: w, u  v6 {/ f$ N5 m6 HForced                                   : No5 f6 `2 P# r$ y5 e
Original source medium                   : Blu-ray
! c) E$ G+ h! k# G7 x( i- ?, u: ]  h+ d
Text #1/ D4 x7 ?8 l% X) i5 \2 d; _* U7 m
ID                                       : 14
. e" \* a+ l+ C- _+ e/ i' nFormat                                   : UTF-87 ?" ~" @/ Y% |
Codec ID                                 : S_TEXT/UTF8; p! h8 A* R' P! ~. e! x4 {; V' q' E
Codec ID/Info                            : UTF-8 Plain Text
- C" ~8 O5 k1 F) H) xDuration                                 : 2 h 11 min
, B7 f" E$ V2 @( J: }1 vBit rate                                 : 46 b/s
. G8 h% Z9 M* d' a4 w" Z+ x6 _Count of elements                        : 1485( z7 x: ]& C: x6 _" j
Stream size                              : 44.8 KiB (0%)4 R% ?3 G& q$ h" D7 s2 y2 m
Language                                 : English
( x" w7 V& W! P+ ^$ m: k. A5 VDefault                                  : Yes
: G" Y3 @' K( P5 ^' x- bForced                                   : No
) V4 H8 u% Z$ P$ x1 H' M  b; N  |' ^/ k5 b  L4 v
Text #2
, i" n, p+ l0 GID                                       : 15
- E" V' {; v, x. Q$ hID in the original source medium         : 4608 (0x1200)
1 e9 }/ \( i, q" D  `6 JFormat                                   : PGS0 B# F6 I4 D+ ]( t( H3 U8 N& |2 j( |
Muxing mode                              : zlib/ l* u" Q5 x0 \
Codec ID                                 : S_HDMV/PGS( l5 B: L. }4 L. i6 `6 S1 E) ^  [
Codec ID/Info                            : Picture based subtitle format used on BDs/HD-DVDs5 v! j1 q( @4 [2 l) ]
Duration                                 : 2 h 11 min
' D+ Z( r( r! g& mBit rate                                 : 30.3 kb/s% h) v! N% P$ {
Count of elements                        : 2988; r' ]. ]( W) s/ a/ t! K! w$ k% ^
Stream size                              : 28.4 MiB (0%)7 a$ L7 V* s8 |: Y* t
Language                                 : English  J3 M% r. a% w1 I9 N! \$ h9 X
Default                                  : No
, i4 z6 g0 g9 G1 |0 \; i3 qForced                                   : No
7 Y1 B9 ~3 p7 B- rOriginal source medium                   : Blu-ray( O+ S2 ^9 L6 z0 y$ n3 ]9 o2 |4 R, {

: W* a/ L1 J( K8 ?# ?, }Text #3/ N! O( {; c1 z" D! o; p
ID                                       : 16
9 {" _' i, W/ L+ cID in the original source medium         : 4609 (0x1201)/ H, T$ u. v. i* C( J  e  Q# N
Format                                   : PGS
3 x' j+ a# N" y* X9 H& ?9 n  Q9 XMuxing mode                              : zlib. z! X( ~7 W& u2 U
Codec ID                                 : S_HDMV/PGS5 |9 M+ k# t8 m, m2 B* p
Codec ID/Info                            : Picture based subtitle format used on BDs/HD-DVDs, u/ W2 w" K, u$ {$ Z# N
Duration                                 : 2 h 11 min
/ k0 b0 H; @; O# C- @Bit rate                                 : 30.3 kb/s
! N) S- {" M$ w8 a" ECount of elements                        : 31167 C: F) n& {. |* K4 Q2 }
Stream size                              : 28.5 MiB (0%)8 W$ j% N$ g2 w5 w( l7 P
Language                                 : Portuguese7 T* J' g3 |7 D( m
Default                                  : No8 B  @  |/ d6 @3 V9 v4 r8 \
Forced                                   : No3 d  K: t2 y1 G: P% I+ \2 a" u
Original source medium                   : Blu-ray) H& ]/ i+ a1 h$ i9 s  T+ R

( ^! Z$ l5 d- D  K0 ZText #4' r; Z' m2 s% u' Z) [
ID                                       : 17
% ^5 S6 v) [5 [8 U- NID in the original source medium         : 4610 (0x1202)4 I1 w% c9 I" P
Format                                   : PGS' I7 q% {. r3 @( s! P
Muxing mode                              : zlib
9 J2 N- ~3 l: iCodec ID                                 : S_HDMV/PGS
% ~0 N+ t" Q9 \. ECodec ID/Info                            : Picture based subtitle format used on BDs/HD-DVDs  W7 z0 b' ?% _4 o
Duration                                 : 2 h 11 min+ u1 h$ d9 w5 h0 c* f/ B7 L; H
Bit rate                                 : 21.9 kb/s5 M7 l0 B: G) u% }$ L$ A/ q! Q9 y
Count of elements                        : 2546) t" \/ U; X0 g- e7 j0 M% q
Stream size                              : 20.6 MiB (0%)7 o: G9 N4 E# o  C# s# T5 g
Language                                 : Spanish1 S1 |+ H; e- v! M
Default                                  : No
+ b9 \. i# {4 V* f$ L, I# WForced                                   : No  S/ r) R& p" c4 h  ]# N
Original source medium                   : Blu-ray- Q+ H5 P) L, h8 R

- i- C2 U( u, MText #5# ~5 c7 c: q4 i: M2 d
ID                                       : 18
9 a3 z  P) Q0 W% OID in the original source medium         : 4610 (0x1202)7 z  j5 l* N0 k" N; r' X
Format                                   : PGS5 v, ^& V; @$ Z: @/ U6 N
Muxing mode                              : zlib$ ~4 g) Z! S/ a. \  G7 H4 \
Codec ID                                 : S_HDMV/PGS, U. R# H& l2 J+ `
Codec ID/Info                            : Picture based subtitle format used on BDs/HD-DVDs, ~9 h* L6 w' ~6 W8 ^+ P
Duration                                 : 1 h 52 min
2 I! T) Y( t* \7 \; C2 N, m6 p* yBit rate                                 : 68 b/s1 G, v) p: H: ]# ?7 P: ^  |; r
Count of elements                        : 6
+ ?. S8 ^) H7 M# F0 {Stream size                              : 56.5 KiB (0%)
$ r( E/ O$ D# q7 S5 y. j) v2 PLanguage                                 : Spanish
% s/ z( w) F- R' U' v  P7 _Default                                  : No
  S2 B% W3 v3 }, M5 u) mForced                                   : No
9 \, B; S0 _4 U6 m9 A- q7 d1 k/ x! WOriginal source medium                   : Blu-ray
2 y" j' P1 Y$ m" ?) n( i% U9 j& p9 R" V% v1 |+ ]  y" }
Text #69 B) n. m1 _1 R# H& L% k: E
ID                                       : 19! x% L" W2 Z6 W  b1 b$ A/ p
ID in the original source medium         : 4611 (0x1203)
1 O4 X/ L! P2 Z4 P" |& t& X. ]Format                                   : PGS
) W2 O' Z* w: i! e: E1 i- OMuxing mode                              : zlib" E! J  A8 W- e
Codec ID                                 : S_HDMV/PGS
( \: C2 ^7 c; A5 y7 b, NCodec ID/Info                            : Picture based subtitle format used on BDs/HD-DVDs
8 Z9 L+ n8 h6 kDuration                                 : 2 h 11 min+ B9 x( ^: L$ {. ?
Bit rate                                 : 23.7 kb/s' p1 _$ l2 V3 A: |1 S' t! i: T9 Q
Count of elements                        : 2718& K1 H6 L+ i( n: d( D; |
Stream size                              : 22.2 MiB (0%), l3 ~5 Y2 ^; M6 z1 Q
Language                                 : Russian) l+ I) f) z( k' U4 A
Default                                  : No$ y2 y5 r# R9 `& s$ v
Forced                                   : No% Z" P. ]* X( i" R0 P- H
Original source medium                   : Blu-ray
" G0 {' ~3 C  K7 F$ B, f/ H% S& D, N6 L' L5 n( a4 |5 O' ~" I
Text #7
  _5 N6 q4 e5 P: N" AID                                       : 20
0 {5 H  ?6 \5 ^) S( f8 ~& J2 bID in the original source medium         : 4612 (0x1204)
* e' P8 x' F7 o* DFormat                                   : PGS
" B( B7 E. ~' \. T2 b/ A$ zMuxing mode                              : zlib
, V- ]! M3 S$ ]2 D& x. }, |2 SCodec ID                                 : S_HDMV/PGS8 r( e' D, M8 F. J# N
Codec ID/Info                            : Picture based subtitle format used on BDs/HD-DVDs  m2 l; m; N: g3 s- w4 O0 J
Duration                                 : 2 h 11 min
# B$ H! j" d8 @Bit rate                                 : 21.5 kb/s
- S, o( `0 A% b5 vCount of elements                        : 16280 m$ A4 T$ u: M/ {7 Q
Stream size                              : 20.1 MiB (0%)8 W% @5 ~+ v2 M( |2 X$ Z
Language                                 : Estonian
: ]; G: x# s' H( B6 `* L) q' qDefault                                  : No
: a+ i, J, H* f7 ]1 [' xForced                                   : No& ~" p7 W. S1 h8 i
Original source medium                   : Blu-ray
- d9 W/ h/ b) o) q! |& x: @/ {' S1 U/ Z0 |( g7 k
Text #88 `/ a4 V6 K& q9 f3 Q
ID                                       : 21* p4 ?( `0 b0 G0 n6 T
ID in the original source medium         : 4613 (0x1205)
2 ]; ]. Q  R  M% Q4 M) NFormat                                   : PGS
/ L) m8 r0 M! vMuxing mode                              : zlib( S6 Z# P, M1 Z" R, B7 g. _
Codec ID                                 : S_HDMV/PGS' f( k- B  G, i
Codec ID/Info                            : Picture based subtitle format used on BDs/HD-DVDs
$ K; i! s8 c6 yDuration                                 : 2 h 11 min
" p4 E* ?. H. J7 y& v7 bBit rate                                 : 20.4 kb/s
- a5 r6 l4 X! m5 S/ ^* s9 b  WCount of elements                        : 1636* R' @7 u5 h9 z
Stream size                              : 19.2 MiB (0%)
1 ^* i/ _# s) ILanguage                                 : Latvian# F  Q+ A& }3 C1 }1 h: a
Default                                  : No' {4 ?' X# l# B
Forced                                   : No
/ w& ?& W  Q. ?  k4 [Original source medium                   : Blu-ray
+ Y, y( b9 k% T; }8 G$ j9 o- ^
1 X6 X, e9 I! V9 S4 L) o, h. }Text #9& y6 ^4 W+ v/ r, x, @% w
ID                                       : 22. x2 u, W" t7 l; \/ ]  I- `' ?# \
ID in the original source medium         : 4614 (0x1206)
- ]3 K! ]$ h9 O; g+ p2 B4 UFormat                                   : PGS2 N* _3 }! `% r; i
Muxing mode                              : zlib( F8 [  d) {( U  L& ?
Codec ID                                 : S_HDMV/PGS. N0 d- x1 @- W3 N* r/ M
Codec ID/Info                            : Picture based subtitle format used on BDs/HD-DVDs
- l4 _  H! F, E  M0 j8 bDuration                                 : 2 h 11 min
5 _/ o) |+ a! Z4 tBit rate                                 : 22.6 kb/s
, Y3 }5 N' _( y5 H* K- D' ~$ D, }Count of elements                        : 1628: @- q7 H+ T1 t# l8 l4 ^2 J
Stream size                              : 21.2 MiB (0%)- T0 n7 V9 X9 `% A7 T
Language                                 : Lithuanian
$ q! E2 S, R& m$ n: TDefault                                  : No
2 F9 a+ }5 h+ l! i: bForced                                   : No
1 b% w( n- }* ?9 F$ m) ~- ~2 [Original source medium                   : Blu-ray
6 w- Y0 d1 |0 a, P8 u/ M# \  M7 Z4 P
6 O8 ?4 A. ]* F. X+ d# y( sText #10
5 p  M. w0 x3 k) `4 tID                                       : 238 I* U1 ~9 V( J; V
ID in the original source medium         : 4615 (0x1207)/ H& @; D" y  [$ O. K3 ]4 b
Format                                   : PGS5 A0 n  p2 A" O% R# T
Muxing mode                              : zlib
" }. L2 ?6 h: }5 a5 FCodec ID                                 : S_HDMV/PGS
& u6 J0 |7 n8 |* X( JCodec ID/Info                            : Picture based subtitle format used on BDs/HD-DVDs* [! G: t+ }7 U( z' B+ Z9 X$ n3 Y
Duration                                 : 2 h 11 min
/ u+ J3 M* i" Q' d7 x6 SBit rate                                 : 22.4 kb/s
, t9 S$ D: E) B! f! pCount of elements                        : 1934
+ C# m% c7 w9 N% P& ^- h3 dStream size                              : 21.0 MiB (0%)2 h- [; E' C) \8 K+ G
Language                                 : Bulgarian# l( s8 l( f5 N0 P. ^
Default                                  : No" P5 v' z& Y! H8 D- j0 g& u
Forced                                   : No" G8 D. M+ d* u5 p2 e9 r7 w5 w  }6 J1 ]
Original source medium                   : Blu-ray
% N4 W6 [3 T" g/ D( s0 M4 o$ F5 z3 E! `0 y* L% F( {
Text #11
2 E) p5 L5 I5 j0 `: n- qID                                       : 24
& _* k% e( O& H% gID in the original source medium         : 4616 (0x1208)
  m9 D4 ~! p5 o3 \Format                                   : PGS4 O: c9 C4 n3 f7 E% P+ P3 I
Muxing mode                              : zlib
* F% X/ J8 i. k! e' g6 X. RCodec ID                                 : S_HDMV/PGS) f. i- D% g8 [* J9 f/ A
Codec ID/Info                            : Picture based subtitle format used on BDs/HD-DVDs
- b2 g  T7 H5 g5 a9 |Duration                                 : 2 h 11 min
; j' `" d* p) e; KBit rate                                 : 22.5 kb/s
4 f9 u0 v$ E. q5 {! \Count of elements                        : 2702
% O0 W( V3 z2 e7 f! A4 nStream size                              : 21.1 MiB (0%)
1 f0 U) O5 G+ N* t- j2 h3 nLanguage                                 : Chinese
  W( ^- y( ^# M5 x* MDefault                                  : No
, n) c1 x! O, L$ _Forced                                   : No
1 q! k, U# P% n: O8 u  EOriginal source medium                   : Blu-ray/ b' o' r# V1 H' i/ \+ I' J7 ]6 Q

* E/ x5 H3 x/ w0 Y: jText #12" D7 J1 ]6 @0 q+ O* Q
ID                                       : 250 h3 P6 u. a* B) [' S, O
ID in the original source medium         : 4616 (0x1208)9 k' b" ^1 E" _8 W, C% V
Format                                   : PGS6 p- K3 t) m1 W" M( g  K
Muxing mode                              : zlib
7 K* }& P* a; e' I: U* B5 GCodec ID                                 : S_HDMV/PGS7 }" Q* t) m/ k' p$ s
Codec ID/Info                            : Picture based subtitle format used on BDs/HD-DVDs
6 H% d/ x+ a4 B2 ^5 L" S* XDuration                                 : 1 h 52 min
3 ?1 a# e3 f7 D. PBit rate                                 : 207 b/s
$ z& x( s) K5 i. }) L% `/ LCount of elements                        : 34
/ [& n9 n& U8 j6 A2 [% L* zStream size                              : 171 KiB (0%)8 w/ n% L' e3 r
Language                                 : Chinese
0 W7 }2 X# r( a% ~! o! R' BDefault                                  : No9 e0 G7 }* `9 O0 b' l, R* _7 h: F
Forced                                   : No9 q7 ]0 K; P; z" M# @
Original source medium                   : Blu-ray- u) n3 [$ Y; |( F. v1 C4 f) [

% V" u- q8 v6 s- q  l$ D7 ZText #13; x0 \- L. {$ g& n
ID                                       : 26$ ]6 e8 t3 Z! I3 p& `
ID in the original source medium         : 4617 (0x1209)
9 f7 M: b! b( V' U0 ?9 j  hFormat                                   : PGS
: @  D8 l  B6 K4 H% d! }0 H: ~Muxing mode                              : zlib
9 u! x% x* m! ~- [3 qCodec ID                                 : S_HDMV/PGS
) e# h& T' c0 o- ICodec ID/Info                            : Picture based subtitle format used on BDs/HD-DVDs' y% M: ?1 h7 a, d( l. W
Duration                                 : 2 h 11 min, o: q9 {7 G8 V- H: A) v
Bit rate                                 : 20.0 kb/s
4 R$ e2 @" D- M; DCount of elements                        : 23989 E' x' R8 h  q* N2 _5 c! _4 T
Stream size                              : 18.8 MiB (0%)  G2 T/ [: u% ]; [! q
Language                                 : Croatian
0 [5 h/ ]" I' p: p" V* }Default                                  : No
0 M5 o/ s( H$ S9 q3 ^7 l, H. nForced                                   : No
0 F! t4 C9 b  q% T" oOriginal source medium                   : Blu-ray
% {  L/ Q3 u* o  w3 [/ b, q9 A
Text #14
" L- x+ n3 ~; Z) `ID                                       : 275 `( i. W4 I- A
ID in the original source medium         : 4618 (0x120A)% R' L3 o2 V( G- p# ~  U* j. o
Format                                   : PGS$ p) }- C; K( z) l( C
Muxing mode                              : zlib
" w: P% f4 k  D8 C1 S+ nCodec ID                                 : S_HDMV/PGS
6 {+ g6 b- H" Y6 n6 h; ~Codec ID/Info                            : Picture based subtitle format used on BDs/HD-DVDs8 p& c, j, g9 H; E" Z6 F1 G
Duration                                 : 2 h 11 min
! u7 B/ s& ^6 FBit rate                                 : 28.6 kb/s0 h: Z9 O& C8 S/ v4 R  q' h* U# @5 R
Count of elements                        : 2684$ I/ @0 Q! a8 c7 V: Q6 m7 L7 [6 X& g
Stream size                              : 26.9 MiB (0%)
& L7 a2 f4 P: q+ Q' p6 o1 D0 k$ ~Language                                 : Czech( }# m4 Z! T: q* y. t  |$ F
Default                                  : No
4 Y2 g! b5 f% wForced                                   : No
2 _; W. d( _: ^+ YOriginal source medium                   : Blu-ray
) f- S( I$ l7 `; o
' X/ A9 Y- ^3 ]Text #15' K- Q! D7 ^3 L' D# D, `
ID                                       : 28
- w8 s7 i4 _4 y/ L. E1 q$ |ID in the original source medium         : 4618 (0x120A)
( a5 S( o1 e1 W) W, b- A3 nFormat                                   : PGS1 J1 N% f3 f* ~8 y4 T1 T. W
Muxing mode                              : zlib
+ {  V  b) q/ t: H+ ^7 aCodec ID                                 : S_HDMV/PGS
1 u8 a( ^0 J  H/ Q! d8 |6 H* OCodec ID/Info                            : Picture based subtitle format used on BDs/HD-DVDs
" M4 C5 d1 N  g( iDuration                                 : 1 h 51 min
% ]' r1 @* i" V! o  X( Q5 GBit rate                                 : 163 b/s
/ e$ \" A7 h4 e! }; qCount of elements                        : 16
7 ]2 z# u7 ^" N. d/ |9 CStream size                              : 133 KiB (0%)& L2 y/ Z% u& }; s# G+ X  G- @
Language                                 : Czech
7 A1 D( }( q6 I7 t( |* ~Default                                  : No
  g4 Q7 U: c$ r5 v) Q8 q. |Forced                                   : No! J% V  }; D; z
Original source medium                   : Blu-ray- M" c1 l2 I  y* C; ]
' Z' A4 Y* [3 x0 p# s
Text #16
: B# i/ g- l. k( ]& a, `ID                                       : 29% Y! p; u* L- X% S* l
ID in the original source medium         : 4619 (0x120B)
3 `. u" n. S' H9 L" \0 @4 L. `Format                                   : PGS
6 z! [0 P/ J, |/ @, w( k* sMuxing mode                              : zlib
' d3 R4 P! s4 xCodec ID                                 : S_HDMV/PGS
& J5 E4 }4 z/ h: o: pCodec ID/Info                            : Picture based subtitle format used on BDs/HD-DVDs
0 Z& g+ V. `) v3 v# Q+ [+ aDuration                                 : 2 h 11 min
3 @1 P! f. X2 x7 [( QBit rate                                 : 11.7 kb/s
& T  l* _2 T+ [- r, QCount of elements                        : 2492' m. K( D) E* f8 t" i
Stream size                              : 11.0 MiB (0%)
2 M/ e4 `* @+ r3 m: g4 R+ qLanguage                                 : Arabic; c% V8 S0 f  l" x2 H) t; T+ ?
Default                                  : No% x$ ^/ N. l2 O& C
Forced                                   : No
& O4 j' I1 ?( w& MOriginal source medium                   : Blu-ray
, E" ]) V" V& p4 u/ F# h( ?7 x& z
( g3 r* \! F3 b6 s! QText #175 B& C7 N7 i! r3 @) m) a
ID                                       : 308 r( M7 _7 q9 E; S, c  k
ID in the original source medium         : 4620 (0x120C)
# t! @* ]" M9 pFormat                                   : PGS- z; S# @7 M2 D3 \' g- @
Muxing mode                              : zlib
  R; }( Y0 v3 ]- dCodec ID                                 : S_HDMV/PGS
0 j: t( |/ w+ g( ?) q5 z) k- q* j* |Codec ID/Info                            : Picture based subtitle format used on BDs/HD-DVDs4 j, Q+ n5 A9 ?
Duration                                 : 2 h 11 min& |* f; N. Z8 I$ R- z1 d( ]
Bit rate                                 : 25.7 kb/s
2 Q9 k8 S) e, ^( u- s& V6 A" d0 s% eCount of elements                        : 2852) }+ ~; R7 U! }5 d) c! i- l  K
Stream size                              : 24.1 MiB (0%)1 n; q* S3 f! f7 ~
Language                                 : Chinese3 e- g* Q& m% y7 j
Default                                  : No
! a0 b9 k7 w& D/ q" _0 BForced                                   : No% G2 d' H$ B9 g* \
Original source medium                   : Blu-ray- C" f# Z. N' b% c# `- g

! F. I$ J3 y0 Y/ UText #18
3 d. o+ q1 E1 fID                                       : 31
2 F1 v! S- x( V) tID in the original source medium         : 4621 (0x120D)% D9 _% [. U1 L& Z
Format                                   : PGS
) m7 Z" E( @9 t) PMuxing mode                              : zlib8 G, e" K3 o& o9 w  A- c/ L* c$ x
Codec ID                                 : S_HDMV/PGS
+ }$ d* E) A  d- G/ {" @. a  JCodec ID/Info                            : Picture based subtitle format used on BDs/HD-DVDs
% `, ~4 t  N0 O8 @- m6 uDuration                                 : 2 h 11 min
* \: p# n/ p) t9 F5 v5 wBit rate                                 : 31.6 kb/s
/ m5 C, Y7 N" \& b8 tCount of elements                        : 3166: f0 J, p# ~5 l
Stream size                              : 29.6 MiB (0%)8 J  e" f% d9 I8 O+ r
Language                                 : Hungarian
% Y$ C( Y) v2 SDefault                                  : No7 I$ V4 M# e3 s5 {. ^
Forced                                   : No" p' A' T, U/ T% }& I, P! b
Original source medium                   : Blu-ray$ P; i" @& p" z2 _5 _
) @3 s: |  Q' O2 k
Text #19
5 F) A& G8 W& _" B8 W4 [, ^  \  kID                                       : 32; y4 ~# N9 }% k0 r  A
ID in the original source medium         : 4622 (0x120E)  `5 k' o. S4 e, w+ \* g
Format                                   : PGS
& Q  x8 \1 L' [$ z* L7 oMuxing mode                              : zlib8 R( l3 e4 d  c9 L; y' p
Codec ID                                 : S_HDMV/PGS
9 b+ c" t% t+ C9 H" ^Codec ID/Info                            : Picture based subtitle format used on BDs/HD-DVDs2 L; R% F+ k$ `
Duration                                 : 2 h 11 min
5 w9 V: n" E; _7 q/ [1 R4 uBit rate                                 : 23.5 kb/s
2 n% B- Z; k+ U8 pCount of elements                        : 3028
2 o/ E2 _6 i8 b  Z" wStream size                              : 22.0 MiB (0%)
  C) K& {7 j3 NLanguage                                 : Hindi
/ W2 t0 H% h1 O5 hDefault                                  : No
5 L7 G2 s+ M! YForced                                   : No1 m8 ^% i$ I* Z+ R
Original source medium                   : Blu-ray
( }1 t) a- N8 y7 ~/ I0 \: A% q: ^
Text #20
) t' `( G* o  e2 E6 s6 kID                                       : 33
& [0 k1 e8 g7 |ID in the original source medium         : 4623 (0x120F)- W& f& Y, `3 ]0 J1 W) R
Format                                   : PGS" W9 j# u+ {/ c7 K
Muxing mode                              : zlib/ s0 s+ ^6 c- ~- X/ ?- L; j) u' c
Codec ID                                 : S_HDMV/PGS
* n8 e# z+ H) d% vCodec ID/Info                            : Picture based subtitle format used on BDs/HD-DVDs
* F$ v9 E5 {. {8 QDuration                                 : 2 h 11 min/ M) P2 A& B2 B6 p
Bit rate                                 : 15.5 kb/s% x0 I+ y. C& k+ x/ k8 T
Count of elements                        : 2168
( \2 f3 n: w9 VStream size                              : 14.6 MiB (0%)
- n  m' S% f  F$ U' _  G( QLanguage                                 : Korean
9 I  o& P7 o. J4 d. ~) v0 RDefault                                  : No
- k# v% U, @0 q' FForced                                   : No9 ]7 p  \$ l4 g- ~+ b" m# U
Original source medium                   : Blu-ray0 |- V, |4 K. Z% ^
: m( _; C$ b* S* _9 s+ e
Text #21! k  {5 y. g  z0 B: d- l6 \/ \
ID                                       : 34
# j  J. z4 x; W9 x. L; nID in the original source medium         : 4624 (0x1210)/ A6 s  z9 p3 j% ?+ ]7 _
Format                                   : PGS9 M( y6 ^# T8 w9 b3 e! U! U* q) E& b6 ?7 F
Muxing mode                              : zlib# I  l2 q( L* s! P4 E
Codec ID                                 : S_HDMV/PGS
+ H- A; f6 s' y2 FCodec ID/Info                            : Picture based subtitle format used on BDs/HD-DVDs5 T# F" h3 Y3 ^0 [! [  P6 e
Duration                                 : 2 h 11 min, n2 D; e# G! H' c9 G& P
Bit rate                                 : 32.2 kb/s0 V- a$ o& N8 ^  d4 `6 s9 `
Count of elements                        : 3078
+ z2 t8 E1 q, G1 `! ?- I. yStream size                              : 30.2 MiB (0%)
- Y1 B; L9 b' E8 mLanguage                                 : Polish/ L7 @8 o: b5 B( H1 P, }1 k
Default                                  : No
5 _5 W, ^  c; \4 Y3 UForced                                   : No( ~$ B$ u) ?7 J4 G# z1 `: u% C2 G* b
Original source medium                   : Blu-ray+ g9 F7 I/ J4 ~: r

, p7 l6 V% S. ^* sText #22+ h; v2 r1 C' T6 w) a7 m1 i. N
ID                                       : 35
4 Y# F$ n0 K  H- f6 wID in the original source medium         : 4625 (0x1211)7 s) \6 o$ H4 \* H
Format                                   : PGS* W6 x3 z9 U6 C' k# T! ~1 h6 x
Muxing mode                              : zlib+ X9 m+ L! z: V& ]" F. ?8 H
Codec ID                                 : S_HDMV/PGS' Z9 n6 j; l4 e; b! @$ L
Codec ID/Info                            : Picture based subtitle format used on BDs/HD-DVDs! D0 J) h# N6 Z8 J1 @
Duration                                 : 2 h 11 min4 @5 p% N. V5 t  j/ W
Bit rate                                 : 26.2 kb/s4 T+ q* Y% |. {
Count of elements                        : 2606+ M6 A8 D! Z, c- S) a
Stream size                              : 24.5 MiB (0%)  K+ B% q) C# e, K. c7 Y  r
Language                                 : Romanian
" ?& I) [% w8 f- t' u" y( ~Default                                  : No% d3 Y$ G  N9 ?$ m/ x7 ~
Forced                                   : No
& l$ J5 S/ h' E" x( BOriginal source medium                   : Blu-ray+ s( W/ z9 R# {& [8 p

9 q$ s- Z; ~. IText #23- l7 f' o4 S& O+ f% x+ D) P/ }
ID                                       : 362 Z* c+ `  G5 }3 l  N
ID in the original source medium         : 4626 (0x1212)6 i5 N0 I; M- S  ]2 L3 `
Format                                   : PGS
3 c9 \0 f5 r) Z# p' |5 ^Muxing mode                              : zlib
$ P! r1 Q# d# p- t+ D/ g4 RCodec ID                                 : S_HDMV/PGS8 _' u  N5 z, m  Y: Z/ R
Codec ID/Info                            : Picture based subtitle format used on BDs/HD-DVDs
6 S2 g( \4 R" a" l8 @# c  t; RDuration                                 : 2 h 11 min
. J. f" n  L1 y2 H" u* ~Bit rate                                 : 20.8 kb/s& N4 ~! G& Q7 n. _6 c' G
Count of elements                        : 1692) R# |) n  T' i8 L3 k' l7 A
Stream size                              : 19.5 MiB (0%)
' v% O; q9 Z" B. pLanguage                                 : Slovenian8 q% m  J* d# d$ z
Default                                  : No
! U8 P0 D) d% P- K8 GForced                                   : No
" V& D' t" h+ D/ E' G. @Original source medium                   : Blu-ray
% ~- q" j7 Z2 N+ m1 ?' Y$ D) I9 M5 C
3 X  d0 r4 P: [  gText #247 r8 B) d2 y+ D6 Z2 f# \: R
ID                                       : 37& T1 ~9 q  r0 A" y; A4 W
ID in the original source medium         : 4627 (0x1213)
5 ]9 `- ]0 D" w* Q0 a) L6 O. {Format                                   : PGS) e7 R# o5 Y' x/ F4 B7 T4 z
Muxing mode                              : zlib
) M( m+ V; m3 g! o* T) fCodec ID                                 : S_HDMV/PGS
3 V+ K, R1 ]4 z, r+ f8 YCodec ID/Info                            : Picture based subtitle format used on BDs/HD-DVDs
8 ]4 p$ p  g$ F9 Q6 _4 d2 R; j' `; XDuration                                 : 2 h 11 min
& i. {9 Y. I: r  |6 }Bit rate                                 : 22.0 kb/s2 j% |7 C4 I* H
Count of elements                        : 2866
/ d/ r" {  f; v; F7 X9 J0 HStream size                              : 20.7 MiB (0%)
, x$ j% ?0 [* y$ l- D  L9 X1 Y: ?Language                                 : Chinese9 T6 b" Z+ l; |# s
Default                                  : No8 F3 q9 F; G, X- Q! u: R
Forced                                   : No
6 V6 F" L1 f. f- uOriginal source medium                   : Blu-ray5 i2 T  R( C% t% R+ _3 h
& c3 h8 q- T9 ^: h
Text #25
3 L4 q1 [7 h3 ?5 H2 l5 G/ |0 LID                                       : 387 C" v1 l3 r2 |$ e: }* ^$ }
ID in the original source medium         : 4628 (0x1214)- x6 d/ y3 ^& @! f- |' C6 r3 e
Format                                   : PGS; e& {# r' R, y- a! }  C! m, P; ]. {
Muxing mode                              : zlib, g1 ?4 D' t4 o! z1 B8 g
Codec ID                                 : S_HDMV/PGS
0 V$ Y  ?8 Z' B) B; ]Codec ID/Info                            : Picture based subtitle format used on BDs/HD-DVDs% }! i$ N  ]5 @4 z
Duration                                 : 2 h 11 min
+ E) M% [: M% S( BBit rate                                 : 18.0 kb/s3 R! [4 k/ a  W- Q' M; @. r! \
Count of elements                        : 2638
* ^9 \1 b; b% s; }5 o$ B4 }4 lStream size                              : 16.9 MiB (0%)
' A) h, }3 W# F. d) I6 CLanguage                                 : Thai
" }& h' D! x2 b2 \1 C; w& ]8 FDefault                                  : No; d2 W. m9 h4 \1 ~: M3 q
Forced                                   : No" C4 _+ b1 t  V
Original source medium                   : Blu-ray
% V: c) D0 j, v, ^- _0 I" s, o4 ^) c7 t% N& u6 ~
Text #26- a" Y* v0 S) ~- U$ R/ D1 o) e+ G6 N
ID                                       : 396 u6 R7 a% \* m; s& T% h) u; [
ID in the original source medium         : 4628 (0x1214)% H/ `6 A! m' a6 |4 I
Format                                   : PGS4 n, o" q) v2 F( d2 O  g4 X
Muxing mode                              : zlib
! n4 h5 @2 r! S6 G- ^, p3 kCodec ID                                 : S_HDMV/PGS. n, v/ C' C7 ?
Codec ID/Info                            : Picture based subtitle format used on BDs/HD-DVDs- f! R: @2 V6 d1 O5 j
Duration                                 : 2 h 6 min
: M0 p. I5 v/ ~! Z1 s- vBit rate                                 : 104 b/s
9 L( p' b, x. ^4 R$ K- h2 BCount of elements                        : 16
1 G: @* F+ ~0 J& p7 ^Stream size                              : 97.0 KiB (0%)
' p! [6 y" f, v( |- H5 n3 _0 ]3 n2 tLanguage                                 : Thai# f" F: c2 n# w( M: h! j" A) k
Default                                  : No0 i  ?9 x3 u+ H# }% _
Forced                                   : No
" |8 H" H" @7 C$ cOriginal source medium                   : Blu-ray6 a1 |/ _2 ?% b7 I

3 j1 G5 A1 f5 rText #278 Y9 m1 q6 o. C; u' t/ i, p1 x
ID                                       : 40& @) D- j5 }" U6 Z6 I
ID in the original source medium         : 4629 (0x1215)
! R6 m9 \$ f( L  Q4 L$ m  w, GFormat                                   : PGS
0 `+ ^+ x2 O4 nMuxing mode                              : zlib6 P) W0 @  y' x4 a, w7 Z- n+ v
Codec ID                                 : S_HDMV/PGS) X4 p% W- _4 y) Y
Codec ID/Info                            : Picture based subtitle format used on BDs/HD-DVDs) {! B; @4 D, ]* L+ p. R* e0 h  d, Q
Duration                                 : 2 h 11 min
8 @! q4 e8 u* @7 E9 aBit rate                                 : 30.5 kb/s
8 Y# k2 e1 `- Q% `- @4 g1 QCount of elements                        : 2132
' f: Y0 \! ?' cStream size                              : 28.6 MiB (0%)9 J0 a) B, M2 {
Language                                 : Turkish
( p; m. \3 ~) z! q7 @4 a# qDefault                                  : No
6 m% {! y8 O& F/ yForced                                   : No# u& G4 @" U; W) D# l$ ?- e. U7 n/ y
Original source medium                   : Blu-ray
' y  a0 g  K* v- ~( I1 _- i( W- |' M6 t$ N
Text #28
( v+ B7 }$ ]1 C, s- p7 YID                                       : 41
- ~* C4 v0 o5 ~: J7 \! yID in the original source medium         : 4629 (0x1215)6 B% Y9 w1 @. W1 J0 E
Format                                   : PGS0 K) s, D& L9 S: `% N
Muxing mode                              : zlib
, b6 H* T8 j4 w5 B) _. XCodec ID                                 : S_HDMV/PGS
! x$ V) j1 _/ j) s5 p$ x4 tCodec ID/Info                            : Picture based subtitle format used on BDs/HD-DVDs
' ?$ k3 x$ Z- r" d) NDuration                                 : 1 h 50 min
6 C; j" Z8 r1 P; d( C* qBit rate                                 : 40 b/s
, h4 I, J2 c8 n% u* v( R# qCount of elements                        : 42 @5 U* L2 q: S- y9 w
Stream size                              : 32.4 KiB (0%)
7 \! y5 ?( U) ~4 }9 o" y$ JLanguage                                 : Turkish
. O( @' M/ Z& R3 ^# eDefault                                  : No# S  i, y" d. O$ o( l# j
Forced                                   : No
2 P$ ?9 {$ p& i/ K% v3 F' dOriginal source medium                   : Blu-ray
- h5 E: q( y" U& B( i; L% J) L0 X; G% ]9 `* [# _
Menu
! R  _% ^6 y* [) P, z00:00:00.000                             : en:Chapter 01
! L! q& \4 Y2 a* W( y5 N0 f' v7 c5 u00:02:21.975                             : en:Chapter 02
) v' o+ u+ C: d00:03:58.363                             : en:Chapter 03
* G% a+ K8 B8 b* a& T8 K, P! j00:05:12.520                             : en:Chapter 041 e$ K6 {" F0 E3 {/ Q( b: X2 E
00:06:10.411                             : en:Chapter 056 {  w$ B6 h1 y5 E; `& k' X
00:07:51.512                             : en:Chapter 065 B/ M7 M8 q3 c: ~& E! E
00:11:58.718                             : en:Chapter 073 r! ^% w0 L4 ]# F2 A$ ~5 R
00:13:18.506                             : en:Chapter 08
2 I5 |% p6 J' {  i/ K) n5 h00:14:03.676                             : en:Chapter 098 r; P9 [) }, a! Y
00:14:18.941                             : en:Chapter 10! e7 ?+ ^! W0 D4 p) F# d# T
00:16:58.892                             : en:Chapter 11
( z! u5 q. L+ x00:21:01.051                             : en:Chapter 12% \, N& {2 w: ?% z
00:22:42.569                             : en:Chapter 13
# [( X. G2 B& {+ l; p00:24:53.825                             : en:Chapter 14
1 [% A! O6 g- s  o& m00:26:50.900                             : en:Chapter 15( Z, D3 Q% l* I3 N5 D: X: c
00:28:50.812                             : en:Chapter 16
3 ^( c- `0 A8 E, @$ b$ r00:33:25.044                             : en:Chapter 17
/ t) T% ?+ x9 C  u$ F00:34:09.213                             : en:Chapter 18; A* ]5 B: F  Y1 E+ X
00:35:26.999                             : en:Chapter 19
. \& O- }" n& B2 _# W00:38:19.255                             : en:Chapter 209 k  x* G0 a2 o1 O. c% x% S/ _
00:42:34.176                             : en:Chapter 21
7 k- A6 m8 ^# u2 L" ^00:43:24.727                             : en:Chapter 22
, b" T5 _: j( ~( |  I* R+ D# k00:45:19.007                             : en:Chapter 23
0 c$ K' ], I6 g; g( r00:48:00.002                             : en:Chapter 24
7 J6 p; g8 a5 u" m" R3 C/ e00:52:39.614                             : en:Chapter 25
2 Y! B' ?, a* [$ m00:56:49.739                             : en:Chapter 26" J: H" Z* u' d1 `5 ?
00:57:55.805                             : en:Chapter 27% ?4 W# z' ~+ @) O  ^8 G, e
00:58:39.307                             : en:Chapter 28' R% q/ X# t7 x# U
01:00:50.063                             : en:Chapter 299 q0 w7 W4 _# b) w3 {5 g
01:01:39.445                             : en:Chapter 30
1 }' C5 P) M% W1 Q1 E  `* |. q01:04:18.980                             : en:Chapter 31, S8 b' e+ V" j- q$ `+ Q
01:07:44.685                             : en:Chapter 32
' y% }& e7 i; [; S$ _01:12:58.874                             : en:Chapter 33
" l( F) d+ }# r/ l- n01:15:19.640                             : en:Chapter 34
: i3 |8 d3 U6 t01:19:15.333                             : en:Chapter 35, U# R' e5 o) o( b* s
01:26:11.374                             : en:Chapter 36
0 b* h5 J6 O. x( ]8 M01:28:50.366                             : en:Chapter 37
1 {  r0 X$ e+ G; [( ~" G1 m3 y+ {8 E01:29:27.820                             : en:Chapter 38
, r6 ~7 W- f3 j+ r' a( r# L/ h1 D: H# @01:30:07.527                             : en:Chapter 39
, o! r/ A# ~) O' {01:35:44.029                             : en:Chapter 40
" S9 u% f/ Q- p: D01:38:58.557                             : en:Chapter 41
& E" |4 S6 V: e% e2 e01:41:27.331                             : en:Chapter 42
2 O: k) Y* h, F# Y/ g01:45:25.193                             : en:Chapter 43
* F: d; a. H+ z8 c5 t0 F01:47:45.584                             : en:Chapter 44& M, V4 G$ ]/ L" r: `$ h
01:48:11.526                             : en:Chapter 459 z, U: D+ ]% D" J: c4 k+ O
01:49:50.542                             : en:Chapter 46& \% e0 U4 C  X3 v  p
01:51:09.996                             : en:Chapter 47/ Z3 S" d# B) r( o
01:54:16.599                             : en:Chapter 48
% b& W! t) v! X% J" F* ]  L8 X, P( i01:58:23.346                             : en:Chapter 494 r1 T! \/ ^) e; d
01:59:44.844                             : en:Chapter 50' b$ m' {! L( V' ?8 @' F, O$ W
02:02:01.188                             : en:Chapter 51$ L) z  B2 m; V
02:03:49.422                             : en:Chapter 52, y% n! A  C9 l( x
02:05:13.714                             : en:Chapter 53$ o- e- `" T3 s- [; t' ~# @& T' V3 n
02:06:28.706                             : en:Chapter 54
; j$ Z$ c/ z, O02:07:19.632                             : en:Chapter 55
9 O! G, L' |  }( S' K/ q
游客,查看本帖隐藏内容请回复 | 加入VIP可免积分免回复 了解详情 | 还不是会员:点击获取邀请码 Invitation Code

31

主题

2390

帖子

1万

积分

Sponsor

金币
1707 枚
体力
6493 点
QQ
shiji1973 发表于 2022-8-13 16:29:23 | 显示全部楼层
每天都来蓝光论坛看看,我爱蓝光电影。
- m3 I2 Z/ \# x) U& Xbluraycd forum, a lot of Blu-ray movies!0 ^1 K# L: F. P9 e5 v/ Z% k

本版积分规则

小黑屋|Archiver|蓝光电影资源网

GMT+8, 2022-9-29 23:37

Copyright © Tencent Cloud.

快速回复 返回顶部 返回列表