BluRayCD Forum

 找回密码
 立即注册【分享大片】
查看: 23|回复: 3
收起左侧

[动漫动画] 光年正传/巴斯光年 Lightyear 2022 1080p BluRaycd x264-KNiVES 11.30GB

[复制链接]

1万

主题

1万

帖子

10万

积分

Post Share

金币
171 枚
体力
26705 点

卓越贡献勋章VIP黄金勋章诚信会员勋章

mvods 发表于 2022-8-28 09:26:57 | 显示全部楼层 |阅读模式

' y& @! L. n- a1 G3 @( _; m& G* _6 j& E6 o% W& B( `4 T
◎译  名 光年正传/巴斯光年
  x; ^2 s- k+ L0 q. i. W% a◎片  名 Lightyear ' x/ F' _3 l$ D/ [9 y5 @4 K
◎年  代 2022
2 c4 Z4 H3 `9 i& L0 [+ L2 Y' `, r◎产  地 美国: r5 n6 n4 b  q1 F9 c
◎类  别 动作/科幻/动画/冒险
- y& u/ j) y; x% D* z7 A◎语  言 英语
- r  M+ M$ g0 c) n  |- K5 d$ L, x◎上映日期 2022-06-15(意大利)/2022-06-17(美国)
$ d; f5 _( ~7 G3 i* y2 w5 c◎IMDb评分  5.8/10 from 84,922 users% q* X7 |1 G) O" `
◎IMDb链接  https://www.imdb.com/title/tt10298810/5 [$ ]% f5 T3 Z" E, `: |
◎豆瓣评分 6.8/10 from 19,046 users
0 V6 o3 B2 n& B( R# s◎豆瓣链接 https://movie.douban.com/subject/35284168/
- K& m, X5 L* k$ e( G◎片  长 1 h 45 min. H9 H; S9 ]: V/ n% G
◎导  演 安格斯·麦克莱恩 Angus MacLane( Q/ r8 _6 `' F, U- F' w. L1 C
◎编  剧 安格斯·麦克莱恩 Angus MacLane
- K% q8 K) ^% M' T       杰森·赫德利 Jason Headley
/ d# P/ C: r* P% o2 ?       马修·奥尔德里奇 Matthew Aldrich
5 `, ]0 v: O! y- J6 R2 l$ M       彼特·道格特 Pete Docter
+ E/ u* A) T! i4 o       安德鲁·斯坦顿 Andrew Stanton  x( P  }! P, }9 a1 T
       乔·兰福特 Joe Ranft5 P: Q$ k+ }1 y- Z; ~7 O
       约翰·拉塞特 John Lasseter
- P! N4 o+ h8 G) [) M. ^# M7 x, S0 n. Z◎演  员 克里斯·埃文斯 Chris Evans
5 k; f2 W' m+ h. Y       柯柯·帕尔莫 Keke Palmer' o% r! u" n  n, [$ s
       彼得·孙 Peter Sohn& y. S  L5 w% F3 G  Y
       塔伊加·维迪提 Taika Waititi
4 t1 [% o' w/ a6 b       戴尔·索尔斯 Dale Soules# @$ e& \4 J) {2 [
       詹姆斯·布洛林 James Brolin
  }! c( A) z) `1 D4 q9 s3 b4 q8 p       乌佐·阿杜巴 Uzo Aduba! {' k& y  @/ H) q& ?$ S: P
       玛丽·麦克唐纳-刘易斯 Mary McDonald-Lewis  P% N; C7 N4 S( J7 X, ~
       小伊塞亚·维特洛克 Isiah Whitlock Jr.) @( `5 z# G: F; |# C
       安格斯·麦克莱恩 Angus MacLane
" x% t! _" [* `- S9 \       比尔·哈德尔 Bill Hader+ y# ]7 G/ U2 y' }3 Z
       艾弗连·莱米雷斯 Efren Ramirez9 z9 h" E/ J+ M
       凯拉·海斯顿 Keira Hairston
$ L8 t# m/ |/ h4 T; A. V& e0 r
1 d: v; h1 a- A% h" M# U◎简  介   
# k$ P$ k6 y; ~; N- o- E5 k7 d6 ?9 e1 T
  皮克斯打造《玩具总动员》系列衍生动画电影《光年正传》,美队Chris Evans配音。讲述巴斯光年人类原型宇航员的起源故事,他从一个年轻的试飞员,变为大家熟知的太空游侠。3 w/ h* k! T3 H

% L. a; e2 d/ o& k  While spending years attempting to return home, marooned Space Ranger Buzz Lightyear encounters an army of ruthless robots commanded by Zurg who are attempting to steal his fuel source.
9 [6 R: e2 c/ T( F. c, ^
Video
3 R" Q; y  b2 yID                                       : 15 O$ z# I  e4 z6 S' C3 {2 ]- F" z
Format                                   : AVC$ M  V- N- M: J* ]  r
Format/Info                              : Advanced Video Codec
# Y1 ~; F0 o5 {* pFormat profile                           : [email protected]/ n! ]/ t1 F7 I! j  b! x$ E
Format settings                          : CABAC / 5 Ref Frames# j) I+ ]7 E7 T2 V1 Y; C
Format settings, CABAC                   : Yes- E$ ^' W7 T' ^7 u3 p: }
Format settings, Reference frames        : 5 frames
6 d6 v* E% ^* `. B% LCodec ID                                 : V_MPEG4/ISO/AVC
2 K( i+ H6 M, H# c5 t  N, c: Q4 GDuration                                 : 1 h 45 min- _( V5 n4 d" l" E- r2 P; ^: w2 w
Bit rate                                 : 10.3 Mb/s
2 q5 `5 S: p9 f3 gWidth                                    : 1 920 pixels
0 u( d, ~# i1 {  {0 MHeight                                   : 804 pixels
( K9 t$ n1 J  ]1 |Display aspect ratio                     : 2.40:19 x* z5 ~) }# O1 x9 O4 e
Frame rate mode                          : Constant& |4 E3 b0 j, z) T- w/ q7 ]
Frame rate                               : 23.976 (24000/1001/189150) FPS0 d% z$ i; r/ e9 d. V! s
Color space                              : YUV
3 P: G- a! S. z/ lChroma subsampling                       : 4:2:0
: T3 `# w2 D3 f, GBit depth                                : 8 bits, ]* W$ J6 ^# O2 R  m) ^8 E7 c# V
Scan type                                : Progressive
+ E2 o4 [# d. i( E3 @. QBits/(Pixel*Frame)                       : 0.2781 k4 x+ g" }2 a- u  B. ]
Stream size                              : 7.54 GiB (67%)
  ?# `( `9 i( O" {Writing library                          : x264 core 164 r3095 baee400
1 R2 U0 w) K8 F% s9 l! n; ~& {Encoding settings                        : cabac=1 / ref=5 / deblock=1:-3:-3 / analyse=0x3:0x133 / me=umh / subme=9 / psy=1 / psy_rd=1.00:0.00 / mixed_ref=1 / me_range=16 / chroma_me=1 / trellis=2 / 8x8dct=1 / cqm=0 / deadzone=21,11 / fast_pskip=0 / chroma_qp_offset=-2 / threads=25 / lookahead_threads=2 / sliced_threads=0 / nr=0 / decimate=1 / interlaced=0 / bluray_compat=0 / constrained_intra=0 / bframes=3 / b_pyramid=2 / b_adapt=2 / b_bias=0 / direct=3 / weightb=1 / open_gop=0 / weightp=2 / keyint=250 / keyint_min=23 / scenecut=40 / intra_refresh=0 / rc_lookahead=60 / rc=crf / mbtree=1 / crf=15.5 / qcomp=0.60 / qpmin=0 / qpmax=69 / qpstep=4 / ip_ratio=1.40 / aq=1:1.00
" z/ j7 T- i' G7 u& o* x2 HLanguage                                 : English0 D8 [; N& x. t
Default                                  : Yes8 S8 C  A5 D- v) {0 n/ O
Forced                                   : No
1 E! L1 m' o1 h, ^; {3 ~( q! B) J& N% a
Audio #1
# m, h' s8 j- D7 w& S/ jID                                       : 2
; K2 k# |  F1 P# ]  t# n: b: PFormat                                   : DTS XLL  ~# z& y0 ]8 I$ o
Format/Info                              : Digital Theater Systems9 {) c$ ?. d$ k' x5 H3 G; `
Commercial name                          : DTS-HD Master Audio% W1 ~2 q6 a1 o; Q5 \, w. l
Codec ID                                 : A_DTS6 V$ |' i3 ^7 t) M) h+ h( g7 r
Duration                                 : 1 h 45 min
- E/ ~0 o; r$ B: B# X! Y& B9 Z; o* Z, ^Bit rate mode                            : Variable
0 U0 f. K1 K0 U7 j* VBit rate                                 : 4 821 kb/s
7 x" M5 i; j" u* Q4 ~Channel(s)                               : 8 channels* R# H0 S3 m( V/ U/ @& @1 L
Channel layout                           : C L R LFE Lb Rb Lss Rss2 R# D* J* H& n
Sampling rate                            : 48.0 kHz  i. }5 v) p  O) E4 _% k2 z
Frame rate                               : 93.750 FPS (512 SPF)
; U$ c# |- _7 m5 |/ {Bit depth                                : 24 bits
6 c+ s# F" i, q8 NCompression mode                         : Lossless3 e) v  _2 M( z1 |  B0 z  O' N0 [
Stream size                              : 3.54 GiB (31%)
/ F, P; G  S% Y$ l2 F; }0 `. fLanguage                                 : English# @0 e1 w3 k9 W) C5 z/ S  @
Default                                  : Yes2 T# e$ O6 |! K3 B3 R* W6 y% g- A  D
Forced                                   : No* Q- {# P5 W) [; x! F* Z  a( Z

! `) U9 x+ D$ w/ RAudio #2  G" ~# ~- o( Y- n$ D
ID                                       : 3
' M5 U* |- e: C) E5 CFormat                                   : AAC LC
5 A! s* E" m. j5 ?" aFormat/Info                              : Advanced Audio Codec Low Complexity
- w( ?1 u3 n" h3 e$ A0 |' p( x3 cCodec ID                                 : A_AAC-2
+ v& h+ s- O' j/ k( m# y' KDuration                                 : 1 h 45 min
  R0 O; }' U2 j" OBit rate                                 : 114 kb/s# K9 x6 H) Z* p, U3 w
Channel(s)                               : 2 channels6 a$ l( N, t' {
Channel layout                           : L R
$ X5 i+ B2 g" @( z" Q+ aSampling rate                            : 48.0 kHz) i' ]+ A! ]1 ^& |# f
Frame rate                               : 46.875 FPS (1024 SPF)' q6 Z6 j6 q: c" W
Compression mode                         : Lossy
* O4 W' u; n# e8 v; Z+ L9 I% }; EDelay relative to video                  : 9 ms
$ s* S9 c4 R! h& o; ]6 zStream size                              : 85.9 MiB (1%)2 O  W* k7 {. b# n- E
Title                                    : commentary3 J- Y" Z$ ?& e9 S
Language                                 : English
1 n; c3 b9 j! ~Default                                  : No
8 E$ M% A3 O2 ^9 Q( I- TForced                                   : No* f0 R% O! c" N0 a* A
2 C- R6 y. {! m. H
Audio #34 [  U* y; R- ]/ R( s/ p
ID                                       : 4/ y) A" c% b( C; v0 T4 B) `
Format                                   : AAC LC5 \( q% l" t) \; g/ v
Format/Info                              : Advanced Audio Codec Low Complexity
8 k5 K' J0 ^2 f0 U+ y; R+ CCodec ID                                 : A_AAC-2
9 E6 f! F0 n. i8 ZDuration                                 : 1 h 45 min1 o$ t6 }0 y7 I9 I( d
Bit rate                                 : 120 kb/s
0 H5 q* o/ p, nChannel(s)                               : 2 channels
* _' D7 W# d- d5 E8 f& AChannel layout                           : L R
0 X- A3 H* q5 w9 @% ^2 XSampling rate                            : 48.0 kHz
* t: P. b0 x0 d- j0 D( SFrame rate                               : 46.875 FPS (1024 SPF)7 f9 G' ~5 z6 o3 p: e
Compression mode                         : Lossy0 P) _' U. N7 E1 O6 k5 y* U0 m  w
Delay relative to video                  : 9 ms
! \; Y2 N5 g( V' y  B4 d8 T! l# u* rStream size                              : 90.1 MiB (1%)6 U  S6 L  t6 A  C2 U
Title                                    : commentary
! V1 H8 f- l7 oLanguage                                 : English
: u1 s: S4 \; R9 ~1 B! m2 XDefault                                  : No
8 \. |" {+ ^! Q2 [Forced                                   : No$ z0 P8 k6 I+ Q# j' l  T

: A$ W6 x! Q. A% z! n4 p4 bText #1/ P2 Z) t+ U3 s: f: C
ID                                       : 56 y) N, \) `1 a1 g, R
Format                                   : PGS
( U' b/ Y" G. l" ~, lMuxing mode                              : zlib( q2 w8 @0 o. F0 M6 T3 p
Codec ID                                 : S_HDMV/PGS
0 g. L$ W; K/ I9 e+ HCodec ID/Info                            : Picture based subtitle format used on BDs/HD-DVDs
8 V6 s& q1 N8 U3 w' s7 S/ i' aDuration                                 : 1 h 44 min/ j/ y. f7 U) C2 y5 _
Bit rate                                 : 51.9 kb/s
! x9 \& J6 l1 D) tCount of elements                        : 4154/ S$ r+ E# Y  w
Stream size                              : 38.9 MiB (0%)/ Q% R3 N* k6 }
Language                                 : English5 ]8 W) ?9 W9 \$ D3 y5 F9 d
Default                                  : No* N( E1 A8 H8 k. C  [$ {' M+ y
Forced                                   : No! x6 V  x7 j( G/ D3 l3 d
+ {5 r/ p+ N! ?* ?& @5 R7 H
Text #2
1 `; _) O1 T/ C, s0 L: {ID                                       : 6
0 ?& n) T$ D. J% q. SFormat                                   : PGS
+ U! O# s6 C* \+ x( j7 |/ x# ^2 QMuxing mode                              : zlib
% I/ C3 W. K5 U6 E/ ^Codec ID                                 : S_HDMV/PGS
# U/ }! F2 F1 }" c3 E: ?: B; c$ ^$ ACodec ID/Info                            : Picture based subtitle format used on BDs/HD-DVDs6 ]" {$ y6 y  r5 O" U! }$ r
Duration                                 : 1 h 44 min
$ X1 V7 L, a  A  U" E4 ^6 S& P# SBit rate                                 : 70.5 kb/s
- ^# t) S3 z2 i  I8 }0 _Count of elements                        : 3582& N8 l4 ]' @6 ^( u& j) m
Stream size                              : 52.8 MiB (0%)
- y; |7 i( `8 w  VLanguage                                 : English
0 T$ N5 y0 J0 v6 z7 r9 y2 \1 t( e7 sDefault                                  : No0 z  M( U. b7 _( C1 X- N' \* b6 j
Forced                                   : No2 B3 O+ g; C3 U. e( n
% \* W2 b6 k+ p* Y" A
Text #3
; M" ^3 _4 Y" N+ D* i# cID                                       : 7' r7 M( u6 ~0 F" Q8 |' Q
Format                                   : PGS5 u! J7 ?: L2 {9 g
Muxing mode                              : zlib% b' E. G  y5 w& U9 T3 u
Codec ID                                 : S_HDMV/PGS
+ m4 e, j* n, m2 w( J: S4 [Codec ID/Info                            : Picture based subtitle format used on BDs/HD-DVDs
" K& J! L3 s5 Q5 u6 {7 B" [: ]Duration                                 : 1 h 44 min; {% r# F4 n3 a
Bit rate                                 : 35.4 kb/s
; y5 `* ~2 B& V* {7 J6 e8 WCount of elements                        : 3152  z8 L) S! z9 p; z6 t
Stream size                              : 26.5 MiB (0%)/ A# G+ H2 }' I- D, f
Language                                 : Spanish- g$ J5 H, ?. I( [$ V8 R0 {
Default                                  : No4 Z; N' T% f) o4 V" E$ s& t, N
Forced                                   : No, J& z  L$ ?- _) |

% Z7 ?0 W" U" M" b: R* o0 w& MText #40 u1 Y0 B3 D" e; M( t: ]( e
ID                                       : 84 }7 Z7 S5 T2 ?4 Q1 c
Format                                   : PGS
$ J6 c. H$ D0 U7 Q2 T) Q7 w: IMuxing mode                              : zlib1 R; J. F- `* R+ C2 L; `: w
Codec ID                                 : S_HDMV/PGS7 ^5 v8 I! U8 c3 ^
Codec ID/Info                            : Picture based subtitle format used on BDs/HD-DVDs
" b% d8 [* l& S1 i$ F) M$ fDuration                                 : 1 h 44 min
- Q5 f1 j" T/ u' M" Z9 e9 v. \; {Bit rate                                 : 58.7 kb/s: t1 b" r9 _3 Q0 Y, O& T
Count of elements                        : 34687 r! `3 {% `" E+ {  U) ?' t
Stream size                              : 44.0 MiB (0%)- F8 }8 T* o2 _0 O3 p, C, W" v6 Y
Language                                 : Spanish( {& ?% T: B; f7 @' Q) F  U3 g
Default                                  : No
: @) I5 H; F4 C$ P* @7 \Forced                                   : No
) {1 p( ]1 X6 ~/ x4 x, C
% i5 M. p) a, _' B- s$ SText #5
( i4 X$ m1 H1 U- R) ]ID                                       : 9
9 [+ \0 S8 k4 `% n0 b0 q- OFormat                                   : PGS3 b, C6 |* G2 o. I( `6 `
Muxing mode                              : zlib
  R% z0 x5 V6 g9 v7 b# nCodec ID                                 : S_HDMV/PGS$ U. M  l# H0 |1 Z7 {; K
Codec ID/Info                            : Picture based subtitle format used on BDs/HD-DVDs
6 Q- y/ ^" t0 K  R1 m, NDuration                                 : 1 h 44 min
, Q8 v* M5 H& b( X, tBit rate                                 : 811 b/s
. K" R0 g0 m. s( A# b+ q  D+ s, FCount of elements                        : 1880 c4 t0 |  |6 T% ~7 ^0 B
Stream size                              : 622 KiB (0%)
8 v' d3 R* n% a1 e0 C3 i; F6 P" bLanguage                                 : Catalan
& j1 c+ c- D! T' SDefault                                  : No
6 e' d! G  q# e4 {# k3 A& uForced                                   : No# A6 C) G$ ], F& q

5 {4 J) T: x9 D6 z% wMenu5 q$ ]9 ^9 E9 M' y* y. a
00:00:00.000                             : en:Chapter 01
) w$ ~2 c4 m$ i  J' Y: g00:04:43.742                             : en:Chapter 02% }3 h1 v! Y% S' ?% n7 y$ k2 p
00:06:48.324                             : en:Chapter 03
1 u8 A  p' O$ b; A$ ~( M- k00:08:13.118                             : en:Chapter 04( a4 A& p8 h7 r9 q9 N3 U7 n! `8 a
00:09:33.740                             : en:Chapter 05' D9 g1 k; y/ ]* ~( c0 C% ]' \* \
00:11:58.384                             : en:Chapter 06
& j/ S5 Y8 C2 t: ]$ X00:15:27.176                             : en:Chapter 07  R  h% C- z: g  P* c* d) P  @
00:18:05.042                             : en:Chapter 08
1 x( V! Y. y) f* H. ^  f  H( S00:20:40.698                             : en:Chapter 09' I  c) o: W8 B5 {1 g# s
00:22:34.394                             : en:Chapter 10. @3 r0 }! W7 U! H' ]. c  E: c3 d
00:24:37.017                             : en:Chapter 11
- A. s' X0 }% H: q/ b6 O+ U00:25:41.873                             : en:Chapter 12" a/ m1 Z' |, d" B
00:27:01.244                             : en:Chapter 13! m+ Y* E( @  Y( X3 x
00:30:53.268                             : en:Chapter 14
, Z4 ^$ D) k7 v  H' T: y  g0 T00:32:02.837                             : en:Chapter 15
7 ]' Z1 m% u+ f0 K+ u' R, D00:33:32.927                             : en:Chapter 163 V2 v" g5 F7 R9 A1 @
00:34:23.311                             : en:Chapter 17/ |! r( \: ~& X2 U& m
00:36:56.798                             : en:Chapter 18
( V) b" c: ~/ @5 b5 q6 @$ d00:39:14.185                             : en:Chapter 19
2 P/ A* B/ r  n9 H# ~# f3 x$ ~3 _00:41:55.596                             : en:Chapter 20
; t1 D$ [  h4 {00:45:29.226                             : en:Chapter 21* N( R9 |- S' r3 U4 V
00:50:28.942                             : en:Chapter 22% b! q2 C( A+ s5 w; U6 V
00:51:37.928                             : en:Chapter 23! j. p) d; a3 f* M
00:54:23.093                             : en:Chapter 24
! w) x" k8 L1 `00:57:55.346                             : en:Chapter 25& d' n  X2 Z# |
01:02:11.436                             : en:Chapter 26
" ?( p: J; ?0 b: j01:04:26.320                             : en:Chapter 27
# o; P" s8 H( }* X+ e" P01:07:35.843                             : en:Chapter 285 H4 J7 G! N  ?- K1 A
01:09:15.693                             : en:Chapter 29
3 U6 ^  Z7 {) D01:10:32.770                             : en:Chapter 30
$ S5 o& }, K6 U0 }9 Q& A, b01:11:25.572                             : en:Chapter 31
' E: R" A0 K3 \01:15:37.824                             : en:Chapter 32
# R0 h2 M4 X$ r3 J3 N01:16:45.392                             : en:Chapter 33
9 L: ^  K; v& ^: o$ x& T01:17:44.076                             : en:Chapter 34
+ h1 }4 P7 z& o  W1 w4 ?01:25:18.988                             : en:Chapter 35
$ s$ D) L, c, D5 \: k3 G( Y01:27:10.683                             : en:Chapter 36
3 @7 h6 ]! i" W  Q" V: ]01:29:00.960                             : en:Chapter 37  d0 e/ w8 ~' x+ l% n/ N
01:30:42.186                             : en:Chapter 38  K5 X& |; I2 C" E5 q/ k
01:33:45.619                             : en:Chapter 39
3 N* R3 S* B) `7 ~01:36:02.381                             : en:Chapter 409 R0 G( W9 A" u
01:43:35.500                             : en:Chapter 41
1 O: b  s. H$ @7 i0 ~
! @3 S6 f9 u1 @: ], k# @3 ]( O1 ZKNiVES cuts you with
+ U. s! i' ]9 I* x4 T
- J) J" }; k: K1 YLightyear.2022.1080p.BluRayCD.x264-KNiVES 11.30 GB
8 Q' e8 Z* \4 n9 L
$ V0 M  z9 ]$ z  X0 ~date.......: today6 f. w5 O" T; {' I
Reso.......: 1920*804x7 @1 w2 H( Q) ]4 a# `3 ~7 f
Biterate...: 10,3 Mb/s
) ~+ J+ A. d6 H) P) M, mSource.....: 21,1 Mb/s
6 `  D1 p8 l; k) L  f* Wsound......: DTS-HD Master Audio
1 k( D0 |; N; p+ i+ `; s/ Icheck......: https://www.imdb.com/title/tt10298810/

1 R, g5 a' r* y, x5 d
游客,查看本帖隐藏内容请回复 | 加入VIP可免积分免回复 了解详情 | 还不是会员:点击获取邀请码 Invitation Code

31

主题

2549

帖子

1万

积分

Sponsor

金币
1803 枚
体力
6847 点
QQ
shiji1973 发表于 2022-8-28 09:27:20 | 显示全部楼层
每天都来蓝光论坛看看,我爱蓝光电影。
2 \5 B! ^$ E6 z! ?After reading the posts have nothing to do I Amoy posts!5 {1 L: z  o/ N* _% D! ^: i  r$ w

1

主题

599

帖子

2406

积分

Sponsor

金币
17 枚
体力
1208 点
firendzhon 发表于 2022-8-31 10:15:50 | 显示全部楼层
膜拜神人,后来者请保持队列……!
- Q) G! B5 g$ A" b9 `+ D祝愿蓝光社区越办越好!I wish Blu-ray communities better and better!- G3 R4 B5 X* ^* L; X
2020第一天 ...

0

主题

159

帖子

1188

积分

Sponsor

金币
214 枚
体力
658 点
aacq 发表于 2022-9-25 21:54:55 | 显示全部楼层
皮克斯一部比较失败的作品,谢谢楼主分享精彩电影

本版积分规则

小黑屋|Archiver|4K蓝光论坛

GMT+8, 2022-12-4 11:05

Copyright © Tencent Cloud.

快速回复 返回顶部 返回列表