BluRayCD Forum

 找回密码
 立即注册【分享大片】
查看: 15|回复: 1
收起左侧

[动漫动画] 光年正传/巴斯光年 [4K蓝光压制版] Lightyear 2022 1080p BluRaycd x264 TrueHD 7.1 Atmos-FGT 10.78GB

[复制链接]

1万

主题

1万

帖子

10万

积分

Post Share

金币
171 枚
体力
26705 点

卓越贡献勋章VIP黄金勋章诚信会员勋章

mvods 发表于 2022-8-30 10:18:38 | 显示全部楼层 |阅读模式
7 @* H* _. {( d7 N2 b3 u* ~
, u# r. S; b' N. q6 C% ?$ p0 l
◎译  名 光年正传/巴斯光年
0 @0 `* u8 M. H0 ~* k. A8 h% w◎片  名 Lightyear
; |! L- H# j4 z◎年  代 2022
  N4 r* @  Q+ E( L/ m  I, B◎产  地 美国
% S8 u) Z3 p% @8 |◎类  别 动作/科幻/动画/冒险8 H" d4 }& B7 s% V3 ~2 y
◎语  言 英语9 P6 z+ C: J  l
◎上映日期 2022-06-15(意大利)/2022-06-17(美国)4 u8 N( M- H& ]
◎IMDb评分  5.9/10 from 86,214 users2 {9 I( q) Q; r4 b3 P7 z% k
◎IMDb链接  https://www.imdb.com/title/tt10298810// W6 V, z7 @! ^! q' x- x
◎豆瓣评分 6.8/10 from 19,382 users
4 I/ f8 M# \. J◎豆瓣链接 https://movie.douban.com/subject/35284168/. A" M5 J5 l9 d8 Q  s0 |' Z
◎片  长 1 h 45 min
: e0 O. K# J  i# w! Y/ v◎导  演 安格斯·麦克莱恩 Angus MacLane" D! s) W* Z+ p8 a7 N
◎编  剧 安格斯·麦克莱恩 Angus MacLane
: J1 k4 S, E* S$ x# N) F       杰森·赫德利 Jason Headley
) w* M2 ]# N* _+ E7 V2 _$ a       马修·奥尔德里奇 Matthew Aldrich. o5 B- ]% v; J: z, _  H
       彼特·道格特 Pete Docter
+ t- E9 T( R3 Q6 L2 d+ c       安德鲁·斯坦顿 Andrew Stanton
# ]  f1 D- V% {- c- Q( h       乔·兰福特 Joe Ranft! A' `- h7 c/ Y2 N3 H
       约翰·拉塞特 John Lasseter
8 u7 }5 O! Q) d◎演  员 克里斯·埃文斯 Chris Evans) B4 w0 _. v) \3 |6 V5 h7 h! I1 E- |
       柯柯·帕尔莫 Keke Palmer
0 e) c4 ], B) w$ q# O" g. O       彼得·孙 Peter Sohn, D( X# [6 `9 K0 `( ?% K
       塔伊加·维迪提 Taika Waititi8 A& R- W/ g+ E# ]( f3 e5 I
       戴尔·索尔斯 Dale Soules
1 t0 m  Z! O, T' P       詹姆斯·布洛林 James Brolin
1 V" }* q& }! z3 I       乌佐·阿杜巴 Uzo Aduba; I. T. A# }2 J$ K) |; H
       玛丽·麦克唐纳-刘易斯 Mary McDonald-Lewis1 w7 t! b% e5 u) b8 F
       小伊塞亚·维特洛克 Isiah Whitlock Jr.
5 D7 D, l# ^) R, r       安格斯·麦克莱恩 Angus MacLane
& k1 b) G$ G- M* m) e       比尔·哈德尔 Bill Hader! T7 I) e  J9 |" r" G* x1 \
       艾弗连·莱米雷斯 Efren Ramirez
; `/ z( m, ^" w; ]       凯拉·海斯顿 Keira Hairston# o& X. |: }) W3 p- c: `! [* ?
$ y: [" V# S2 _% w
◎简  介   
8 K8 J0 d) S8 [9 e5 |6 d1 U8 t, @2 d
  皮克斯打造《玩具总动员》系列衍生动画电影《光年正传》,美队Chris Evans配音。讲述巴斯光年人类原型宇航员的起源故事,他从一个年轻的试飞员,变为大家熟知的太空游侠。
7 ^  ^% W/ F" q- C- e; z) U. u8 i' l. F6 f
  While spending years attempting to return home, marooned Space Ranger Buzz Lightyear encounters an army of ruthless robots commanded by Zurg who are attempting to steal his fuel source.
; Z: H1 F6 l& y  M2 g6 j
Lightyear.2022.1080p.BluRayCD.x264.TrueHD.7.1.Atmos-FGT 10.78 GB
  f- I+ I/ x* z# D4 }  x4 S3 C* z* O  e. U7 e, g4 a
Video
% C6 Y# [7 B7 W3 S! nID                                       : 1
4 u# B" {- d  |: M+ O9 @3 Y% P0 g  bFormat                                   : AVC3 a$ d' R! I7 R' ]# N' L, r
Format/Info                              : Advanced Video Codec
7 N2 y3 v6 t8 B* ^/ t: T, wFormat profile                           : [email protected]
% ?2 ], v3 x% k$ H! f4 JFormat settings                          : CABAC / 5 Ref Frames
- \6 F. C7 J  f$ O0 WFormat settings, CABAC                   : Yes& j$ J+ E! x/ x/ E4 f, B
Format settings, Reference frames        : 5 frames
8 w" q8 \! W) ^Codec ID                                 : V_MPEG4/ISO/AVC
/ F0 N* }1 I9 ?6 o- t& tDuration                                 : 1 h 45 min
+ o6 Y. t6 e* _* WBit rate                                 : 10.3 Mb/s" ?. A+ \! {6 w. h
Width                                    : 1 920 pixels
, q. Z* z- A# L, L1 J4 x6 VHeight                                   : 804 pixels
% }8 y% [' q7 c- ]# c% x: qDisplay aspect ratio                     : 2.40:1
2 X2 K! t! [8 q. `4 RFrame rate mode                          : Constant0 i; Q. [1 V( F8 l# `+ X6 u
Frame rate                               : 23.976 (24000/1001/189150) FPS1 ]6 L1 ^# g5 g9 V9 r" F, X
Color space                              : YUV
8 G3 j0 [# p- V) gChroma subsampling                       : 4:2:0
- \3 j6 v# i9 Z. H4 f9 F- ^% ]Bit depth                                : 8 bits
' ?' ^4 A  Q4 F8 SScan type                                : Progressive
# i& U& }- p  Y! H( CBits/(Pixel*Frame)                       : 0.2782 g0 Q3 S$ b5 k- q; f; [
Stream size                              : 7.54 GiB (70%)1 R/ E' n. N; d9 ~
Writing library                          : x264 core 164 r3095 baee400
5 b! J' g0 Y; UEncoding settings                        : cabac=1 / ref=5 / deblock=1:-3:-3 / analyse=0x3:0x133 / me=umh / subme=9 / psy=1 / psy_rd=1.00:0.00 / mixed_ref=1 / me_range=16 / chroma_me=1 / trellis=2 / 8x8dct=1 / cqm=0 / deadzone=21,11 / fast_pskip=0 / chroma_qp_offset=-2 / threads=25 / lookahead_threads=2 / sliced_threads=0 / nr=0 / decimate=1 / interlaced=0 / bluray_compat=0 / constrained_intra=0 / bframes=3 / b_pyramid=2 / b_adapt=2 / b_bias=0 / direct=3 / weightb=1 / open_gop=0 / weightp=2 / keyint=250 / keyint_min=23 / scenecut=40 / intra_refresh=0 / rc_lookahead=60 / rc=crf / mbtree=1 / crf=15.5 / qcomp=0.60 / qpmin=0 / qpmax=69 / qpstep=4 / ip_ratio=1.40 / aq=1:1.00
+ @) V" f, Y1 w1 l' MLanguage                                 : English
" s1 S3 b: ?/ c9 D) f$ ADefault                                  : Yes
& i5 y4 H# X" P& |" kForced                                   : No
$ J- Q0 T' D/ @( W
. I; s- V2 i% |( B! ?Audio #1# x8 k- }; _& d3 z2 I
ID                                       : 2
/ M0 R8 e& q; ^$ p% [; tID in the original source medium         : 4352 (0x1100)
- i: ?0 i1 C! K. PFormat                                   : MLP FBA 16-ch& I# i, ]0 u( j# c- R3 {0 {( t
Format/Info                              : Meridian Lossless Packing FBA with 16-channel presentation" F# ]& a0 x$ `8 [
Commercial name                          : Dolby TrueHD with Dolby Atmos5 n: I: ]( z5 g# v) r1 k7 t
Codec ID                                 : A_TRUEHD& p$ c+ n2 U% n: D" h* I
Duration                                 : 1 h 45 min# E. T1 t. T0 |
Bit rate mode                            : Variable
, G# C- w+ o- [) I+ ZBit rate                                 : 3 648 kb/s; t/ u/ `4 r/ c
Maximum bit rate                         : 4 437 kb/s
* `* Z' E* A3 D- k2 y* fChannel(s)                               : 8 channels$ ^- ]* N, I  F% ]& N. {4 w0 K$ F' e
Channel layout                           : L R C LFE Ls Rs Lb Rb
3 H1 p! k  p8 U+ f6 iSampling rate                            : 48.0 kHz
4 w+ C- _* z1 e$ n% ~) }Frame rate                               : 1 200.000 FPS (40 SPF)4 [  k7 p( W' m- H& Q  K5 {
Bit depth                                : 24 bits( d* ?% d( {) I6 V; X8 |  h! g" m* s
Compression mode                         : Lossless- l+ K) i3 r2 a2 P# P8 ~+ r' V' a
Stream size                              : 2.68 GiB (25%)& ]; x; l! ]. ]1 A- R
Title                                    : TrueHD 7.1 Atmos
7 u" o$ t2 i' l" z8 E5 j# N. `# ^Language                                 : English
& u3 s; U2 L# ]( m! Z6 G  BDefault                                  : Yes
, W0 u# q; D$ j% E" I! UForced                                   : No9 N' M$ _1 O$ E2 l
Original source medium                   : Blu-ray
- t+ I" `6 C3 hNumber of dynamic objects                : 138 |2 P6 O( o2 m* i' m% e% V5 x4 J
Bed channel count                        : 1 channel+ C: ^; L4 E1 I1 ?5 x
Bed channel configuration                : LFE  f  O9 D# m- }1 r. s2 k
8 E/ M- J& g) s, ~0 M: R
Audio #2# b9 g+ d; u/ Y" j# p( e' }8 X6 g% n
ID                                       : 3% W% f8 f7 D$ m1 B
ID in the original source medium         : 4352 (0x1100)
$ [* B! {4 a2 g  e" M* u1 I0 mFormat                                   : AC-39 o. L% d1 }6 A8 a# @$ q1 w
Format/Info                              : Audio Coding 36 U! a3 w9 `1 [& `( v& P( A' w4 h
Commercial name                          : Dolby Digital% W, {9 ?$ m% a, G0 j
Codec ID                                 : A_AC3
  L6 B5 D: e) g9 m* LDuration                                 : 1 h 45 min
; ~5 r- ~( b* T. _' zBit rate mode                            : Constant" {9 w8 l% x4 \7 V9 n
Bit rate                                 : 640 kb/s+ O, b: @8 S  X- W( h1 f
Channel(s)                               : 6 channels
6 D% }4 f0 G4 `1 E$ ~' CChannel layout                           : L R C LFE Ls Rs4 w# ~5 M- F- K* w: _7 W
Sampling rate                            : 48.0 kHz
( \" U6 c. X$ vFrame rate                               : 31.250 FPS (1536 SPF)) d; D1 u4 ~! a6 n& z; w) [
Compression mode                         : Lossy
' t0 Z8 n! z7 K4 |Stream size                              : 481 MiB (4%)9 f$ w! {4 G( c8 ]. U+ x1 o. O+ h
Title                                    : DD 5.1( G. k5 h  p- n& f2 Y' K
Language                                 : English
' p: q8 R+ C/ B0 ^! \+ f+ xService kind                             : Complete Main
. @$ X, C+ [, vDefault                                  : No2 v9 U- Z$ U; v8 v1 Y; O3 i  c
Forced                                   : No
; u1 ^8 M8 }  s! U1 k7 _- fOriginal source medium                   : Blu-ray+ [7 s, Q: i- Z! n! q

) o( N* g5 x' U2 V$ `# XText #1) E( w+ M6 q3 {7 m
ID                                       : 4. J# \( k/ o: ?" G
Format                                   : UTF-8* ?) h0 h' w2 _' n3 G9 c4 S
Codec ID                                 : S_TEXT/UTF8- g. l6 {4 U0 @6 N5 n3 {$ C
Codec ID/Info                            : UTF-8 Plain Text
( i; W% g% b' l. K" mDuration                                 : 1 h 42 min
  f* A1 A. M6 f; `Bit rate                                 : 64 b/s( ~% [0 a  R, S8 u$ r
Frame rate                               : 0.269 FPS
" `5 A; Q7 y: q2 ]. iCount of elements                        : 1650
! u4 x3 N5 K8 {1 E3 s6 bStream size                              : 48.2 KiB (0%)6 m/ G$ b8 j. ^$ L
Language                                 : English
* h$ L0 u, t+ q1 N0 A6 S* {4 ~Default                                  : Yes% M& x2 z2 V. u  e; i
Forced                                   : No8 _) e( I1 m, `& _. u" s, i- i

, ^8 ]! G" Z4 K$ o/ IText #2/ p( C( `: W( d0 ?# _2 C) z& c
ID                                       : 5% s: x1 Y, F' X7 f) U/ O
Format                                   : UTF-8
- U% i' }% f' fCodec ID                                 : S_TEXT/UTF8( _- Y5 N- S2 G6 C
Codec ID/Info                            : UTF-8 Plain Text. H) q( r( j' k0 N
Duration                                 : 1 h 44 min
3 u# `4 p" a$ l: ?( Q6 V( aBit rate                                 : 75 b/s/ f% \6 `( v; U& V1 o0 y) \! f
Frame rate                               : 0.327 FPS
3 s9 [5 P& I1 d( M, {Count of elements                        : 2058/ n5 x0 O$ o, i) Z! l0 r; g
Stream size                              : 58.3 KiB (0%)
& u0 K2 o. o2 S# v5 PTitle                                    : SDH
/ E4 S" g. U0 f% ?# ?Language                                 : English- u2 e3 v# p: C& C# [; a- l
Default                                  : No% b9 K* {- E9 m9 M( Q
Forced                                   : No
! J$ Y: }0 a2 R% [7 j7 E! ^
; G' f1 c* n( _6 o- |! C5 j) pText #3. Z+ O8 @; r' g3 r& ]
ID                                       : 67 P) B: O2 }0 Q- c& g" E9 F
Format                                   : PGS
0 {+ ^& {8 ^6 W( T; y# d/ MMuxing mode                              : zlib' }) K: u  l% O; h2 @
Codec ID                                 : S_HDMV/PGS" d% P) z( r5 [6 I
Codec ID/Info                            : Picture based subtitle format used on BDs/HD-DVDs
: w( r: |" x( F; i; Z2 LDuration                                 : 1 h 44 min
0 ?5 @$ Z( b* x7 }5 e0 [4 k0 xBit rate                                 : 51.9 kb/s
4 X/ J% U. |: ?3 R- p0 F1 O; ~Frame rate                               : 0.661 FPS
- \0 q% `( Y. u) i# M5 CCount of elements                        : 4154
# R. @0 M; S0 U" |Stream size                              : 38.9 MiB (0%)
% ?. v7 V3 d# z& i, c6 o' ]1 OLanguage                                 : English4 t; p1 N7 \3 t6 }
Default                                  : No
1 {* e+ U1 d; }* p% ~( ?Forced                                   : No
- o# k  d* Y# P. D+ E9 p7 a
9 [# d8 D0 N) g/ c- uText #4$ l; u8 L; B& R8 v+ m$ A
ID                                       : 7
* }. z' I( H& _Format                                   : PGS
" D. u( [: d  r/ H+ FMuxing mode                              : zlib) J6 ^1 e, ?' {- g, _3 B' Q' F
Codec ID                                 : S_HDMV/PGS
: m0 z: q& C3 P' M$ QCodec ID/Info                            : Picture based subtitle format used on BDs/HD-DVDs
" O  ], t/ `# ?Duration                                 : 1 h 44 min3 g5 c" A* h5 m8 W' j
Bit rate                                 : 70.5 kb/s  U/ w' F, l( L+ t3 R
Frame rate                               : 0.570 FPS
% S- G5 p; U5 |! f# r! qCount of elements                        : 35821 D4 g/ E) S1 }; R  z1 j/ D
Stream size                              : 52.8 MiB (0%)
+ \( i/ E" W& A% T' YLanguage                                 : English
& A+ J/ p) ^- r) p! O& w- uDefault                                  : No9 d( w# r. \1 {- c/ t) Q
Forced                                   : No( q$ l( T" e4 E2 Q7 [, \

$ ^! S. d. Z" [2 r1 IText #5. j' ~9 t2 k& V/ ^4 W
ID                                       : 8
1 M, Q7 v( Y7 m" Z/ OFormat                                   : PGS
( ?1 L% o/ h- F# _$ cMuxing mode                              : zlib
8 A3 M' |: a" @' GCodec ID                                 : S_HDMV/PGS7 ]' y& l! P9 S
Codec ID/Info                            : Picture based subtitle format used on BDs/HD-DVDs. I+ E4 k$ k- {
Duration                                 : 1 h 44 min
; X. c, j7 P; D, h1 k0 KBit rate                                 : 35.4 kb/s
2 G2 }1 s4 r, P( S* X0 yFrame rate                               : 0.502 FPS
2 c2 w0 W; L# M5 x. {Count of elements                        : 3152
* F0 Q  T, g9 {( ^- I; B0 G1 nStream size                              : 26.5 MiB (0%), c2 o' R! b  I/ |# r
Language                                 : Spanish
" ~+ F( Q" |' o: h) b0 @Default                                  : No" z- o+ a" Y0 E7 h
Forced                                   : No
5 m0 [5 u+ s8 F7 S# I' A' b9 N' D; c/ L! N; V( }9 S
Menu' ^, }# R  b0 ?" u: _
00:00:00.000                             : en:Chapter 01
/ p8 `5 A; m* {' Z00:04:43.742                             : en:Chapter 02
4 ~7 {5 n7 U6 w" w# W8 j$ N00:06:48.324                             : en:Chapter 03
7 \! L2 |3 \) ]  ?0 m- e/ y- i00:08:13.118                             : en:Chapter 04
8 ?5 \5 z; J- E; X0 t9 ^00:09:33.740                             : en:Chapter 055 U" f3 I; o) Y* Z- {1 {* p
00:11:58.384                             : en:Chapter 06
: W: k! R& M! E$ p00:15:27.176                             : en:Chapter 07# t# ~- v9 A: m
00:18:05.042                             : en:Chapter 080 r% u% @2 _9 U+ v, L) j) Q
00:20:40.698                             : en:Chapter 09, R3 {/ y( ]# k2 b- z
00:22:34.394                             : en:Chapter 10$ c7 F3 d6 n8 x" L' _! C! y
00:24:37.017                             : en:Chapter 11
8 ]$ R) i$ z; I2 `' P& l3 @: M00:25:41.873                             : en:Chapter 12
4 \, w, b$ L. H) i00:27:01.244                             : en:Chapter 13, r4 e5 H: Z/ ]8 r) r- g
00:30:53.268                             : en:Chapter 14+ R, \: ~, @; w# O: x8 X! X
00:32:02.837                             : en:Chapter 15
: F( t3 u$ w& H" t00:33:32.927                             : en:Chapter 16& h  x$ z( w4 \  `& e+ B
00:34:23.311                             : en:Chapter 17" E# X! r8 ^# Z) I  h1 T* n
00:36:56.798                             : en:Chapter 182 q. A! P7 H4 K  {' F
00:39:14.185                             : en:Chapter 19# G) x: U1 t: L3 p1 G  r( @" U( {2 V
00:41:55.596                             : en:Chapter 20. [: n6 g7 e! r
00:45:29.226                             : en:Chapter 213 W9 c& v. R$ E; d  F9 ~& r; x6 W
00:50:28.942                             : en:Chapter 22( K, J2 j1 {+ l% N5 t) }3 N4 i
00:51:37.928                             : en:Chapter 234 M% y4 B2 |& [- s2 k. B# \
00:54:23.093                             : en:Chapter 24
7 r; e- ~4 j2 ~/ `4 i: _00:57:55.346                             : en:Chapter 25
/ R2 D+ \( f. g7 [$ w' o01:02:11.436                             : en:Chapter 26
. b0 z2 h, j6 Q- |4 U+ c01:04:26.320                             : en:Chapter 27
& Y  E1 E5 N3 k7 S+ }4 G' y# g01:07:35.843                             : en:Chapter 28
% H  |. U# S  X' X8 _/ x01:09:15.693                             : en:Chapter 290 x4 V4 E1 s8 Z( o/ N, E9 }: w
01:10:32.770                             : en:Chapter 30
0 H* v" T& g% j8 ^# l8 _01:11:25.572                             : en:Chapter 31/ U# Q1 d5 j+ O/ ^
01:15:37.824                             : en:Chapter 32: k) z" }* x2 n0 F" t
01:16:45.392                             : en:Chapter 33
2 `% f1 X# g! ~- q( m01:17:44.076                             : en:Chapter 340 Z1 ~  b+ L% S4 m7 X- m+ [
01:25:18.988                             : en:Chapter 35( t2 Y1 O- z( `. A4 F; o& y
01:27:10.683                             : en:Chapter 36
3 \$ m. A5 P8 f7 V& m0 K01:29:00.960                             : en:Chapter 37
7 `1 e- w% ^/ e8 s9 z( A& f01:30:42.186                             : en:Chapter 38
8 L6 }& I3 J; s9 c! E) }8 k01:33:45.619                             : en:Chapter 39# u% X! f! S8 m. j1 k( y" `
01:36:02.381                             : en:Chapter 40
: o& c9 \3 N3 X" \- Z01:43:35.500                             : en:Chapter 41
; S, r/ I. m; j& f- l  j5 Y9 T, B8 P4 }6 O# S: X, J
Video: 1080p bluray Audio: 2160p UHD bluray

; S! b8 d4 O3 w& _
游客,查看本帖隐藏内容请回复 | 加入VIP可免积分免回复 了解详情 | 还不是会员:点击获取邀请码 Invitation Code

0

主题

159

帖子

1188

积分

Sponsor

金币
214 枚
体力
658 点
aacq 发表于 2022-9-25 21:55:41 | 显示全部楼层
谢谢楼主分享精彩电影

本版积分规则

小黑屋|Archiver|4K蓝光论坛

GMT+8, 2022-12-4 09:35

Copyright © Tencent Cloud.

快速回复 返回顶部 返回列表