BluRayCD Forum

 找回密码
 立即注册【分享大片】
查看: 20|回复: 1
收起左侧

[蓝光原盘] 星际旅行6:未来之城 [REMUX无损重制版] Star Trek VI The Undiscovered Country 1991 REMASTERED 1080p BluRaycd REMUX AVC DTS-HD MA TrueHD 7.1-FGT 30.70GB

[复制链接]

9707

主题

1万

帖子

9万

积分

Super moderators

金币
943 枚
体力
46196 点

最高荣誉勋章

24xs 发表于 2022-9-29 13:03:13 | 显示全部楼层 |阅读模式
01.jpg
) T4 |  c& u: i! r% h
- t+ y' T6 p5 e! q5 Y! f" q◎译  名 星际旅行6:未来之城/星际迷航6:未知的国度/星舰奇航记6:迈入未来(台)/星空奇遇记6:回到地球(港)/星际争霸战6/星舰迷航记6
# Y# M# j; }9 T4 ?◎片  名 Star Trek VI: The Undiscovered Country / Star Trek 6% ]6 z- u2 X" G" `9 b3 N+ G3 Z8 `
◎年  代 1991
# e+ Q* k" H; t  S9 E◎产  地 美国
. G4 ]3 Z/ h4 v9 Y, k◎类  别 动作/科幻/悬疑/惊悚
: O6 i0 H4 j7 y# S+ i◎语  言 英语/克林贡语5 G7 I( j0 K, f0 [! r% V% i: k
◎上映日期 1991-12-06(美国)  W5 a; y7 l( B
◎IMDb评分  7.2/10 from 76,177 users
# F1 ?# m7 s( r) Z1 w9 \2 E4 P; H* J◎IMDb链接  https://www.imdb.com/title/tt0102975/5 k  t& Y# S$ [0 c& d( H# M6 e* P
◎豆瓣评分 7.7/10 from 7,389 users
! k; ^& @1 B8 |5 O( k: i! S: B5 q◎豆瓣链接 https://movie.douban.com/subject/1305970/
1 T1 W, y$ U- v; o: K: M◎文件格式 x264 + DTS + TrueHD! M* \* {- q# R: k
◎视频尺寸 1920 x 1080$ y$ J0 v  c. i2 g7 n
◎文件大小 1DVD 30.70 GiB& P7 g" a+ f, ~% s% G
◎片  长 1 h 49 min
9 \; [- V, `0 l2 T1 I% r◎导  演 尼古拉斯·迈耶 Nicholas Meyer
. P& W( p+ k% E0 P: N$ }1 n◎编  剧 尼古拉斯·迈耶 Nicholas Meyer2 D& W9 r" A& B6 U  g: `
       丹尼·马丁·弗林 Denny Martin Flinn
; l/ J' Y( b2 {; i: c- B) f! L◎主  演 威廉·夏特纳 William Shatner+ Z% f) H2 _' Q
       伦纳德·尼莫伊 Leonard Nimoy. p1 q% |2 T, H) m$ ?/ a, Q: U
       德福雷斯特·凯利 DeForest Kelley5 x. S% i3 T2 z4 y% O" f
       詹姆斯·杜汉 James Doohan
/ d1 }6 `/ ]5 c; b0 o       沃尔特·凯尼格 Walter Koenig. ]0 x3 i# _* R/ }
       汤姆·莫尔加 Tom Morga" F0 \: q& s! a: o! S7 \
       克里斯蒂安·史莱特 Christian Slater
! M+ J' `# O& k* l5 J; Z  }" T' X; U       武井乔治 George Takei
; x, u# |' F3 L7 T( X       勒内·奥贝尔若努瓦 Rene Auberjonois# z, U' g7 s- O2 @! D( E
       尼切尔·尼克斯 Nichelle Nichols
" N; Q9 P7 J! J- z" b+ I       布洛克·皮特斯 Brock Peters
3 M8 i4 u5 h. T8 y5 b2 P8 ]% e       柯特伍德·史密斯 Kurtwood Smith
& b$ q0 j5 n3 X  Y' f+ Q$ U       金·凯特罗尔 Kim Cattrall
9 y, t$ Y) f1 C       伊曼 Iman4 y0 @+ O& @% }' L
       马克·雷纳德 Mark Lenard
  s$ O& s% L. _* x: d. w5 v# g% s       马蒂亚斯·休斯 Matthias Hues
$ M* \* @3 q3 y, ]9 w; a! P+ S       Doug Engalla. p; V, W0 D& _  Q
       罗莎娜·德索托 Rosanna DeSoto
0 t) L/ q6 l( d  c       Barron Christian
# H3 p: m  N1 G1 y2 ^       Carlos Cestero
, @8 q( Y( b& F% ]) V       Jim Boeke Jim Boeke) {3 ^& Z3 \  L* c
       迈克尔·博夫舍维尔 Michael Bofshever8 v, ^( s4 U! u8 _$ H  M
       约翰·布卢姆 John Bloom" P/ w" H# ^/ F0 H
       约翰·贝克 John Beck: C: h1 _/ Y% E! Z
       Eric A. Stillwell7 V( i1 x: L. z6 G  O0 {
       Judy Levitt
6 z7 t9 U( G6 f       Brett Porter) V8 f3 z4 `0 H  \' o" w6 a
       鲍里斯·李·库尔通格 Boris Lee Krutonog
+ i6 D- G( E+ C, t! Z$ ~2 Z+ u       大卫·沃纳 David Warner* x: ?' I+ ~) Y; v" v& x# x0 q
       Todd Bryant1 x) P1 i" F# c
       里昂·拉瑟姆 Leon Russom8 l+ A* j, H1 {4 w. q+ R
       J.D. Walters
0 W7 j% J6 b# W2 j1 T9 ]( l5 E- T       格雷斯·李·惠特尼 Grace Lee Whitney
4 {2 |2 t  ^5 d& j3 `. t       克里斯托弗·普卢默 Christopher Plummer
! s) t3 u, z, B% h( B6 K1 y* G# q- J       约翰·舒克 John Schuck, r1 I6 q, Z4 a, }! V3 `/ Q
       威廉姆·摩根·谢泼德 William Morgan Sheppard+ f1 \6 G* l. T7 E1 ~6 y
       迈克尔·多恩 Michael Dorn
' x, n) r' b/ c* s4 N+ @       Paul Rossilli! \7 v: T  }# n# a' E5 v
       罗伯特·伊斯顿 Robert Easton. q( G* K2 Q! s) V- u5 s
       Douglas Price
0 j- }$ I- I5 T  t; Y8 c( Y3 g# f       Brooke Breton
" ]# w% \3 a; P6 h3 b  V4 K: @       伦纳德·尼莫伊 Leonard Nimoy
- R# N6 b8 |+ q       拉尔夫·温特 Ralph Winter
$ \0 y- C, `& }       克利夫·艾德曼 Cliff Eidelman
) \9 [$ W! Q* N6 `# b       弘成田 Hiro Narita
! \% d' q' j4 P% _, C/ w       玛丽·乔·斯莱特 Mary Jo Slater* l+ Y5 g8 ~) r) [: |
       Herman F. Zimmerman: i) A/ c: J: o6 X
       米奇·S·迈克尔斯 Mickey S. Michaels
. f4 M6 Y, L% q& {# n' H7 R. h       Nilo Rodis-Jamero9 D. h8 }7 n$ u3 A& ~/ ?
       Dodie Shepard
, e: D* x; w4 u. i$ E       Kenny Myers" y# ]: E- S9 L
       狄恩·琼斯 Dean Jones
1 i( I6 n) V, _9 q. W       迈克尔·米尔斯 Michael Mills6 z3 M. _6 ^3 {) g8 n) ?1 z
       Dayne Johnson3 V8 L4 H% c/ A9 }
       Ron Walters* Q$ F1 D$ e5 F1 i2 ?
       Janice Alexander! k5 S% R' d! `  s$ g
       Joe Colwell
. u9 d( j$ d+ Z9 m1 L       Michael F. Blake  k$ q' h+ S; `' y: P# m6 r4 {
       卡罗尔·A·奥康奈尔 Carol A. O'Connell& X% o0 \  R% O
       Ron Pipes
* q' _5 R' g) z* V       Wayne Toth
; B; o# q" j8 M" R& z  G& O, g       里克·斯特拉顿 Rick Stratton" {( y" y& p2 P" l& h2 h
       格雷格·卡农 Greg Cannom0 ?( ]- t6 a1 h& @
       基斯·范德兰 Keith VanderLaan6 I6 L5 f! J: u$ b2 Z( R$ b" m; \
       R. Christopher Biggs
* Z" e) o5 w: `       艾德·弗伦奇 Ed French: g: g6 o8 J/ M2 s, K
       Gerald Quist
9 L8 {, L" @4 s       凯蒂·加瑞森 Katy Garretson3 W: f9 k, D( d1 B
       Andrea D'Amico
$ P1 U3 R, n$ n  q2 |9 R       汤姆·柏提诺 Tom Bertino0 A" A$ u/ O$ s- ~
       小约翰·安德鲁·伯顿 John Andrew Berton Jr.4 N) w& n5 Y' r7 d! p
       克莱格·巴朗 Craig Barron; O- K0 T' s7 q1 d7 h
       戈登·贝克尔 Gordon Baker
( R6 Q3 h3 ~1 m4 \3 m" @7 M       Scott Schneider
' X+ ?0 z1 K8 P: V       Carolyn Ensle Rendu" W( @, u8 X" j0 K. T* q
       乔恩·亚历山大 Jon Alexander
& w+ m+ K. g" }! D" j9 l# |       Mark Moore
8 E+ C2 [6 H# ]4 ?& ^9 }- o       Susan Adele Colletta
$ D6 w& ?5 `' l2 t4 u- V( o9 F       Mike Ellis6 ]- q9 i$ S& S) K  [
       斯科特·法勒 Scott Farrar
$ z# N$ w' S0 H$ t  |! ?2 ^       布鲁斯·沃尔特斯 Bruce Walters
9 v, v& v- ], k5 u5 j       Wes Takahashi! k8 s- B, @- {# N8 p: u0 I
       肯尼斯·史密斯 Kenneth Smith, G& c/ O, l1 i
       托马斯·罗塞特 Thomas Rosseter9 J( z0 {8 N5 n  X: Q
       Michael Pangrazio) r% S+ y2 G2 ^! I
       杰克·莫多万 Jack Mongovan# D6 C: Y5 S4 z5 m2 `: t' v* }
       乔·莱特瑞 Joe Letteri
. [4 f2 c. i+ e# ~, ?8 U$ m5 s  s       彼得·库兰 Peter Kuran& h, i# q3 ?' P9 U: a$ K
       布拉德·库恩 Brad Kuehn7 E" |- D: ^& t9 O3 g
       格雷戈里·杰恩 Gregory Jein
7 _: m, Q4 t8 E       布莱恩·格南德 Brian Gernand( ^2 L& M) N: s  ]0 ~
       比尔·乔治 Bill George
4 k& C4 R; X( h# d* t: D       Randall K. Bean
) V8 W% t4 F! c/ Z* |! R       斯科特·E·安德森 Scott E. Anderson- N- @8 k! H& i
       斯科特·罗斯 Scott Ross
$ b6 F8 e( V* c2 ]9 {
; S2 L: N$ k1 P. @◎简  介   ( U& S5 ]+ Z9 x
6 \! c2 w1 k% n, `- j% o
  星际联邦的大敌克林贡帝国因为连年争战,经济及生态环境破坏殆尽,一位克林贡领袖遂在企业号太空船护送下前往地球谈和,中途却遭到阴谋份子暗杀,并且嫁祸企业号……$ _. }0 m% n8 ^9 }1 ^" O$ Q$ W! d
+ \. q9 B$ q  z& D" B
  On the eve of retirement, Kirk and McCoy are charged with assassinating the Klingon High Chancellor and imprisoned. The Enterprise crew must help them escape to thwart a conspiracy aimed at sabotaging the last best hope for peace.
. }/ {9 K5 e& r7 R3 f% A/ m, g- ^& I
◎获奖情况   6 {0 Q- Q* J6 k$ U+ [* D  Z- l
9 w# e, D5 f6 l/ y! u
  第64届奥斯卡金像奖(1992)
. v1 \9 _1 _* S  q# Y, R% S7 i  最佳音效剪辑(提名)
7 \% V6 B0 Y- h4 C. f  最佳化妆(提名)
4 }8 m* O  m4 h" ~# p$ u
Star.Trek.VI.The.Undiscovered.Country.1991.REMASTERED.1080p.BluRayCD.REMUX.AVC.DTS-HD.MA.TrueHD.7.1-FGT0 |2 C# J( V( M! ^

+ i: X4 U( x! k) v% j. a! F! rVideo
" d! n4 V& O& s$ |  `9 J) L' `! k2 pID                                       : 1
+ x* \! x, K# H1 a# C0 t% nID in the original source medium         : 4113 (0x1011)
0 D3 U" ?; n' KFormat                                   : AVC
4 X* r+ T& j% {/ k  N2 \Format/Info                              : Advanced Video Codec
1 @1 D0 y6 s" {4 N' D0 d( j/ dFormat profile                           : [email protected]6 ^# Y) v, q: K% L3 }; r
Format settings                          : CABAC / 4 Ref Frames
( ^* M9 o4 ~) I; ^! uFormat settings, CABAC                   : Yes3 H+ u9 A9 B' g+ _0 m
Format settings, Reference frames        : 4 frames: W) C2 p5 Q5 R8 A" j
Codec ID                                 : V_MPEG4/ISO/AVC  `5 v' v  J' m9 ?) o
Duration                                 : 1 h 49 min
( j/ _& r$ ?5 o7 e; m' sBit rate mode                            : Variable* k9 d" h' J% P: H4 ~2 u/ Z
Bit rate                                 : 30.9 Mb/s; E2 w4 P& P' _% x, ]
Maximum bit rate                         : 38.8 Mb/s
: v( f: W( [. d/ d5 ZWidth                                    : 1 920 pixels( K, j5 b: W+ B1 F6 V0 {5 i
Height                                   : 1 080 pixels
2 ~+ [* i0 o) Q* X$ q( i1 MDisplay aspect ratio                     : 16:9
1 D1 d! E9 p. C' U! j1 PFrame rate mode                          : Constant3 p$ a5 s# r0 Y; a" f. ^! c# |7 t6 d
Frame rate                               : 23.976 (24000/1001/189150) FPS4 K6 z$ i* K5 z7 ^3 G9 [5 ~, O
Color space                              : YUV
7 X3 W% Y- o) m: o; R% mChroma subsampling                       : 4:2:06 w- ~* W- m) b# [5 J! c' n5 y6 z/ l
Bit depth                                : 8 bits" E7 F& |4 f  B# h# ?: A
Scan type                                : Progressive
1 W/ _/ N+ z6 k6 x3 L1 hBits/(Pixel*Frame)                       : 0.622( {; u3 r8 X! U9 E6 P
Stream size                              : 23.7 GiB (77%)
6 ]4 o; s0 y& U4 ULanguage                                 : English- f) `& H. U1 D8 Q( `
Default                                  : No
7 l; d5 g) M$ a# Y# }1 T0 eForced                                   : No
# V! j7 Z2 o3 t; s) `! O, Q1 KOriginal source medium                   : Blu-ray
. H0 [+ O- f- B) D4 c8 y1 K
& W2 w) S9 P0 U# |8 ?Audio #10 p3 R% F; k, H, H( `
ID                                       : 2% w  E1 X2 l" o
ID in the original source medium         : 4352 (0x1100)
5 m) w( T0 F5 l$ C" FFormat                                   : MLP FBA
, {6 Y$ Z2 Z; mFormat/Info                              : Meridian Lossless Packing FBA
- P* t. U0 z! M7 ?# e; |3 V% _3 lCommercial name                          : Dolby TrueHD! H% ~; A4 D; E6 S3 @
Codec ID                                 : A_TRUEHD
, U8 o. a/ r7 b9 e$ SDuration                                 : 1 h 49 min
- z" G. W) u6 t+ bBit rate mode                            : Variable+ s. O3 q# x  G1 S) q+ G' I
Bit rate                                 : 1 937 kb/s" T; I) @' K  i5 w
Maximum bit rate                         : 2 817 kb/s2 N% m2 K. W$ P  {/ O
Channel(s)                               : 8 channels
1 l. t9 X. e) {( A6 ^& CChannel layout                           : L R C LFE Ls Rs Lb Rb7 O& w5 y. Z& @; k3 G
Sampling rate                            : 48.0 kHz
6 m8 L, [+ Q3 I3 n9 nFrame rate                               : 1 200.000 FPS (40 SPF)4 U% k; h9 |' P
Bit depth                                : 24 bits
0 S$ D0 t; ]7 O0 P/ l; u% ^Compression mode                         : Lossless
6 F& [: o3 p" i8 vDelay relative to video                  : 1 s 1 ms8 s. I' o. r0 Z$ F* [# [7 j
Stream size                              : 1.49 GiB (5%)
' Z: ~% J6 s1 ~8 q  V( ?# ^Title                                    : TrueHD 7.1
/ }0 d8 _1 E7 `1 i8 ^Language                                 : English. J0 F& D5 u7 g5 G1 {  U( ~
Default                                  : Yes" R3 ]: F/ A/ r, K. T
Forced                                   : No
1 S2 R5 _1 Z: e+ o; Y) X% OOriginal source medium                   : Blu-ray
  F9 Q+ n, ]6 ?( i
% l9 V; a+ C2 D' U3 o' S7 q& SAudio #2
* D* m' D% e( P) A- n& T9 TID                                       : 3
  J0 v$ s/ H; b- q+ _Format                                   : DTS XLL/ K: Z6 x8 _6 c/ b) R
Format/Info                              : Digital Theater Systems$ `$ H+ O8 i: ?. Z
Commercial name                          : DTS-HD Master Audio( q+ D) c- i" s4 X, }% s
Codec ID                                 : A_DTS% B. c" r9 ~( ]$ e' F
Duration                                 : 1 h 49 min
% c% L7 ~( C! R1 XBit rate mode                            : Variable
* o7 _. Z% A0 ^% [+ c2 fBit rate                                 : 3 102 kb/s
5 k/ H; W" V% U0 hChannel(s)                               : 8 channels6 E* R) W/ y! d, y4 S
Channel layout                           : C L R LFE Lb Rb Lss Rss
8 |7 {2 m& L6 Q) u/ c) b% JSampling rate                            : 48.0 kHz2 N% Q3 l% I0 M+ v  g' s
Frame rate                               : 93.750 FPS (512 SPF)% Q4 j% l) Z2 }
Bit depth                                : 24 bits6 C$ e3 D1 W% ?0 l* h6 U
Compression mode                         : Lossless1 J4 m( E9 x  D: L: S& e* b
Stream size                              : 2.38 GiB (8%)
2 K) g- J; e  L0 aTitle                                    : DTS-HD MA 7.14 d4 B+ S. w0 S0 n
Language                                 : English
, l: H& a; Z  ~4 F- d0 K. IDefault                                  : No
: L: P0 p5 W8 n+ I0 `! i; d4 Z. OForced                                   : No) @7 W$ Z$ ?0 s& ]% v/ j9 t" W

2 l* C+ \1 |# E6 \& G9 U1 [/ t& _. |Audio #3
6 `- p% a1 u. Y1 i4 uID                                       : 4
5 _# Z7 V, ~0 mID in the original source medium         : 4352 (0x1100)
9 X( k5 s: \1 ?/ w. VFormat                                   : AC-3
- \/ }; a  L) F1 e, K' J$ C% `Format/Info                              : Audio Coding 3
" g6 S4 Z7 q0 X0 @! {/ b+ LCommercial name                          : Dolby Digital
8 ?. e4 Z3 f! N  Y; q2 vCodec ID                                 : A_AC3
; }  r* h' S/ R) R! o/ \# jDuration                                 : 1 h 49 min. m. E# F) G# j- G; c6 D0 o
Bit rate mode                            : Constant
9 ]! n0 D8 u: h0 A+ P6 k) h6 r: ^Bit rate                                 : 640 kb/s
+ L' O, ]% u/ v" `* Q5 O2 H+ mChannel(s)                               : 6 channels
5 ]4 U$ b# n! T. o3 Z' Y4 V* {: n8 wChannel layout                           : L R C LFE Ls Rs
% W. c- O# F' t0 FSampling rate                            : 48.0 kHz
. N1 B9 w1 i2 ?0 i( p* C2 |% v, fFrame rate                               : 31.250 FPS (1536 SPF)  V1 u1 F8 S" a& e
Compression mode                         : Lossy+ G8 X# {0 q3 e0 l0 y) }! A
Delay relative to video                  : 1 s 1 ms$ s+ b- ~( M& }. R# u
Stream size                              : 503 MiB (2%)
  G6 G  ]! N; `9 G+ Z' z( l, dTitle                                    : DD 5.1, Q, L  Q9 z4 t' g, P9 l9 z
Language                                 : English$ c- p" H8 _3 A  \( s9 K
Service kind                             : Complete Main
6 i# U9 F. R% M, hDefault                                  : No6 K- W. i& f- n( K7 v
Forced                                   : No
8 V! n" f2 x; kOriginal source medium                   : Blu-ray: p: O1 {. Y6 S6 Y
1 h! \" m/ Q# n2 F8 `& Q
Audio #4. w3 ]8 a; @0 P  T6 |, {
ID                                       : 5
. b- n2 r8 l$ j# }; B2 _ID in the original source medium         : 4353 (0x1101)
' v! X. q" ]; w/ A5 }Format                                   : AC-3  t. b3 E2 [1 ^' P
Format/Info                              : Audio Coding 3
( t3 H( D3 ?& \3 f& x$ T9 F+ gCommercial name                          : Dolby Digital* [6 @+ x' Y7 c
Codec ID                                 : A_AC3
$ D+ k/ L. R( T) n/ oDuration                                 : 1 h 49 min
) S/ j1 B* N2 r, {/ d9 i, G' GBit rate mode                            : Constant
+ s/ o  C' o  b4 Q6 r, YBit rate                                 : 640 kb/s
) T, I1 A% T' G3 p. U, M9 I) sChannel(s)                               : 6 channels
- a5 b( V& m6 R7 i/ |# C( Q- iChannel layout                           : L R C LFE Ls Rs
8 g. `5 u: J4 ^' \/ K& [' {" hSampling rate                            : 48.0 kHz
. T7 _! ^( ~) G% z& ^Frame rate                               : 31.250 FPS (1536 SPF)
8 P) j/ E' E; D$ N3 M/ _) f# fCompression mode                         : Lossy* l" y, J& Q( I1 S& O2 u
Delay relative to video                  : 1 s 1 ms$ H1 S+ i7 w0 d5 n
Stream size                              : 503 MiB (2%)
' Q1 F- ?2 |% L  s  M: i* QTitle                                    : DD 5.1# \2 i7 K! N. A2 x7 s
Language                                 : German
& W0 r" s3 _4 b1 V4 cService kind                             : Complete Main
" n7 C8 h. {1 fDefault                                  : No
, C9 P' Y# k. F% @Forced                                   : No
5 |% c. R, m& b# j" ~Original source medium                   : Blu-ray6 e4 V* @4 p! j* p" _3 ^0 Q

6 q' ~5 r$ v( WAudio #58 t& p( l6 O2 u! T8 W! D; i
ID                                       : 6% h0 \0 F5 j& y8 U! X3 b
ID in the original source medium         : 4354 (0x1102)
  u1 o' r$ z( ^5 `; v1 R3 m. JFormat                                   : AC-3
6 m5 O5 z, z" j" h! d& y4 v9 y& wFormat/Info                              : Audio Coding 3
! O5 m% P# _1 s3 B( WCommercial name                          : Dolby Digital
; \, c& N) P! Z6 k2 W* d* oCodec ID                                 : A_AC3& J) v. \; z: F' j9 V. ~' v
Duration                                 : 1 h 49 min
, L( L6 i; r! f* pBit rate mode                            : Constant
3 m( r' Y5 q1 p9 N1 X0 ZBit rate                                 : 640 kb/s
. }( d5 |2 A/ ^5 ]Channel(s)                               : 6 channels
6 B3 F1 T& i/ C; _7 oChannel layout                           : L R C LFE Ls Rs
4 {" P0 r; |* zSampling rate                            : 48.0 kHz
; T" p3 y! n& s! Z+ S* NFrame rate                               : 31.250 FPS (1536 SPF)
+ p! i% ]; v. y$ q" ]5 S& ^9 dCompression mode                         : Lossy
$ g& e! y/ l8 x) N8 x) eDelay relative to video                  : 1 s 1 ms
& J9 ?0 }  T$ F. M2 o; v  }: Q  |Stream size                              : 503 MiB (2%)* D* m( \8 p6 C2 t! n
Title                                    : DD 5.1
4 ?3 h0 L) A9 l1 M0 t5 N! w; YLanguage                                 : Spanish4 z& H4 D2 K& A) B3 I' c% X& j
Service kind                             : Complete Main
6 b# P" L- |) r4 k# G% NDefault                                  : No3 Z8 t! ?# G. P5 p7 r
Forced                                   : No  A4 U% }+ `9 ?/ V* Y) r
Original source medium                   : Blu-ray7 q+ P9 j  \( P) p7 M# d
3 [( ]; T# d" M  S; e
Audio #65 j3 j* K( w) Q8 s6 c$ N8 f; S
ID                                       : 7
& J+ D3 K' V5 RID in the original source medium         : 4355 (0x1103); d7 }% E- R2 S. G1 h& c
Format                                   : AC-3
5 i' G4 I' ?0 n1 uFormat/Info                              : Audio Coding 34 ]' R" f- w! Q6 C! v3 D4 D9 R
Commercial name                          : Dolby Digital
% l0 x2 Q) A2 a8 [9 Y& hCodec ID                                 : A_AC3# A" c  b. I' @) a6 i5 d8 `1 X# t9 U
Duration                                 : 1 h 49 min# a" i0 f9 T; m8 u1 F5 S0 r
Bit rate mode                            : Constant
  \1 p6 b" k) K& {# y$ P  R6 r. ?! ?* mBit rate                                 : 640 kb/s
( v) d4 ^' c! D+ O; j% w, O& _Channel(s)                               : 6 channels' B4 |$ H/ m6 T' ^; ~( ]: I
Channel layout                           : L R C LFE Ls Rs
" {; }; {% o: n2 c( S1 L) cSampling rate                            : 48.0 kHz
' \! s, {' |5 p& M- vFrame rate                               : 31.250 FPS (1536 SPF)
' x9 b# S* E/ o: u! x/ ]; _Compression mode                         : Lossy) f2 J+ d, U4 X
Delay relative to video                  : 1 s 1 ms
( l  ^) F( `) x9 _" ?# jStream size                              : 503 MiB (2%)
% u; d7 |" C4 w6 w8 ?+ PTitle                                    : DD 5.17 X+ ]( q$ j8 q- |. g8 h0 a8 r( f/ A
Language                                 : French
9 x( P$ w; A" x$ o! q  l/ D% wService kind                             : Complete Main4 f3 x" |  g* }1 `, G+ j
Default                                  : No# `5 t1 d% C+ B5 }: D# C+ c7 v1 ]
Forced                                   : No3 `7 d9 ?; ~) T
Original source medium                   : Blu-ray
0 R1 ?$ s4 D( F4 ]7 W
' [& f; ?) G) w" y2 U  f5 bAudio #7
4 ?( S1 L, a& k9 o. G8 rID                                       : 8
6 T9 y- ]& R( `: j1 _4 q# T  L5 O) PID in the original source medium         : 4356 (0x1104)
; K! z: m8 q. ]) V# J9 oFormat                                   : AC-3
. c  N/ C  L2 d/ y0 {" }1 ^Format/Info                              : Audio Coding 3  U: X2 z1 [3 T! D9 V$ l8 w5 f1 [0 T
Commercial name                          : Dolby Digital
3 p- A6 T, ^9 H9 S, t! U6 A/ lCodec ID                                 : A_AC3
( U! S! A' p! j5 FDuration                                 : 1 h 49 min
% w7 p* F# \' \4 I% Y4 n) ]5 lBit rate mode                            : Constant) j- h: i1 v% z5 h
Bit rate                                 : 640 kb/s- g( `( m/ Z! u( c0 ]
Channel(s)                               : 6 channels
, J% J/ M( D  v/ \Channel layout                           : L R C LFE Ls Rs7 x4 F: H6 u+ h  M
Sampling rate                            : 48.0 kHz9 e9 W) X2 ^5 }  c
Frame rate                               : 31.250 FPS (1536 SPF)
# a% l* V9 o! G  S* j/ d, `Compression mode                         : Lossy
, [1 i* A4 I. Y6 Z; p2 ]" q4 B; lDelay relative to video                  : 1 s 1 ms
& F& o$ b. Y* S( G1 m) I, nStream size                              : 503 MiB (2%); q% B( p; X, V; c! N/ M/ [
Title                                    : DD 5.1
5 _9 e6 \% `3 Z# M8 {% L# hLanguage                                 : Japanese
' Z2 D0 k5 ^3 }3 OService kind                             : Complete Main
, K* b5 A7 [/ i4 t+ E. r& \- ?Default                                  : No$ N+ M$ p( @8 |/ H7 U2 {) p& t+ i
Forced                                   : No
. Y1 w( b; Q% vOriginal source medium                   : Blu-ray
. v8 J$ l' l. v, E) Q, p2 {" ?
* @7 x  f3 T2 d1 y2 vAudio #8
7 ~3 _( z* t' b' \7 NID                                       : 9. `6 V7 R& }5 M. E3 F0 v, V* ]' A
ID in the original source medium         : 4357 (0x1105)' L* C6 e) o2 @
Format                                   : AC-3
  j, F  g4 _6 E# X/ hFormat/Info                              : Audio Coding 3
9 X; R2 q2 S/ R9 n# v7 M* E. jCommercial name                          : Dolby Digital+ O) O8 b6 J; ^8 x% ]3 e
Codec ID                                 : A_AC3( E, K. ^1 s7 A7 p' B8 k9 Y9 E
Duration                                 : 1 h 49 min
  E( Y0 w6 T9 Z& Y  tBit rate mode                            : Constant
# d5 A. v% G1 D9 o& x: g# [Bit rate                                 : 224 kb/s
" m2 y( V! _7 m% s7 EChannel(s)                               : 2 channels9 W7 h8 n3 L$ X
Channel layout                           : L R: _- d' A1 U3 }0 W4 V0 S6 R  x6 |- Y
Sampling rate                            : 48.0 kHz
& Z* q# q& R9 L4 X1 C1 sFrame rate                               : 31.250 FPS (1536 SPF)( `2 s% e* y2 v) W- U! y% x& ~. K
Compression mode                         : Lossy
! C  h! B# I! j$ x; O, t$ {5 ?Delay relative to video                  : 1 s 1 ms
  B$ I1 c8 j0 T$ |# {9 V, t5 D- ?Stream size                              : 176 MiB (0%)
" h: \" D) Q7 K7 L( T6 RTitle                                    : DD 2.0" v3 L% i  e$ m$ ~8 K: j% X' A
Language                                 : English
; d. G6 [/ l8 P  o9 F  R: gService kind                             : Complete Main
# h; k8 ]( |+ I2 n+ A: o3 XDefault                                  : No
4 w% K  ~6 R4 qForced                                   : No
' {* E6 Z: {. F8 L0 |Original source medium                   : Blu-ray, s% K* h& C, d/ l9 P

; S/ T" d) L+ Y$ Z% BAudio #9
% a* W& r. d) h; kID                                       : 10
3 {: z# o- ~' w2 F5 Z# a# [ID in the original source medium         : 4358 (0x1106)
; W0 ], z7 \! A/ VFormat                                   : AC-3) ?" P, F/ n8 o( ?7 `9 ~
Format/Info                              : Audio Coding 3
0 M$ c+ x- x8 C! h: mCommercial name                          : Dolby Digital4 \: f) L1 k: q2 F7 G" f- [
Codec ID                                 : A_AC3
. D  ?/ w5 ^' U0 M5 bDuration                                 : 1 h 49 min3 {! J% N  S, @. u
Bit rate mode                            : Constant
1 ^' b3 a  Y4 g- t" s( |* oBit rate                                 : 224 kb/s6 x- r, f$ P, M; N7 y( v
Channel(s)                               : 2 channels  ~, `" p8 X* s, X" i5 {8 |' u& T( t
Channel layout                           : L R3 q. z3 g7 q# O& R
Sampling rate                            : 48.0 kHz% j3 S5 v6 S- P( m1 m4 e& O5 Z
Frame rate                               : 31.250 FPS (1536 SPF)5 l7 n( K7 h. I6 i# S
Compression mode                         : Lossy
" \% V8 i- Q5 @  Z; c' g# I- ?Delay relative to video                  : 1 s 1 ms& G& D$ C4 D$ @; G0 G, p1 L
Stream size                              : 176 MiB (0%)
, S  H* f8 m9 e0 ^4 FTitle                                    : DD 2.0* [$ r4 ]4 |2 Y6 A' a0 h1 P' D
Language                                 : English6 K- B, w% S& ^
Service kind                             : Complete Main
) j/ x9 X* P, ^- Y; t' cDefault                                  : No, n$ _' T+ x7 y# I' }) s
Forced                                   : No7 z) W/ v; `- Y9 g2 O8 F8 J
Original source medium                   : Blu-ray! }0 x5 t' h5 s1 [" b+ q8 B6 Q

9 e$ Y7 J8 z3 G& D, q3 cText #1) [3 F% p. ^7 S4 z( D. ~
ID                                       : 11/ Z" C( ^; [- ]* k/ b3 Z
Format                                   : UTF-8  M+ Q  F+ J$ c. f
Codec ID                                 : S_TEXT/UTF8: M6 Q7 P+ H) l8 ?1 R5 i
Codec ID/Info                            : UTF-8 Plain Text; ]# e! q/ V7 Y- S, ]
Duration                                 : 52 min 58 s
* s% }2 Q7 s! N8 kBit rate                                 : 0 b/s: H# m1 i5 J% ~; E8 A! h
Frame rate                               : 0.003 FPS+ l; V" h# e1 d( W" S! F
Count of elements                        : 9
( _: ?+ L6 J/ VStream size                              : 167 Bytes (0%)
. Q& [" ~, o2 ?+ ^: `' O) g- Z) YTitle                                    : FORCED
5 D- [" X) ?1 @+ rLanguage                                 : English" s8 v* V9 ?% q' h( s( H+ X6 o1 ]
Default                                  : No' o8 \9 K$ z" o
Forced                                   : Yes
, I6 B* `8 k& f, x+ i
0 z' I1 G2 M* J2 H7 WText #2
$ K, ?3 d& G6 @ID                                       : 12, L" K. h$ w/ G1 V: m# R7 y: o2 \- R! S
Format                                   : UTF-8# Q4 m4 X0 G- B& b. R
Codec ID                                 : S_TEXT/UTF8" }' m0 r2 o/ C" y  c, o. s
Codec ID/Info                            : UTF-8 Plain Text) [, C7 f/ c+ W" K
Duration                                 : 1 h 40 min
# }1 c2 c$ J. gBit rate                                 : 58 b/s
* a' Z' K. _* ^  Y- g) x& b0 }. Y# bFrame rate                               : 0.203 FPS# ]8 Y" K6 f9 d7 z# |0 P, T) ^
Count of elements                        : 12237 a$ T: j7 k  v, L4 n0 J) ^
Stream size                              : 42.9 KiB (0%)
3 T( f: v8 i! D$ ?- f( a( z8 z# nLanguage                                 : English- M9 Y7 I) F2 L, h  ~  o
Default                                  : Yes5 V2 I' _  R+ p0 ?$ |
Forced                                   : No5 e5 V# f( D' x8 `8 k
- V! y& `) j; m, ~  ~+ x0 H
Text #3
8 l/ T; j3 }8 X& R" v0 HID                                       : 13, m; b& b$ P. L
Format                                   : UTF-8
) ~8 A1 O' A5 G, z6 |4 y7 f: f+ MCodec ID                                 : S_TEXT/UTF81 v1 ?$ ~1 G( H
Codec ID/Info                            : UTF-8 Plain Text1 B; b7 H8 A4 ]4 q
Duration                                 : 1 h 40 min! m' E' O$ o+ |9 S4 \+ M
Bit rate                                 : 64 b/s
+ a2 B; h$ S: XFrame rate                               : 0.232 FPS) W; }# `& q, a
Count of elements                        : 1401
  B% H  c0 S/ j5 q0 O1 U: q) \Stream size                              : 47.8 KiB (0%)
. G( G  {# o3 B0 X9 V2 gTitle                                    : SDH
0 z0 b$ d7 n! M% A4 n, j, PLanguage                                 : English9 s$ Z+ y8 h/ H# _4 Y
Default                                  : No
: _4 q  }# v2 g9 }; q3 h/ GForced                                   : No& W/ B5 Q" n. \5 l+ ?" t3 `
6 ^" Y9 k4 R) g" ]  B: g
Text #46 X1 [; F" b8 e
ID                                       : 149 S0 S) s6 N, B8 R! W4 S( |
ID in the original source medium         : 4608 (0x1200)8 ]9 H. Y$ L  D. x1 t5 k
Format                                   : PGS/ V' Y; O3 d1 d. `) j; e
Muxing mode                              : zlib, P  M3 f# L" p; x
Codec ID                                 : S_HDMV/PGS
) ]' `+ h: i: v$ z7 JCodec ID/Info                            : Picture based subtitle format used on BDs/HD-DVDs+ m6 M& E" B$ J5 s8 k
Duration                                 : 1 h 40 min; W& u! j, @8 j7 F1 d7 K
Bit rate                                 : 40.2 kb/s( j2 L+ b; f+ t5 M- Y, k! \; i
Frame rate                               : 0.384 FPS
+ y) Y% E  s$ `0 R, ]5 U  `Count of elements                        : 2306+ H* A& J# p9 v* U) i+ e( E. V
Stream size                              : 28.8 MiB (0%)" @3 y) ]  b% s0 L% G7 E
Language                                 : English0 q4 c+ G3 N# _, X
Default                                  : No
6 r, h. _1 b( N( I3 r& R. Z* z8 C4 xForced                                   : No" L& \! z) ~& g3 L0 q. ^% \
Original source medium                   : Blu-ray
) e6 @( Q% M' X. q7 B$ Z
$ z& X4 J& H& l! l7 NText #5
. p, f- r' ~' ?! y5 U6 g0 O: pID                                       : 15  o$ n- c! c4 `! ^: _" G/ ?3 s4 @
ID in the original source medium         : 4608 (0x1200)- w& r) a- [! F% y# s1 t
Format                                   : PGS
6 I9 J( m9 e% ~2 n+ [6 {) U$ XMuxing mode                              : zlib
5 h" h/ E6 S1 f4 B% jCodec ID                                 : S_HDMV/PGS
- V% T0 @. p; N6 j. cCodec ID/Info                            : Picture based subtitle format used on BDs/HD-DVDs
7 u/ O- Q* C* S, ~# W! PDuration                                 : 1 h 10 min7 t) h$ w2 b( Q0 q
Bit rate                                 : 1 065 b/s! D  X$ r2 O& k; E# I
Frame rate                               : 0.013 FPS
0 l+ R8 L' [$ N+ r' y5 Y: }& dCount of elements                        : 56' f6 o( e* W6 h9 w- L
Stream size                              : 550 KiB (0%)
6 `8 L$ _. Q. x- iTitle                                    : FORCED0 e; {- c# c2 a1 ?5 E  K- s
Language                                 : English
& w7 b: z+ c* ~% g4 sDefault                                  : No$ B: e- ?, L! v$ z
Forced                                   : No
5 H- N6 _2 k& H& oOriginal source medium                   : Blu-ray
+ a# @" Z# g" p% C
9 N8 z  r+ V  r+ R! hText #6
8 M* I1 q( {9 {4 N2 DID                                       : 16
1 c) m2 q$ v- ~5 O: ?- ^6 NID in the original source medium         : 4609 (0x1201), {& d0 @1 \( o7 |7 C0 i6 J
Format                                   : PGS# K: D% N9 o( C. t0 p
Muxing mode                              : zlib5 d, K3 d" [# ?, `) m
Codec ID                                 : S_HDMV/PGS. V! a" n" A7 V( p* [2 s* \
Codec ID/Info                            : Picture based subtitle format used on BDs/HD-DVDs
$ i# c% w) q8 E) G3 t; f! \9 @Duration                                 : 1 h 40 min8 N2 d2 K: a$ [2 q
Bit rate                                 : 45.6 kb/s( @( T7 m$ s; S' o* s
Frame rate                               : 0.469 FPS
4 s5 f, D" s6 p8 Y0 `( r& x' V# w7 ]Count of elements                        : 2824) M" n8 |8 T( N7 x  |
Stream size                              : 32.8 MiB (0%)
( S, W' _" i6 p; J  u' P, @/ pLanguage                                 : English
, k' [0 z# J+ W; c$ YDefault                                  : No
5 H  Q5 V/ F. }" `1 cForced                                   : No# F% A$ Y# f2 F0 K7 C$ h9 u8 ?7 ~
Original source medium                   : Blu-ray
3 U7 q( P9 p2 k) B: j$ D! y
( u9 c% I! J' e, D' lText #77 S# h3 `+ M4 l0 j
ID                                       : 17) Z  W" v* ~8 x% ]! D1 j# n" G% x
ID in the original source medium         : 4609 (0x1201)- G, V+ G" E5 i9 }! l) k
Format                                   : PGS( }1 [0 p" V9 A+ ~* T% G( o) D0 I
Muxing mode                              : zlib
8 Q$ F3 Y" A1 h" z+ s/ ]Codec ID                                 : S_HDMV/PGS, u9 g$ C# V* n# ~. W" I2 |, ?3 _. Z/ R3 R4 P
Codec ID/Info                            : Picture based subtitle format used on BDs/HD-DVDs) @2 I3 m$ D( [( _$ G5 E
Duration                                 : 52 min 58 s: ?+ d) g* B+ Z% r( `; a! ~
Bit rate                                 : 306 b/s
6 C0 z$ k/ b  E( Y8 e# HFrame rate                               : 0.005 FPS
# M& q/ ~! _7 ?0 FCount of elements                        : 17
- O$ j- m; i* A4 s4 ?Stream size                              : 119 KiB (0%)/ f  H- v  ~2 z5 e. W8 F9 s) y
Title                                    : FORCED; H% i) }7 Z2 `2 B: l* n
Language                                 : English# Q+ o* _1 Q$ T& S
Default                                  : No
8 {+ E2 I3 D8 Q. @Forced                                   : No
1 G9 G/ e8 ~0 l" C6 `Original source medium                   : Blu-ray/ W2 w1 ?0 U( ]! d

; E8 I: C3 O- s% rText #88 u/ G- h; K% U7 w
ID                                       : 18
& w5 M( O7 D7 ^3 _* }ID in the original source medium         : 4610 (0x1202)
7 U5 G' H& Y; \' gFormat                                   : PGS
2 M' ^/ i0 Y1 h* a# [2 f. HMuxing mode                              : zlib- I* g8 T+ }4 @7 s$ h' y+ [
Codec ID                                 : S_HDMV/PGS; W$ k9 l8 R- n4 ~8 m6 R
Codec ID/Info                            : Picture based subtitle format used on BDs/HD-DVDs7 M( Z9 g1 x( d
Duration                                 : 1 h 47 min) w& K- L6 M2 z8 M) S6 N0 c( m
Bit rate                                 : 33.1 kb/s
4 e; i( c7 A1 iFrame rate                               : 0.361 FPS% r/ w0 R' I+ I5 U9 Z: W# i( c4 w
Count of elements                        : 2317
3 H0 c* w' u9 H+ ]4 {Stream size                              : 25.4 MiB (0%)9 U! |0 s4 C) C" a8 C
Title                                    : SDH4 w" x, E' t5 l  r- Q
Language                                 : Danish
7 h! l' n+ V6 ~9 j6 w0 cDefault                                  : No
5 v; v: _$ v# \* G1 d9 DForced                                   : No  p! c5 d" D0 o1 t& C* ]6 q
Original source medium                   : Blu-ray. o  f: h  Q; d# F* z5 h

& k2 T: @3 t8 l7 i$ h3 |7 bText #9- M% Q* H; S3 F* g- q
ID                                       : 19
) k, h; b, d2 ~2 J. @6 M* PID in the original source medium         : 4611 (0x1203)
) J3 ?* Q, @1 A( `7 jFormat                                   : PGS
0 v. z$ ^0 }: w5 {) AMuxing mode                              : zlib
, C$ K) N9 x1 H. S) T- Y; G. @Codec ID                                 : S_HDMV/PGS
2 L* R* {8 t  r5 |Codec ID/Info                            : Picture based subtitle format used on BDs/HD-DVDs6 j$ z" P- T: B$ x( m
Duration                                 : 1 h 49 min
8 ]7 |$ \" U& |5 S+ Y0 r+ D4 ~! f# E" eBit rate                                 : 37.0 kb/s4 Q- H' l& E7 M$ f% w' Y5 Y; C9 @( d
Frame rate                               : 0.322 FPS
6 @; x$ G/ |0 C* x/ T# y5 hCount of elements                        : 21171 C) |# |8 R, D* M% [
Stream size                              : 29.0 MiB (0%)7 F& Y6 ]5 ~7 l$ ?0 I
Language                                 : German
* f: j; ?% ^9 _4 g. U/ FDefault                                  : No
" V0 u' a& Q$ x* S; h& wForced                                   : No! Y1 Z2 P0 D: V2 u
Original source medium                   : Blu-ray3 z$ X2 @% d. \( V$ l2 u
1 Z2 L) N+ R4 T8 P% k) ?# Z
Text #103 Q) v4 A  ~; n* ~1 r- @( c
ID                                       : 20
$ F8 `5 K7 t) `ID in the original source medium         : 4611 (0x1203)- z! e, q; m! M7 G
Format                                   : PGS5 {( x& l* R/ D3 d
Muxing mode                              : zlib- G. c7 G) \9 S4 w( n! P
Codec ID                                 : S_HDMV/PGS$ j% u7 s  z  N2 l& w
Codec ID/Info                            : Picture based subtitle format used on BDs/HD-DVDs! \/ K" `1 w9 ]( O1 D, I- w! S
Duration                                 : 1 h 49 min/ i! `% Z: d4 G2 ]8 \, P$ x5 X
Bit rate                                 : 822 b/s
4 f- g' w( w5 @, kFrame rate                               : 0.010 FPS
5 u$ p3 J- _% l9 QCount of elements                        : 64
6 Y2 [" }5 |% D- @Stream size                              : 659 KiB (0%)
* z$ Q, R1 M1 u3 PLanguage                                 : German
9 e. D* _+ a( Q0 `Default                                  : No; q& t4 X2 q7 G, e
Forced                                   : No
) d4 k+ j" G6 ]Original source medium                   : Blu-ray
/ ?. L! D& m8 S5 x9 O$ n& N; y$ ]; l5 N
Text #11
+ Y3 \) f6 x: wID                                       : 21  X+ |- u% e% \/ O+ q& a
ID in the original source medium         : 4612 (0x1204)
5 m* D* D5 k  lFormat                                   : PGS" S* D5 S  ?+ e& k* @3 L+ v
Muxing mode                              : zlib5 I7 Q2 z4 S9 q$ m" b# D% O8 i
Codec ID                                 : S_HDMV/PGS7 g/ |2 P0 B- N2 {' f* R
Codec ID/Info                            : Picture based subtitle format used on BDs/HD-DVDs" x* ?; F) {: s/ O
Duration                                 : 1 h 49 min
: N( _  I! l/ R* }( r2 |, \0 QBit rate                                 : 32.1 kb/s
3 \& B# a  ~! `& o" }) FFrame rate                               : 0.354 FPS. r' c3 }- F- X# r1 u+ O
Count of elements                        : 2329
. M  Q$ \( S7 V: z9 q3 y. v" qStream size                              : 25.1 MiB (0%)4 ^; G7 `7 K, t; N
Language                                 : Spanish0 A) H! l2 y3 J/ u$ Z$ f
Default                                  : No
! {( R" i$ E# Y5 s% a7 AForced                                   : No2 O* w" r, c- x: P8 M! R1 m
Original source medium                   : Blu-ray
4 }7 Q$ x: M; K7 p
$ b- }" o* m: M$ k2 U% xText #12
; Z. P- a2 O8 v8 IID                                       : 221 `% A9 t5 a' j. i$ n% c7 x( `
ID in the original source medium         : 4612 (0x1204)
/ |( R% B- C4 I6 I8 Q8 a! TFormat                                   : PGS
- k% ?5 C: t/ T. k4 D  G% Z" P, wMuxing mode                              : zlib
2 s0 V: d5 Q* q$ jCodec ID                                 : S_HDMV/PGS
7 ^7 r8 B' Y+ d* uCodec ID/Info                            : Picture based subtitle format used on BDs/HD-DVDs
5 J* L5 ]% a5 y% P9 u  D. d1 hDuration                                 : 1 h 49 min
( r% a. A) U$ E1 z9 u2 cBit rate                                 : 844 b/s
( h; I# a) d+ B4 w  F5 r+ D1 sFrame rate                               : 0.011 FPS
! n6 z% p  O+ V" [Count of elements                        : 72
' }, N' c8 X/ {Stream size                              : 677 KiB (0%)! }1 L# U4 |( B* k* r7 u
Language                                 : Spanish$ Q% v1 z5 Q) }
Default                                  : No1 b( s# Q2 N6 g
Forced                                   : No
* c2 x9 g) o, }2 cOriginal source medium                   : Blu-ray
( e! I0 c9 N% d2 \
& p( Y+ H9 {/ u; L# z- r5 OText #13
' {6 \" y+ x3 g7 a  q( kID                                       : 23
4 K, y: ]5 D. D  ]( y( [3 CID in the original source medium         : 4613 (0x1205)
2 y5 w( L+ o& F+ g& R: a: v- b1 YFormat                                   : PGS
/ k7 h! z$ y7 T5 W4 K5 l: O: sMuxing mode                              : zlib
1 f) e8 P% F7 J0 L/ ACodec ID                                 : S_HDMV/PGS2 Q; n3 G# v2 F, C* _+ ]1 R2 o
Codec ID/Info                            : Picture based subtitle format used on BDs/HD-DVDs3 Q) D$ H/ O% [6 p' l: D0 s
Duration                                 : 1 h 49 min
8 {% m2 C! D& M) l; UBit rate                                 : 31.3 kb/s
$ a! `6 C! t; z. F7 L6 e, {Frame rate                               : 0.343 FPS. P/ y6 D4 b3 F
Count of elements                        : 2253
; I! P7 Y1 [( gStream size                              : 24.5 MiB (0%)
/ e  ?9 \1 g$ a8 oLanguage                                 : French4 I( Q7 a$ d& \7 O: p' |
Default                                  : No4 C( {. e0 r6 }
Forced                                   : No
. S" N( G) L7 T! MOriginal source medium                   : Blu-ray
# s+ e6 r) ?. Y/ Q/ h3 s& T
0 T# G3 A9 f* x6 a+ Z4 d7 VText #14
4 \' M& y, P+ ]  D9 L* [ID                                       : 24- K# |3 ]% O; Q! f
ID in the original source medium         : 4613 (0x1205)
& P$ J) w3 m3 uFormat                                   : PGS% [# {3 F5 {0 F. a
Muxing mode                              : zlib8 |, c. N5 n" H8 W8 K  c
Codec ID                                 : S_HDMV/PGS
+ y( a9 s8 r; f2 e. B  W( n0 eCodec ID/Info                            : Picture based subtitle format used on BDs/HD-DVDs' F, V+ ~9 v5 D0 A3 h0 |* @- N
Duration                                 : 1 h 49 min2 }6 @* o  r/ u+ @4 n9 u& g
Bit rate                                 : 801 b/s* F" ~1 j+ g  Y2 {9 n5 ^( }( N
Frame rate                               : 0.010 FPS2 z% _! k2 Z. Q' ]
Count of elements                        : 688 L  v6 y" j: \3 c. a+ h
Stream size                              : 643 KiB (0%)  F+ {( k# T, [# T/ T
Language                                 : French
8 l: {. ^/ |( v3 e: jDefault                                  : No: @4 c* a- o" O( u& t6 g4 u# q
Forced                                   : No, ]- e  y3 M# Q# R0 D
Original source medium                   : Blu-ray
" Z% U7 `% F, T8 D8 q( d7 D
2 ~  `4 h7 a) D2 R) fText #15* z4 k5 E8 N. f' l
ID                                       : 258 y6 w  s! Q1 b' l- `" r! z
ID in the original source medium         : 4614 (0x1206): Z/ q& r6 x' l4 N: K# i
Format                                   : PGS
- b5 h; y( Q9 o5 j. ?% n3 [Muxing mode                              : zlib4 n$ N% r- I% \) \, U3 L
Codec ID                                 : S_HDMV/PGS
3 E( ~6 T2 [4 a8 }6 h( U  `; a; JCodec ID/Info                            : Picture based subtitle format used on BDs/HD-DVDs
9 u& m4 ]. f8 S1 e. O1 s" I* pDuration                                 : 1 h 43 min
9 z7 F4 N. ^# R0 u: pBit rate                                 : 25.6 kb/s' h& A* o' h' U) ~
Frame rate                               : 0.358 FPS
% w2 @  J( g' ]' _' [3 e9 A; }Count of elements                        : 2224  N4 D, j. i! ~% L: \1 Y
Stream size                              : 19.0 MiB (0%)) ]2 r! O' \0 t" v
Language                                 : Japanese$ C/ Q& v- q1 h3 y2 t  P
Default                                  : No8 w7 f+ v7 }' Y' G, z1 F' i7 p
Forced                                   : No0 L0 I- D5 h6 {% Y5 j2 ]. U# v7 O
Original source medium                   : Blu-ray
+ I6 Q3 C; P* b# }( t- f, S' H
7 r& |1 B4 `" s: B. |* S# YText #16) o( Y1 b( n0 Z, ^/ |5 o9 f
ID                                       : 26
8 O% v  `5 U2 Y9 W3 ]% r6 lID in the original source medium         : 4615 (0x1207)5 y" [; s9 n. S8 @, n( [" s
Format                                   : PGS% R2 @! p( Q& a% w- T5 u& f
Muxing mode                              : zlib
6 [: P* W: s' L8 TCodec ID                                 : S_HDMV/PGS: |" j, [* b3 l
Codec ID/Info                            : Picture based subtitle format used on BDs/HD-DVDs5 C, |5 j8 V9 O4 c5 }/ S' w
Duration                                 : 1 h 49 min6 P) b3 |& y) _0 ?4 C! a
Bit rate                                 : 31.7 kb/s3 z1 Z. \$ M6 X' U* i3 Z7 u
Frame rate                               : 0.332 FPS
! Y% D: S6 j, s5 h. V/ h0 vCount of elements                        : 2182
4 e. d, l4 c* ?Stream size                              : 24.8 MiB (0%)
. \* I( e2 B7 C! dLanguage                                 : Dutch7 V4 P" c" Y7 U
Default                                  : No0 J9 j% t5 \0 ~9 [$ J1 A
Forced                                   : No
! d4 K. w0 s8 @1 U- Q. z+ {Original source medium                   : Blu-ray
  h5 R3 |! {. H0 d  p5 k& ?0 ~8 a' O  P4 R1 c+ Y
Text #17
3 j- S! r+ ]0 I2 {2 b2 _ID                                       : 27$ S" {7 G% r0 |/ ~1 M
ID in the original source medium         : 4616 (0x1208)
  ]" L7 ]* F" B4 rFormat                                   : PGS
/ u+ m& [8 l$ {! rMuxing mode                              : zlib4 H+ }$ W- B3 y  w$ Z% q+ g
Codec ID                                 : S_HDMV/PGS
" \  _3 V, H6 `8 j+ w# R( _Codec ID/Info                            : Picture based subtitle format used on BDs/HD-DVDs
6 m, G) f/ ]& t9 ?9 H& UDuration                                 : 1 h 49 min; x# ~, p( M! E# R3 b' a
Bit rate                                 : 31.0 kb/s0 `. _1 h' X0 a- H: v
Frame rate                               : 0.336 FPS
: \# N# x" y+ m' `: ?Count of elements                        : 2211
+ b, f6 U5 P% d/ s7 N3 E: s" ~9 n( _3 TStream size                              : 24.3 MiB (0%)4 z. Q  z) S+ }3 V- x5 w
Language                                 : Norwegian# `) I7 p0 Z$ k& Y/ ?
Default                                  : No* P+ N3 u8 z1 i& d0 V8 v# r  g
Forced                                   : No
( V' K+ m; `/ EOriginal source medium                   : Blu-ray  _# R: m2 I$ q! z1 U

" O) ~$ n+ A4 n4 [  ]Text #18* R4 X! m9 i2 Y8 Z9 D' q
ID                                       : 28& t9 ^* T6 N: r' [
ID in the original source medium         : 4617 (0x1209)
- C& Q$ `6 A5 R! _Format                                   : PGS; g1 ^* H4 k  p. D* a
Muxing mode                              : zlib3 z1 l. }/ C0 H, B# r5 f6 K1 J2 a
Codec ID                                 : S_HDMV/PGS. v- R( m% {  J* \( G0 `! [+ _
Codec ID/Info                            : Picture based subtitle format used on BDs/HD-DVDs3 h% V. Q  L: N) T
Duration                                 : 1 h 49 min: y& o& o4 ]# g  x
Bit rate                                 : 31.1 kb/s
6 A# B7 S; u  B: f: _  G. B2 G, M3 iFrame rate                               : 0.343 FPS
3 @% a9 g" u6 V( ^9 n1 P  m8 bCount of elements                        : 2257# F9 `" ~; N, r/ m. p8 m. J
Stream size                              : 24.4 MiB (0%)
/ r, y# i' r! A# i+ N9 eLanguage                                 : Finnish
' y6 B, R/ H5 G! g3 l7 [# }! _Default                                  : No
' U8 x3 J" \; x9 J( hForced                                   : No
1 f8 }$ S3 [% C* x4 `+ j3 `1 {Original source medium                   : Blu-ray
: D7 ?  {: \( X# e. J3 f
1 }3 s# O" r7 r* BText #19. h: s) l0 m& R; N$ M# P
ID                                       : 298 M( w! G' e, D. x" w( n
ID in the original source medium         : 4618 (0x120A)2 v, X$ D: a" q0 i" M
Format                                   : PGS3 X; }2 U: O# A; j% n
Muxing mode                              : zlib
4 i; E! Y+ F8 _6 \Codec ID                                 : S_HDMV/PGS
+ M. k2 \4 |, D: U6 dCodec ID/Info                            : Picture based subtitle format used on BDs/HD-DVDs
2 ~6 D1 ~& g* l. p+ cDuration                                 : 1 h 49 min
0 [( d% ]' a3 t9 l% ]4 K( N1 I7 wBit rate                                 : 28.7 kb/s8 j9 [4 Y6 B- U; r0 L
Frame rate                               : 0.325 FPS
4 g# z8 ?% ]" W$ P# o- OCount of elements                        : 2134
" X/ u7 a: z  x8 ]) BStream size                              : 22.5 MiB (0%)9 Z  r" R. l! ^0 g: t) j
Language                                 : Swedish: G; j! m( J7 c( Z6 H- ~  @
Default                                  : No
* g0 ~# W0 {' i% J' ZForced                                   : No' \4 g" D, l& Y/ ~5 a
Original source medium                   : Blu-ray. Z8 A! G1 `) K" a2 B
9 ?8 F' C. W: Q: V" W
Text #204 t# F, O4 h$ z+ Y
ID                                       : 30
' T  r% ?# T7 u& J  [ID in the original source medium         : 4619 (0x120B)
5 Q3 [' s- t9 ?, H3 `* P- m# a9 V$ [8 mFormat                                   : PGS; V0 C8 y: ?+ K& ^# e. b0 Y
Muxing mode                              : zlib
& ?! Y( J$ z; b/ s; k/ iCodec ID                                 : S_HDMV/PGS3 S- f" ]  o1 Q' r
Codec ID/Info                            : Picture based subtitle format used on BDs/HD-DVDs
1 M5 `" o: V7 QDuration                                 : 1 h 49 min9 ^  b% g& p' ~7 E" H9 h
Bit rate                                 : 49.4 kb/s9 m' Q! P0 L6 E/ a2 k8 B
Frame rate                               : 0.417 FPS
6 K1 ~+ n( p9 P$ p" ^1 o: S. LCount of elements                        : 2743
/ m( e# y0 q( C7 D8 [, a3 k2 oStream size                              : 38.7 MiB (0%)
* {! J0 ^8 d% u4 W4 P  m% jTitle                                    : COMMENTARY7 Q  s3 x) `) {, m+ N* E1 z
Language                                 : English0 J' C. k& g+ Q, K9 j6 ^  X
Default                                  : No2 V# E) y- [' S! r$ I7 h- U
Forced                                   : No
  J: p$ m  k2 D9 l4 m4 F4 f* lOriginal source medium                   : Blu-ray
% m* B! R+ }* v3 t8 v2 ]( R3 o6 U% [! g2 }4 n
Text #21
, E3 `6 H& Y  {/ k# Z4 oID                                       : 31
( d3 Q! B6 M+ p$ y! o  d* uID in the original source medium         : 4620 (0x120C)6 G% [6 m% @! E( P$ N8 q2 X9 R
Format                                   : PGS
/ N, M' G$ {2 \7 I' I! C: ^3 cMuxing mode                              : zlib
# o5 u% B" v, _  _, I# o1 t$ bCodec ID                                 : S_HDMV/PGS
" M# Q: P5 l7 X# S, }* ZCodec ID/Info                            : Picture based subtitle format used on BDs/HD-DVDs
1 o. S- K" y; j, @Duration                                 : 1 h 49 min
# c0 m' D0 T- F' n& ?2 t9 YBit rate                                 : 41.7 kb/s# f8 M7 {( L8 U8 `" N' ~2 F9 n
Frame rate                               : 0.319 FPS* u7 ^4 Q! b* {$ M; G
Count of elements                        : 2103
# F& h  u3 ^& X8 u' IStream size                              : 32.8 MiB (0%)1 D; y# y; Y) {; w% Y
Title                                    : COMMENTARY' v/ `9 V/ M! n: k# ]
Language                                 : German
' X1 R: ^) d! c+ B) K6 @Default                                  : No
6 B  e( K$ v, c& C, {! H8 CForced                                   : No
6 u8 n' l( D5 l  e. TOriginal source medium                   : Blu-ray
% T2 X3 C1 k" r: c) X5 S4 d, Z- y7 J4 S9 k
Text #22: }: Y4 H8 `  }0 N
ID                                       : 32# Z5 @8 z" x) O0 X
ID in the original source medium         : 4621 (0x120D)
0 E- m9 S$ r! Z/ Q0 `$ m  i2 ]  {Format                                   : PGS1 s# ]* a* `: r" Y, G/ \0 _
Muxing mode                              : zlib% W; x! }% C! U4 Z* ^
Codec ID                                 : S_HDMV/PGS
1 [/ @% i9 G5 RCodec ID/Info                            : Picture based subtitle format used on BDs/HD-DVDs
" s& h- b# ?! q8 n9 ^3 U2 ?Duration                                 : 1 h 49 min. _5 u' m) z5 m$ w# d+ h1 Q
Bit rate                                 : 40.8 kb/s* o2 H- X! ?$ s* j
Frame rate                               : 0.320 FPS3 q% N; T2 ~4 }9 T& u
Count of elements                        : 2109
& J; N, i/ j) _. n1 X. ]4 q) t. MStream size                              : 32.0 MiB (0%). T# T9 w. S  q/ D2 a( [: S3 B
Title                                    : COMMENTARY2 a6 f7 K; j% m2 y9 }/ ]9 e. B
Language                                 : Spanish
% R2 ?3 y+ _2 o1 Y. lDefault                                  : No
6 z! ~: Y& i' n( Z  `  U0 ^Forced                                   : No
  p: d, g0 ]) h* s; ^Original source medium                   : Blu-ray/ {8 H- y/ Q1 w+ S- q+ C
4 b3 u0 G) o% i4 [- `9 n/ f
Text #23
0 U0 E2 }1 J8 \* h. u6 O; F5 F/ w" KID                                       : 33
& A5 R3 f/ p# p+ f/ bID in the original source medium         : 4622 (0x120E)0 V' `. N; X- H4 {9 ^! _
Format                                   : PGS  X! a# D& ^/ p# l2 ~7 A
Muxing mode                              : zlib
3 ?/ J( m8 M1 ~8 j$ E0 I6 ACodec ID                                 : S_HDMV/PGS
& Q- u2 x7 U$ WCodec ID/Info                            : Picture based subtitle format used on BDs/HD-DVDs
1 b( Y2 M& J2 }2 E2 V% z9 q- L& ADuration                                 : 1 h 49 min
# V' k! a7 |4 yBit rate                                 : 42.9 kb/s
8 i% [* ~9 w8 r. w* yFrame rate                               : 0.320 FPS/ y- b7 A4 v; h
Count of elements                        : 21076 E8 Y, X7 X$ i' ~( \
Stream size                              : 33.7 MiB (0%)) Z( B. \; L' ^1 [
Title                                    : COMMENTARY& a+ Y1 f3 ]. @7 H, e6 k; ~
Language                                 : French
& l' q# E1 X; ?: @" q# \Default                                  : No
5 v" P: D3 D4 l: _# L3 yForced                                   : No$ Y# b9 I; H$ z- V0 I+ n
Original source medium                   : Blu-ray' ^* [5 a0 d$ M9 r% b
2 Y6 ~0 \* {( e/ T: \7 _
Text #243 ]% m2 p5 M0 M; Z8 Z
ID                                       : 34
+ `5 _- ^$ \2 f0 b- XID in the original source medium         : 4623 (0x120F)
  \. C' d* b/ l$ E: c  h6 `Format                                   : PGS4 Y6 g2 M8 q1 O& T! `! y+ N/ ^- I
Muxing mode                              : zlib
- v+ i6 d. O& Z5 UCodec ID                                 : S_HDMV/PGS
; N) I& I; _2 Y7 y! T+ l: ]; XCodec ID/Info                            : Picture based subtitle format used on BDs/HD-DVDs* E! m  ^$ J% a/ a4 N
Duration                                 : 1 h 49 min0 U" j  V% l2 A, j: b1 G
Bit rate                                 : 34.5 kb/s
! x) S4 ~& T0 h/ D6 w+ G# K9 |$ BFrame rate                               : 0.362 FPS6 H: A: o# i4 L1 U5 v
Count of elements                        : 23794 b7 t! _/ m" l
Stream size                              : 27.0 MiB (0%)
9 U9 Z( F- [7 _0 u4 E3 S& {3 ^1 L. zTitle                                    : COMMENTARY1 Y' g7 b  D% W* o1 N
Language                                 : Japanese
* m1 u" l. C/ {) ]; Y' W% Y5 Z  {Default                                  : No
3 ^; D: }1 V1 e3 u7 C4 Y! YForced                                   : No" C' A: K( {. v+ @  G% u5 y* B
Original source medium                   : Blu-ray! ~) f4 b3 g7 A1 i; {+ X
1 V, i7 ~( r6 }4 c- Z- p6 ^
Text #25
% V7 e& A( x7 c6 yID                                       : 35
% [; f1 m1 V; e- LID in the original source medium         : 4624 (0x1210)* K+ E0 d0 v  o8 L  C% ^# ], ]
Format                                   : PGS0 i, C# ?; I! y3 B3 H! V
Muxing mode                              : zlib
9 f6 V% ~# {& M* f1 qCodec ID                                 : S_HDMV/PGS  }! W$ U$ A  Q2 ~$ D$ v* l( J4 Y
Codec ID/Info                            : Picture based subtitle format used on BDs/HD-DVDs" R7 }  G8 q$ q* j  g
Duration                                 : 1 h 47 min' l( z0 f) S1 D$ z  q# M
Bit rate                                 : 62.7 kb/s0 h0 o/ z6 A# W, H% V& h
Frame rate                               : 0.531 FPS  D9 N% `2 Y8 h. O1 w$ t
Count of elements                        : 34147 W/ ^3 N# |* y! D4 Z; Z
Stream size                              : 48.1 MiB (0%)0 t- G4 c6 Y9 t, V7 Z
Title                                    : COMMENTARY
9 F. y- V1 a" z: U- FLanguage                                 : English
: c2 N- L; H2 N. S4 l$ pDefault                                  : No
4 W& N6 ]' }: B: ?' T( r- N$ DForced                                   : No/ ^& @# j/ g, [. ^) W% @# c0 }
Original source medium                   : Blu-ray
* f1 g2 B( v+ d' o8 m. m) Q8 l+ W
$ J2 M! P2 U3 i1 L5 W5 V/ h( oText #260 |  Q* o# t6 e
ID                                       : 36
7 \  ]$ {0 t" _) s) Q7 R6 P! pID in the original source medium         : 4625 (0x1211)
& H; C( j3 ]& T2 l3 o$ \, yFormat                                   : PGS$ r; L" n8 U, L9 P8 T  v+ X) H3 |- @
Muxing mode                              : zlib
+ R0 F- K" R- |: }% kCodec ID                                 : S_HDMV/PGS3 ?4 R5 M; j. x6 {
Codec ID/Info                            : Picture based subtitle format used on BDs/HD-DVDs2 F6 ?5 H$ |, v' [+ S/ x1 s; ]
Duration                                 : 1 h 49 min( ~, a9 h" G: O9 S
Bit rate                                 : 60.3 kb/s3 M5 ~4 u) R% U
Frame rate                               : 0.519 FPS
/ L% a  a+ f) v' RCount of elements                        : 34165 B+ W9 M( W& ?& ?
Stream size                              : 47.3 MiB (0%)* k2 c7 g* ~! y7 M
Title                                    : COMMENTARY) ^3 d; I5 e; ]5 {+ Y% v
Language                                 : German
" e) B" |0 ^7 r% D. U7 `  \' O, QDefault                                  : No8 J; k/ U; `  h; f* c
Forced                                   : No
4 v6 ]; m4 t1 I1 S6 QOriginal source medium                   : Blu-ray
- o! c, f" W( }5 X) k* Z7 d0 I
* Q! `8 E7 ]' `  Z' S$ oText #27
$ R+ x" i$ y7 t$ ^0 a5 f4 oID                                       : 37. Y7 \+ T* U3 v, X% }* L  X
ID in the original source medium         : 4626 (0x1212)
" l5 s2 T) H' J9 @; S! J: kFormat                                   : PGS
% C' \7 k$ i4 X' O5 Q. {Muxing mode                              : zlib4 j1 m1 z/ h6 j
Codec ID                                 : S_HDMV/PGS
8 h  l- q: Q1 J. g4 JCodec ID/Info                            : Picture based subtitle format used on BDs/HD-DVDs
; A; y  }4 P/ N: @$ e/ Y( VDuration                                 : 1 h 49 min
; ^: }6 \5 x2 F+ zBit rate                                 : 55.3 kb/s
6 L: B+ `6 e9 J: o1 H$ k) KFrame rate                               : 0.519 FPS
9 {) t6 }  G9 f' |1 ZCount of elements                        : 3416
2 Q2 T* h7 G. y7 _& x( F; jStream size                              : 43.4 MiB (0%)
8 b- V# u- r* o7 r' G0 i$ [  }Title                                    : COMMENTARY6 }. h8 q8 c  x# k/ ^
Language                                 : Spanish
' c2 {" V' \8 x/ Y( DDefault                                  : No
9 L: ]7 W8 I1 @! j: J- u8 kForced                                   : No, p/ y/ S  M: q% T% i/ O
Original source medium                   : Blu-ray
; \; Y% I. w' b& {( [, n; Q& E; T
5 V. }/ k, V3 uText #28
* E8 c9 t& k5 ^& C7 g2 L, vID                                       : 38, G% u6 a$ ~6 i' e3 J9 z1 ~
ID in the original source medium         : 4627 (0x1213)
' j0 i2 l' H5 r( _7 kFormat                                   : PGS
( x( m$ M6 R/ H" k+ {, [Muxing mode                              : zlib5 [4 k, t/ G* P. m
Codec ID                                 : S_HDMV/PGS
1 N5 J0 j% V6 {6 q0 S3 _Codec ID/Info                            : Picture based subtitle format used on BDs/HD-DVDs) X* U$ L9 P9 g! p
Duration                                 : 1 h 49 min
' i; b+ M3 o1 u; e8 mBit rate                                 : 54.1 kb/s
3 _( i8 C+ M; U5 qFrame rate                               : 0.519 FPS
8 C  T9 z% D$ S3 q3 c  w  PCount of elements                        : 3416
0 l* R$ E- z0 m% Q" y( ]6 |5 oStream size                              : 42.5 MiB (0%)
: I8 Z0 R3 Y' l8 D& }1 y  u/ eTitle                                    : COMMENTARY0 p! B$ }2 V9 w' K" @
Language                                 : French
, x/ i: X8 N) j. j) ^Default                                  : No
# ~9 i! O/ g9 J3 oForced                                   : No6 n! ~% ]' G( u6 V- Q+ K
Original source medium                   : Blu-ray9 ?* C( h, W4 u' J: }4 |6 f
* x! p8 X* \" s
Text #294 d' ?; W" Y+ _! H4 ^' G4 ~  V$ l# I  H
ID                                       : 39
( P$ \0 G2 y- ~- b. a& B% ^0 a" ~. {, [ID in the original source medium         : 4628 (0x1214)8 d* b; ~. t' j4 k% F( N
Format                                   : PGS- _/ p, f6 W4 F6 i
Muxing mode                              : zlib3 n+ }+ O& [$ y5 z6 Z/ r
Codec ID                                 : S_HDMV/PGS
1 i* w5 w: v' w# ICodec ID/Info                            : Picture based subtitle format used on BDs/HD-DVDs( M- h) W% C; {& a# T
Duration                                 : 1 h 47 min
, x$ n! a9 X7 nBit rate                                 : 42.6 kb/s9 `2 ^+ E3 Z1 a8 j. J+ n- J7 n' l
Frame rate                               : 0.426 FPS$ f$ }2 y- V3 Y" L, N2 Q
Count of elements                        : 2741
: B* @4 {/ k: J! c( NStream size                              : 32.6 MiB (0%)
+ a; ]1 L, l( M; N9 w3 M8 GTitle                                    : COMMENTARY2 o# [4 t2 @! l& ~9 ~- k& g
Language                                 : Japanese/ s% {" N0 E0 M7 @
Default                                  : No+ R: D$ G& w0 V" {
Forced                                   : No
+ Q$ }9 |, g2 |Original source medium                   : Blu-ray/ ?# P. m& K( ]  v3 H

: B5 P9 _: Y- T, y, {* g" l3 {7 B5 h+ }Text #305 }* w8 A% v2 K
ID                                       : 408 {* `- L" K! N8 a1 F
ID in the original source medium         : 4629 (0x1215)5 `/ p  o1 J! z5 x: S4 l  U
Format                                   : PGS
& X( T: o+ g. `Muxing mode                              : zlib
. [. f/ ]! m# N+ I/ U3 |Codec ID                                 : S_HDMV/PGS1 F3 J# H! G( c" M2 J( M
Codec ID/Info                            : Picture based subtitle format used on BDs/HD-DVDs1 H& n! W) n9 I6 `/ P  B6 Q+ [
Duration                                 : 1 h 38 min
, T) Z8 ~/ p, ?' J5 ?Bit rate                                 : 768 b/s
$ @4 {$ K/ h9 ~; h6 h* X) K: i& qFrame rate                               : 0.012 FPS
! z. v5 E; L8 b" j8 rCount of elements                        : 70# L1 ^1 A0 K$ p$ C6 g6 ]6 N
Stream size                              : 555 KiB (0%)$ |- c( E" F1 k* F1 n# C
Title                                    : FORCED
7 [- ]$ V# c+ v! A, vLanguage                                 : Japanese7 U" w! w9 |! y1 p) H) p4 |
Default                                  : No1 P. F  @8 U( }4 B) ^9 l' t
Forced                                   : No0 {- K% S; I& c6 }3 c
Original source medium                   : Blu-ray
; u" i7 E: D3 T( y0 L
* X. ?9 a( m" @8 k5 wMenu. N( J) G8 M# J
00:00:00.000                             : en:Chapter 01
% y1 Q0 |/ r2 D( H% d' b& s00:03:19.949                             : en:Chapter 02' O! T) F) y7 S2 \) S' y0 E5 a! x5 ^* l
00:11:58.134                             : en:Chapter 035 D% p9 z: y( r5 d
00:19:39.261                             : en:Chapter 04; Q8 V+ o1 P, c: i, m! F, d
00:26:40.348                             : en:Chapter 05
, A0 b* W; y' ?7 P00:37:28.037                             : en:Chapter 06  Q1 o7 `1 j# D* f% s
00:41:27.818                             : en:Chapter 07
( v6 M7 l  W: l00:53:10.437                             : en:Chapter 08
4 o6 c  L9 p' H+ \- V, K01:05:03.983                             : en:Chapter 091 Y" j/ |# O7 j  `: k* G. S, E
01:08:42.618                             : en:Chapter 10
, F% m' _; q  K( i& B! o01:19:06.658                             : en:Chapter 11# B' w7 c, Z9 O& H6 B+ n1 R
01:23:18.618                             : en:Chapter 123 R2 G( [* L# k, O) S3 |
01:31:52.715                             : en:Chapter 13
5 @. a8 f7 {+ f6 L01:38:25.190                             : en:Chapter 14: X$ M! q" t8 u% Y2 h) o' O% n! ~
01:44:00.484                             : en:Chapter 15
1 k% O( Z: U2 {" ^  y) `
游客,查看本帖隐藏内容请回复 | 加入VIP可免积分免回复 了解详情 | 还不是会员:点击获取邀请码 Invitation Code

0

主题

881

帖子

3390

积分

Sponsor

金币
251 枚
体力
1360 点
lfvvzc 发表于 2022-9-29 17:04:13 | 显示全部楼层
啥也不说了,楼主就是给力!! l4 C! g( M+ |! c- {" n9 K
After reading the posts have nothing to do I Amoy posts!# s' Q" @* T% Z4 \7 q! N5 R

本版积分规则

小黑屋|Archiver|4K蓝光论坛

GMT+8, 2022-12-4 10:09

Copyright © Tencent Cloud.

快速回复 返回顶部 返回列表