BluRayCD Forum

 找回密码
 立即注册【分享大片】
查看: 36|回复: 7
收起左侧

[蓝光原盘] 冥界警局1/衰鬼刑警 [REMUX无损版 自带中字] R.I.P.D.2013 1080p BluRaycd REMUX AVC DTS-HD MA 5.1-FGT 26.87GB

[复制链接]

7486

主题

7658

帖子

7万

积分

Post Share

金币
133 枚
体力
23720 点

卓越贡献勋章

黄金嫖客 发表于 2022-11-11 08:30:52 | 显示全部楼层 |阅读模式
A recently slain cop joins a team of undead police officers working for the Rest in Peace Department and tries to find the man who murdered him.# U! Q( a0 w9 o% m9 z1 j6 A
+ a/ z+ X% X6 I4 X8 i8 f4 |( d2 x
02.jpg
% \' w5 e" z) D: r6 Y2 @
/ w: y- K5 ]. R; J" b◎译  名 冥界警局/衰鬼刑警(港)/降魔战警(台)
! G- e* @4 C- e◎片  名 R.I.P.D. / Rest In Peace Department / Ghost Agent: R.I.P.D.
1 a3 Z6 O# d$ M7 A6 s7 N1 i◎年  代 2013
$ f8 l! Q4 W" K# k  a) G* S◎产  地 美国# g/ F* n$ X& L7 _, W+ s8 r& f  ~
◎类  别 喜剧/动作/犯罪/奇幻5 O5 _" r! o' i. u0 |! P& H2 O
◎语  言 英语! d" U3 H# o) R( a4 ~
◎上映日期 2013-07-19(美国)
% j5 N% S7 ~- e" ]◎IMDb评分  5.6/10 from 134,072 users! A2 ?6 M: u  ^. a! i) W
◎IMDb链接  https://www.imdb.com/title/tt0790736/6 x4 t; G3 r+ y. y
◎豆瓣评分 6.3/10 from 47,257 users$ f8 t  z. J1 y' d/ H4 `
◎豆瓣链接 https://movie.douban.com/subject/3264229/
- K$ o' f. U5 C◎文件格式 x264 + DTS  
3 K: G, N) I9 r$ M. ~( D# ?◎视频尺寸 1920 x 1080
, @  k8 g" O; ?- r3 e◎文件大小 1DVD 26.87 GiB; ]3 T$ O. H8 ]/ E& ~" m
◎片  长 1 h 35 min
2 ^- R: {+ I  q$ `◎导  演 罗伯特·斯文克 Robert Schwentke- C0 z1 `3 H$ N7 M/ z4 L; e( O3 T
◎编  剧 费尔·海伊 Phil Hay
7 J' i  h+ s; l/ c6 C  S- S. {. W       马特·曼弗莱迪  Matt Manfredi
/ s5 F0 ~. w! K( y6 `: M       皮特·M·列科夫 Peter M. Lenkov9 U, q3 J1 H# K5 l: z
◎演  员 瑞安·雷诺兹 Ryan Reynolds# l; }% W2 X4 e, X8 [
       杰夫·布里吉斯 Jeff Bridges
4 \, ]2 ]9 s+ C7 |       凯文·贝肯 Kevin Bacon5 B& N: e6 H" \6 N
       玛丽-露易丝·帕克 Mary-Louise Parker8 K* z/ \# b7 R" v( B5 `
       罗伯特·克耐普 Robert Knepper
/ Z2 N" {( W2 t$ K       吴汉章 James Hong- l& P" p; C3 n8 K. v& N
       迈克·奥麦利 Mike O'Malley% N5 h. m, |7 ^
       斯特芬妮·斯佐斯塔克 Stephanie Szostak% |) Z; S* f& a) R1 m
       派珀·麦肯锡·哈里斯 Piper Mackenzie Harris0 }) k5 y+ `! k( D
       玛丽莎·米勒 Marisa Miller
3 w0 X$ N- G# h# h) g7 U       迈克尔·陶 Michael Tow* K" i0 v* L" Y( q; z2 P1 X
       迈克·乔吉 Mike Judge9 [6 J0 B( D- x" g
       托比·哈斯 Toby Huss
: u/ F+ p/ D/ ~6 t2 ~7 ~1 u2 h       拉里·乔·坎贝尔 Larry Joe Campbell
+ @2 S) o" Z7 F/ O; r       戴文·雷特瑞 Devin Ratray% d' T# c7 b) B9 K# ^
       克里斯托弗·贝克 Christophe Beck1 u2 C/ D& \2 E) D& ]5 C
       大卫·R·艾里斯 David R. Ellis
# ~; e* H3 k  F' B! J5 j       麦克·冈瑟 Mike Gunther3 X6 `% |4 h8 e+ r+ N% N
! a9 O# m9 M6 E0 w: [; u4 n* l
◎标  签 美国 | 喜剧 | 动作 | 科幻 | 奇幻 | 犯罪 | 2013 | 魔幻
3 I* ^4 G5 k- h: V6 Y2 h+ `/ f2 @2 ]+ @) i
◎简  介   - l# ^# P4 s% T* b$ @/ {
9 z9 m. d6 L3 g9 V! P$ c# v
  青年警官尼克·克鲁兹(瑞安·雷诺兹 Ryan Reynolds 饰)思索再三,不愿和搭档巴比·海耶斯(凯文·贝肯 Kevin Bacon 饰)私吞毒贩的赃物黄金,结果在一次行动中被对方趁乱杀害。死后的尼克来到另一个世界,并受雇于冥界警局(R.I.P.D),其主要任务就是 追捕那些不愿接受死后审判而依靠伪装盘桓人间的死鬼。他的搭档是死于19世纪末的老头罗伊·鲍威尔(杰夫·布里吉斯 Jeff Bridges 饰)。罗伊作风粗犷,特立独行,这两个性格与风格上有着巨大差异的搭档跌跌撞撞展开行动。尼克在行动中发现死鬼们和海耶斯有着千丝万缕的关系,而在种种谜团背后隐藏着攸关世界命运的大阴谋。, ?; U5 S9 j2 ~- G7 L

) s2 @- t3 D: P( k% |  时间紧迫,尼克和罗伊必须尽最大可能阻止那个通天阴谋……. z% E& ~/ \6 Q( @/ g6 H
9 u. _( k( f3 C  y4 F
  A cop killed by his own partner joins RIPD, an afterlife law enforcement department working to apprehend various monsters disguised as humans living on earth, and gets paired up with a smart-mouthed veteran.
9 @  A) N$ U' f- |  S; K$ k2 D" H9 m+ z
R.I.P.D.2013.1080p.BluRayCD.REMUX.AVC.DTS-HD.MA.5.1-FGT
% i" L+ _8 i5 n7 |- K$ X
/ l- q) J& U; K# [% hVideo+ ~$ R6 \; U' C  V! O9 _
ID                                       : 19 B  |: u3 J) J) U) t' @
ID in the original source medium         : 4113 (0x1011)
" n- t. q0 n" b' w7 F& B7 zFormat                                   : AVC
% Q) X) A5 w4 \2 }6 J' i* |; yFormat/Info                              : Advanced Video Codec) ]6 B( v. l# \! X
Format profile                           : [email protected]; Z( Q6 Z0 @- z8 U' w
Format settings                          : CABAC / 4 Ref Frames
; ~: r! f; J8 B- x9 dFormat settings, CABAC                   : Yes' l, ]+ n$ H8 p: U9 t# \
Format settings, Reference frames        : 4 frames
* G: e5 q' H( c; QFormat settings, GOP                     : M=3, N=12
1 D' W- e: U0 c8 d3 N. k5 fCodec ID                                 : V_MPEG4/ISO/AVC
) j' ~$ x4 v1 r$ G8 n6 J: `5 _$ I( f3 gDuration                                 : 1 h 35 min
' `7 D0 S5 ~2 G- M1 v2 _( FBit rate mode                            : Variable
) i6 E/ v5 Z2 u. C5 V0 x  j1 k: Q6 ]5 PBit rate                                 : 29.8 Mb/s8 }+ i. y5 L) @7 H' L6 i6 Y
Maximum bit rate                         : 32.0 Mb/s
3 q- C) C0 G7 u) x8 D5 yWidth                                    : 1 920 pixels
" a3 r, @. U% ^% ]/ D( T/ f4 EHeight                                   : 1 080 pixels4 U2 J/ s; I# t4 A) ~
Display aspect ratio                     : 16:9( [  h4 F4 Y; r/ S
Frame rate mode                          : Constant
7 R* v% e5 N. o5 D; aFrame rate                               : 23.976 (24000/1001/189150) FPS
' [) Z, u1 y5 P) c/ N1 dColor space                              : YUV
& Y, x: q3 U7 T4 a; }7 d7 S* b! oChroma subsampling                       : 4:2:08 I$ v# }% J* i" i5 t
Bit depth                                : 8 bits
8 s( u# p) N7 w0 ?3 |" v! CScan type                                : Progressive. A) l) v) t- P! H
Bits/(Pixel*Frame)                       : 0.600
0 t; {% [1 [2 ~Stream size                              : 20.0 GiB (74%)
! o! l4 A; `7 W) z4 l7 oLanguage                                 : English' D& s( u: t' u! ^! T  ~: Y: m" m
Default                                  : No
; p$ b; w) R) b  GForced                                   : No
5 T: D2 c5 [" F- Y7 {0 f9 YOriginal source medium                   : Blu-ray/ x! m) r+ w: h5 x& M- W" M( K

- r/ u$ @3 t, q3 w1 f- B# c, {" ^Audio #1
1 t( X. |0 C! b: g& d- rID                                       : 2) C0 X3 L4 }* _1 ?6 ?1 U
ID in the original source medium         : 4352 (0x1100)
8 Y4 R$ r, z8 ~' IFormat                                   : DTS XLL
; I7 o; h2 @8 {Format/Info                              : Digital Theater Systems0 T: W) i, k* k+ g0 w( L+ e' U
Commercial name                          : DTS-HD Master Audio
" z/ @4 K- R6 V) L# o/ X) k2 J  _. }Codec ID                                 : A_DTS
5 j0 g1 `' S0 W! L( TDuration                                 : 1 h 35 min
; E* P8 o- e: B* {2 ~Bit rate mode                            : Variable
/ V& g( ^+ T# n6 s7 _8 pBit rate                                 : 3 927 kb/s
4 a; f0 o& j; n# ~Channel(s)                               : 6 channels
  S4 }7 F3 y, [! ~/ IChannel layout                           : C L R Ls Rs LFE% W0 e. N7 ~" p3 n2 b6 }# d  s
Sampling rate                            : 48.0 kHz
2 d5 m+ Z7 }/ e- w7 }* t3 EFrame rate                               : 93.750 FPS (512 SPF)
% T2 p7 z5 N  T8 ~" @( R2 SBit depth                                : 24 bits5 a* N9 p& @& r
Compression mode                         : Lossless
  [, b/ ?2 i, G) H5 v; i% E: ~! T! AStream size                              : 2.63 GiB (10%)  K0 [+ i, B  P6 z& n+ y; l; X
Title                                    : DTS-HD MA 5.1
, B3 Y: K7 Y! zLanguage                                 : English
. y' e6 q7 v3 G% j/ b/ ~: m) _6 lDefault                                  : Yes  K" e: c( |' p
Forced                                   : No
3 y: c, B. x! b* M3 U$ JOriginal source medium                   : Blu-ray0 q" W4 s6 O$ z
/ j9 ^0 l- m, u) }+ p7 O- Y8 H! R- C5 r
Audio #2  @6 K% ?3 R) A! t
ID                                       : 3
" z; f) Z/ x: R& I! v2 \: uID in the original source medium         : 4353 (0x1101)
+ R$ E  B; W  _3 o7 ~  TFormat                                   : DTS
9 M1 ]7 {! e5 R( [6 vFormat/Info                              : Digital Theater Systems
% c; ~, h! S  d# L+ XCodec ID                                 : A_DTS
" H. D8 y6 A9 I7 ~% [  [. s" x/ i# ]Duration                                 : 1 h 35 min
1 \4 ]2 _; t/ ]& h, M1 iBit rate mode                            : Constant
% f/ z' F8 U; o4 FBit rate                                 : 768 kb/s  ^: t( }7 i# }( i  x( I
Channel(s)                               : 6 channels
# K& \% {0 ~3 JChannel layout                           : C L R Ls Rs LFE+ M4 Z9 V, w- ?4 Z
Sampling rate                            : 48.0 kHz
" k* R  ]2 j* ^3 n- `5 iFrame rate                               : 93.750 FPS (512 SPF)
7 ?" _7 a$ b# o  I4 D! PBit depth                                : 24 bits0 U8 k. K( {4 F# K
Compression mode                         : Lossy1 e; @  |& y4 p8 W* V
Stream size                              : 526 MiB (2%)3 d. t6 {1 d! O, ^! g8 ~! r% z
Title                                    : DTS 5.1
( ]' X4 S: U) Q1 u; [! R# r& Q  F, K, {Language                                 : Portuguese
1 {  k; o1 v0 Y$ }/ F5 k* ?Default                                  : No4 d( |( ^5 N2 g, G4 G
Forced                                   : No
1 L, j1 A( P$ q( j" p8 ]( F" tOriginal source medium                   : Blu-ray8 M- r" d$ f5 Z

# M$ ~! r7 ^# p- b8 u: QAudio #34 m& @8 m. E9 s; q0 j2 Y
ID                                       : 4
/ D) M1 H. [7 t# |; @# HID in the original source medium         : 4354 (0x1102)
7 f+ U/ q0 z5 f/ TFormat                                   : DTS( ^" n1 f) B3 ]: e" G7 |
Format/Info                              : Digital Theater Systems4 q' ]5 c+ F0 a, t3 k+ M
Codec ID                                 : A_DTS
" k+ L4 B6 B+ b, b  C2 cDuration                                 : 1 h 35 min2 i7 `0 S8 `7 ~# k4 @* H
Bit rate mode                            : Constant
' C3 U: R5 ^) ~9 d- ]) y2 h$ jBit rate                                 : 768 kb/s/ I' h8 V: w+ p
Channel(s)                               : 6 channels
7 P8 k* F: @  KChannel layout                           : C L R Ls Rs LFE
( L7 p& X6 X7 ]2 ZSampling rate                            : 48.0 kHz
# k8 D: @9 X9 G" g" J; ]; J1 B  \Frame rate                               : 93.750 FPS (512 SPF)) S/ ~8 S& _* X2 C+ c& c
Bit depth                                : 24 bits# o) V, u) w' w3 B8 t& i" R$ O
Compression mode                         : Lossy
2 q) J! K2 A, {0 L, _: tStream size                              : 526 MiB (2%)
/ o, q* u( }1 GTitle                                    : DTS 5.1% @! y! t& I6 d9 Z; ]/ Z8 q( x
Language                                 : Czech, G; k& m) Y  H+ g) w5 s! C
Default                                  : No% M1 }% H: L/ Z6 M! G; r. B1 e
Forced                                   : No1 n( w" f0 H: M* w' K
Original source medium                   : Blu-ray+ S, \$ h6 H/ v) |4 [
* c# P5 w; l/ D$ ~4 d8 [8 {
Audio #4
6 k: q" g- S) f2 [ID                                       : 5
  A, O; C6 P( M- D9 z' ^; aID in the original source medium         : 4355 (0x1103)
7 q) a1 K1 v. W6 J+ qFormat                                   : DTS, c+ x8 n9 Q6 p- K4 ]
Format/Info                              : Digital Theater Systems$ p$ a) V2 A' B, Z) m& B7 Q. T
Codec ID                                 : A_DTS
9 J8 ^; i8 s0 ZDuration                                 : 1 h 35 min4 P6 T& K+ h- ]* ~) R; X
Bit rate mode                            : Constant4 X3 c2 x7 k; d* h; x! F% x
Bit rate                                 : 768 kb/s
# Q/ `2 z/ Z4 E2 N2 s9 kChannel(s)                               : 6 channels: s, {, R# w# n9 h& L8 G8 I
Channel layout                           : C L R Ls Rs LFE$ L# I" B1 c" F6 i1 p9 v
Sampling rate                            : 48.0 kHz! a0 C9 L" z8 M8 y9 r* T
Frame rate                               : 93.750 FPS (512 SPF)/ P6 m" j! i  \( W& f1 H% t
Bit depth                                : 24 bits
+ l# w# ^+ t* D* u: mCompression mode                         : Lossy, b( I$ y% Y% [" L, O
Stream size                              : 526 MiB (2%)7 F! F4 w. K1 h2 y" l5 }7 L
Title                                    : DTS 5.1
8 R( _! T9 W2 JLanguage                                 : Hungarian- }0 w6 T6 |% d) g- N0 ]
Default                                  : No! G- r' i: l, Q9 H( ?2 u
Forced                                   : No& H2 i% E1 E2 Z% {
Original source medium                   : Blu-ray
  z) t( ^4 D0 T9 S: T( z( h! X3 i. ~/ e
Audio #5) d' F. v. ^, V
ID                                       : 6
# G4 ], l4 }* b+ q  Q/ PID in the original source medium         : 4356 (0x1104)
! O+ B( Q% j6 g; N  UFormat                                   : DTS
3 Z& f: e: R( M- k" V, t, p% wFormat/Info                              : Digital Theater Systems# f7 ?9 j$ v1 B- p0 C# d
Codec ID                                 : A_DTS
: V  q% l# j) R4 q- UDuration                                 : 1 h 35 min( W9 O7 b  |0 k9 c
Bit rate mode                            : Constant
. H  z2 h5 l% n2 W* t0 vBit rate                                 : 768 kb/s
9 O, D. P$ _' ~6 k* vChannel(s)                               : 6 channels
+ D. v4 }8 V$ e) e3 tChannel layout                           : C L R Ls Rs LFE+ H, G- Q# y/ O5 h0 _' A: e6 [6 J' d
Sampling rate                            : 48.0 kHz
& `7 M) H( F; s- cFrame rate                               : 93.750 FPS (512 SPF)
, `! V2 F6 z3 \5 IBit depth                                : 24 bits3 s, u0 m1 G0 a  m" q/ P
Compression mode                         : Lossy
+ p% B& A# z5 P0 l% K: FStream size                              : 526 MiB (2%)
0 P3 p" _7 e& j$ v4 |! kTitle                                    : DTS 5.1
. n) G, D/ {' {: ZLanguage                                 : Spanish
0 t' z# ?! x0 t% F4 r0 H% oDefault                                  : No+ k: p/ V& ^2 w( s- P& K/ Y4 ]
Forced                                   : No- j1 H9 `" `$ k1 s  P; F1 d! ]5 Q' u
Original source medium                   : Blu-ray5 U4 Z! z9 |3 R+ Y1 E6 X, C
2 B3 \& j8 F0 J+ B
Audio #6
# x9 B4 ]$ j7 }) d7 A( Q$ l7 TID                                       : 7
4 j& K; D; T6 L3 c$ r! j1 R! TID in the original source medium         : 4357 (0x1105)1 @" `, F8 F2 C; h- e3 E
Format                                   : DTS
' _. E! c& z4 j' z- [Format/Info                              : Digital Theater Systems, i; Y% h9 F. e3 r6 E
Codec ID                                 : A_DTS/ X- ]; p# C0 s8 }) J1 u: e7 J
Duration                                 : 1 h 35 min2 O0 z& }* m8 Y$ s( d3 k1 D9 K
Bit rate mode                            : Constant
% f% L6 h6 k: @( D. k. Q; t) l  T2 VBit rate                                 : 768 kb/s
. b# C6 b1 x0 e0 ]" S: qChannel(s)                               : 6 channels! U+ y" X3 d+ r& a% A
Channel layout                           : C L R Ls Rs LFE) f9 d  P. S/ }0 J
Sampling rate                            : 48.0 kHz1 J2 O) ]( t" E/ z# n7 h8 N
Frame rate                               : 93.750 FPS (512 SPF)* \+ u' B3 D! H+ k4 j
Bit depth                                : 24 bits2 Y; x4 `' U& \4 ~; v0 e! M
Compression mode                         : Lossy5 m; w) q* x3 X6 _# o
Stream size                              : 526 MiB (2%)
* C# U7 j% b+ ]& VTitle                                    : DTS 5.13 Y$ ^! T. Y5 p
Language                                 : Polish. f9 |. e6 R7 Z- C$ T# {" m
Default                                  : No' V1 G! r2 u) E' S% ~
Forced                                   : No; m% O) N- j$ l9 K% q3 ?1 I
Original source medium                   : Blu-ray: S% I, R2 `6 D

. N$ G6 @9 x. D+ k  U* SAudio #76 Z; I; Y; V& x% }4 |
ID                                       : 8& U1 g% b$ F1 a$ H$ X* p
ID in the original source medium         : 4358 (0x1106)& `1 }( P5 `; h1 C# }$ L4 f2 R
Format                                   : DTS1 M8 [1 |+ F3 g$ S0 T
Format/Info                              : Digital Theater Systems
' L% ]5 y6 g8 [) A& x9 }Codec ID                                 : A_DTS
+ V" x1 G- A- A$ X2 bDuration                                 : 1 h 35 min0 j% P9 f, @* ?" [
Bit rate mode                            : Constant
! t' Y( d4 M1 T) JBit rate                                 : 768 kb/s
% X0 ^3 `+ W  Q+ ^, h- {Channel(s)                               : 6 channels8 j  P; W1 l5 J- _
Channel layout                           : C L R Ls Rs LFE* W' b7 F" d" L4 T/ x
Sampling rate                            : 48.0 kHz
+ G0 M; r* {- y1 S) C; K& B1 ]Frame rate                               : 93.750 FPS (512 SPF)
8 m8 V' [) g6 x  m$ aBit depth                                : 24 bits0 G- H9 N' }$ T) \
Compression mode                         : Lossy
" w# j$ `% B- d& nStream size                              : 526 MiB (2%)
7 J- ]* h7 a: }/ X. r9 eTitle                                    : DTS 5.10 Y/ O! `, d* T( j
Language                                 : Russian
8 y! ]; P( C1 i) LDefault                                  : No" J' I2 C* F. V& A# @1 ^
Forced                                   : No
% g  n: E9 A1 O% N9 U8 S; b1 cOriginal source medium                   : Blu-ray- ]* \6 e! ^- _+ P
" _8 f+ o' {0 q8 ~5 y) U! a2 d
Audio #8
0 K/ ~, S* T9 x# N8 t7 E' H" vID                                       : 95 f, h# J6 ^+ y. v; ]( Y
ID in the original source medium         : 4359 (0x1107)  \2 k9 ]  e) _
Format                                   : DTS
4 i& l% |) i1 H! h4 X, I2 LFormat/Info                              : Digital Theater Systems$ |7 q4 n+ K4 `, T4 D& Q
Codec ID                                 : A_DTS
' q! F. i! f. t& Z) }$ dDuration                                 : 1 h 35 min0 e, x+ S8 w$ E' l" p/ h+ T3 w
Bit rate mode                            : Constant
  w/ v9 T1 }! C2 G- T1 nBit rate                                 : 768 kb/s
2 r# U/ k1 P' B5 d9 MChannel(s)                               : 6 channels; @4 i/ i( j6 q) ~
Channel layout                           : C L R Ls Rs LFE
# n  q; s/ O4 f: `+ w* D, K: k& ISampling rate                            : 48.0 kHz/ w5 y# W# ?; o6 J
Frame rate                               : 93.750 FPS (512 SPF), |1 B/ v1 N7 H
Bit depth                                : 24 bits
) w0 g: P& L6 O& f" @' }: KCompression mode                         : Lossy
% I, H3 C# A: y) G/ j, u9 w3 bStream size                              : 526 MiB (2%)" K* b5 t- N5 ~' R
Title                                    : DTS 5.1
7 M' \) F6 z# E) h1 wLanguage                                 : Thai
$ L6 }7 o+ g8 _Default                                  : No$ _; @  H0 ~4 _7 b6 y/ A
Forced                                   : No! N! C' v1 d+ t$ z  z( o5 q  Z
Original source medium                   : Blu-ray/ @# q& a; Z8 T3 n* u

3 q  G% p) _" ~4 f- g7 j& lAudio #9
% U% \: G# ^! a' ~# Z7 {! VID                                       : 10
1 B: z: p! y2 D2 `7 Z0 LID in the original source medium         : 4360 (0x1108)$ p3 {. J. G! ]; k3 Y2 h$ i7 Q
Format                                   : DTS
. h4 T2 X5 D  M4 C& W# Q' b0 vFormat/Info                              : Digital Theater Systems* u6 r2 }' Y9 o; \, u8 V
Codec ID                                 : A_DTS
+ d: b0 [& _6 \6 k* Y+ [Duration                                 : 1 h 35 min' c' p9 I/ {; R: O6 c* `" v: p/ Q
Bit rate mode                            : Constant4 ~  T, _# A' E% d
Bit rate                                 : 768 kb/s4 |. C( h# r, r7 p; C* M
Channel(s)                               : 6 channels
: ?# r$ n2 c1 Y: `! S6 }* A9 dChannel layout                           : C L R Ls Rs LFE7 t( z, ^! q9 f) r9 Y: Z# c/ R
Sampling rate                            : 48.0 kHz1 |$ F. A; F6 [- R5 v( `
Frame rate                               : 93.750 FPS (512 SPF)7 X$ ?& _2 l- W+ n6 E3 m9 Q& E
Bit depth                                : 24 bits4 {% [2 Z0 T  l/ @8 F! l$ N
Compression mode                         : Lossy4 O0 r' K) J/ P' n9 Q
Stream size                              : 526 MiB (2%)
2 Z! t# M+ E; d$ Y* b& KTitle                                    : DTS 5.1' j9 W: F2 W' K7 `( p5 H9 H+ l
Language                                 : Turkish) Y2 s9 n3 r( n2 X+ h* v
Default                                  : No
1 w: ^2 i# C/ K6 J# D! OForced                                   : No# B1 N2 U& y6 b. B8 u
Original source medium                   : Blu-ray
+ c- B1 U) @* \7 j3 n/ e3 p6 _0 i$ X4 O
Text #1. \& l6 [( F/ N) x4 E' h
ID                                       : 113 A  F0 l8 F% X& W- F& S# ~
Format                                   : UTF-84 A& J1 T' m9 L7 y& w
Codec ID                                 : S_TEXT/UTF89 u* Z& o( n5 U2 X5 n9 {" F$ i
Codec ID/Info                            : UTF-8 Plain Text
" P. k5 d  l  T0 P, R0 LDuration                                 : 1 h 26 min
9 }4 E& r6 d7 ^. L7 |6 Q8 V* H3 yBit rate                                 : 57 b/s8 |! ?6 ?- O* a" F6 _+ Z% S7 G
Frame rate                               : 0.233 FPS5 [2 L: C/ M. w/ d9 E+ Z& b
Count of elements                        : 1214" \' y0 h. F8 z4 \  `$ q; L
Stream size                              : 36.5 KiB (0%)
* r9 M" E( y6 D: U6 r4 vLanguage                                 : English/ v- T  F) M5 A6 {# ]
Default                                  : Yes9 N+ Z& L& |5 S' A, k! P
Forced                                   : No
$ V3 ~+ g+ q7 V! V7 W. ?3 n7 Q3 j+ [; E
1 \' ?7 y6 {$ z7 `Text #2
5 ]/ d5 L& h( h' N8 L/ mID                                       : 12
+ f- q; \: u0 \8 d1 X3 P$ b! SFormat                                   : UTF-8' n. j" J; r9 X0 {
Codec ID                                 : S_TEXT/UTF8; l) r5 {! O" M
Codec ID/Info                            : UTF-8 Plain Text
8 v' p& F- J+ g6 S# m' BDuration                                 : 1 h 26 min
$ Q' I3 v% m3 x" X( e, Q. D6 J! zBit rate                                 : 61 b/s
) x0 M3 _4 ]- {- T9 E0 ^5 Z0 J" |Frame rate                               : 0.263 FPS4 Q& s1 E+ V7 Y1 K
Count of elements                        : 13700 T9 x3 G: k$ E' W
Stream size                              : 38.8 KiB (0%)$ P# B$ m: r/ t) A2 O8 F' H
Title                                    : SDH
# x6 |: Q4 y" j. s( }' y5 tLanguage                                 : English
4 l3 x7 q6 Q6 P; Q4 U+ g! r- CDefault                                  : No& s6 b2 v8 m) d9 S
Forced                                   : No' X2 `4 v7 j7 T# n; c& c- \

5 T7 Q0 K& k! O- E* FText #3
0 ~$ ?6 v7 r! U0 uID                                       : 13! @6 S' U  @0 y" j! a0 U
ID in the original source medium         : 4608 (0x1200)" w; q  o2 O! j8 B* b* w5 d
Format                                   : PGS
/ P% @( x1 ?3 pMuxing mode                              : zlib, s# X) a+ }' ^7 [; c; }1 N
Codec ID                                 : S_HDMV/PGS5 Y7 C* o8 l/ c' d( m5 y1 l
Codec ID/Info                            : Picture based subtitle format used on BDs/HD-DVDs  x* j' o' c4 X; t  c# J
Duration                                 : 1 h 26 min0 P1 y6 \  P) m2 J5 T. b
Bit rate                                 : 42.1 kb/s* ]2 K8 O2 ?8 k( L  z. p3 L
Frame rate                               : 0.534 FPS8 Z" ^5 m. Z! K0 _; h- e# w( }! f
Count of elements                        : 2778
0 q$ M. z4 }1 p+ ~( g: ]) V3 {Stream size                              : 26.1 MiB (0%)3 C7 R! q! r( F7 x4 z
Language                                 : English* P$ R% M1 n5 G4 W. P5 `2 A
Default                                  : No( y3 B( ?; y9 t1 R
Forced                                   : No
. R! ~8 {# N- s# cOriginal source medium                   : Blu-ray7 f9 a- J& B4 e3 q
+ F6 R( ~: ]! m4 ^1 A
Text #4& F. Z3 B! Q( S4 \. y) Y
ID                                       : 14/ f$ |5 e8 [4 F0 j# t' ]
ID in the original source medium         : 4609 (0x1201)) c9 ^4 i: r+ i
Format                                   : PGS
, X9 B9 G* }  I( Z5 l# DMuxing mode                              : zlib& [. n: J$ N7 Q7 U; C
Codec ID                                 : S_HDMV/PGS
1 V9 k: U0 _% {Codec ID/Info                            : Picture based subtitle format used on BDs/HD-DVDs
0 C+ g- \2 j8 O; v6 F7 K5 NDuration                                 : 1 h 35 min
% O: M$ [  k5 @. O" D) _2 jBit rate                                 : 28.0 kb/s) s" V/ [$ @6 A: E
Frame rate                               : 0.412 FPS
$ `% ~. t) }. @) w- b/ sCount of elements                        : 2355, ^* j* s6 W4 F& {3 f, c
Stream size                              : 19.1 MiB (0%)
3 R& H5 g- q5 K. s' h% `Language                                 : Portuguese
0 c& q8 m6 h$ q7 yDefault                                  : No
4 a( g8 P# ]% g5 p# t6 sForced                                   : No+ Q  j6 X* ?8 u( g4 s  ^3 r  ?1 M4 @
Original source medium                   : Blu-ray
. n/ z- d2 k; Y. j+ E
' `& }! J1 Q/ ^' I( D  b8 L" bText #5, Z/ S9 a9 _: I) V. X
ID                                       : 15+ W0 T* `  D' |8 c) w6 ?+ E% |& d
ID in the original source medium         : 4610 (0x1202)% `/ Y+ X% `: C/ x' C" m5 g
Format                                   : PGS
. o* Z) G/ t( x) y& G* DMuxing mode                              : zlib
4 |/ K. G3 G, T+ c6 ZCodec ID                                 : S_HDMV/PGS. n" K' g9 ^; g; `# W
Codec ID/Info                            : Picture based subtitle format used on BDs/HD-DVDs
" ^- G, ~/ O  C" ~: \' b1 c5 @  yDuration                                 : 1 h 35 min7 }  q) Y' `* y. ?6 q
Bit rate                                 : 28.2 kb/s
& Q1 _9 }' L6 @4 K- l" \Frame rate                               : 0.309 FPS- G& h( k& l8 U- y& j/ p/ o- B. h
Count of elements                        : 1768: ~9 B1 B% R* s
Stream size                              : 19.2 MiB (0%)
% F2 P* L; U# _$ O! nLanguage                                 : Czech
" Z2 K- a; i" V7 xDefault                                  : No
# P9 K$ d+ Q# w, w. q( v# O1 P2 {Forced                                   : No0 m( w5 V; m* w2 J$ Z& h
Original source medium                   : Blu-ray" @" W* X; m0 c; p8 s! W

, p8 z& g- Q0 T3 |" P1 `Text #68 J6 L8 k& c3 U
ID                                       : 16
6 S* ]. w6 R+ F  |, A0 jID in the original source medium         : 4611 (0x1203)% ?0 G+ g' n; @3 U# Y" B
Format                                   : PGS' L% k) E) h) S7 s
Muxing mode                              : zlib9 G; t* h1 @. p7 l
Codec ID                                 : S_HDMV/PGS9 l' ?7 ~7 y/ u
Codec ID/Info                            : Picture based subtitle format used on BDs/HD-DVDs: R' u$ k* K* r* ?
Duration                                 : 1 h 26 min+ K+ m# ?1 O9 M/ Y
Bit rate                                 : 34.0 kb/s
! _% G4 `3 j& T, Y+ L, `$ o4 {2 G8 gFrame rate                               : 0.452 FPS( g# O9 q4 G& ]  c
Count of elements                        : 23549 a4 Z9 q9 Y. y
Stream size                              : 21.1 MiB (0%)
% @, ~9 @2 L6 b4 F3 S2 L. X! d7 KLanguage                                 : Hungarian  H3 Q% G2 \* a. ~, Z, U+ S# Q7 T
Default                                  : No
3 `/ v8 n/ D% x0 I6 U- c; sForced                                   : No3 m9 F- B3 O% }: }! l
Original source medium                   : Blu-ray  B/ C: U2 p' m' H& S

" v2 G- d% k/ _% w# m3 @Text #7
8 j& [3 q0 [/ S7 UID                                       : 17. v( C1 I5 Z' k& r: E5 A
ID in the original source medium         : 4612 (0x1204), G1 n( q4 e) \# {% p. j3 F
Format                                   : PGS
6 o& G0 _1 s7 a/ X# HMuxing mode                              : zlib
2 x- x5 I; }7 I* |3 B! r  t: X( aCodec ID                                 : S_HDMV/PGS& Y( C+ _- u- U: k4 x
Codec ID/Info                            : Picture based subtitle format used on BDs/HD-DVDs! P' x! b& m! e2 I" n2 f: y
Duration                                 : 1 h 26 min
1 r9 u* k* [, W  OBit rate                                 : 33.2 kb/s8 G  W& s( q9 u' n( f; V; ?
Frame rate                               : 0.452 FPS
) g  ?% D1 k! V$ \$ l6 s+ RCount of elements                        : 2354. G$ @9 [9 W: }* c
Stream size                              : 20.6 MiB (0%): v3 s5 ]# j' s% S  I
Language                                 : Spanish) O" Q3 z3 X7 m$ e9 S4 A
Default                                  : No$ ~' h4 a3 U% O& U- ^' k9 o/ E
Forced                                   : No+ s) l! ^6 f1 R  E( U% T  Q; }
Original source medium                   : Blu-ray
; B& i7 a  [, ]5 K
# K9 Q  @( O- NText #8
4 _- q8 X  w8 ?ID                                       : 18
+ R: ]: w6 \( u6 F1 t& xID in the original source medium         : 4613 (0x1205)
/ C) T& ]7 F( |2 ^5 eFormat                                   : PGS, H; a. e+ D  J
Muxing mode                              : zlib
3 v) _- r# I5 n7 A7 }( t; UCodec ID                                 : S_HDMV/PGS
' [# M/ a, S# a' \Codec ID/Info                            : Picture based subtitle format used on BDs/HD-DVDs
$ b) r9 u! b  ^+ l/ A4 }( ^* ?" L* CDuration                                 : 1 h 35 min
! H0 |! p0 a5 l6 d1 rBit rate                                 : 28.7 kb/s
' ?. Y3 W+ Y: WFrame rate                               : 0.405 FPS
" \, \7 A7 R; U; O: WCount of elements                        : 2317
0 R7 u: g) H0 D" A8 g4 u  W$ rStream size                              : 19.6 MiB (0%)$ W  I0 W: b' P& g- K7 ~; T
Language                                 : Polish
* Y) v5 E, `/ V( A, f. L* W2 p0 W% eDefault                                  : No3 J: y* B# D& y/ F- B, f
Forced                                   : No- Y5 T! |9 t0 I$ R' v* J* L
Original source medium                   : Blu-ray
5 I; {( \3 J& F- c
! H" y& S" P1 i+ t6 VText #9
: M$ \" Z8 `7 V# MID                                       : 19
# I5 ^+ U" g: SID in the original source medium         : 4614 (0x1206)( B% V! b, A  X
Format                                   : PGS
. f0 G8 H, M2 I. NMuxing mode                              : zlib  N- Q5 b9 I2 Q
Codec ID                                 : S_HDMV/PGS
" \' ~! \* O" X7 {2 d8 Y3 VCodec ID/Info                            : Picture based subtitle format used on BDs/HD-DVDs
$ Y! F( k7 k! b- mDuration                                 : 1 h 26 min/ E. r7 S3 N" @3 P5 S
Bit rate                                 : 35.8 kb/s
+ _( B- r0 ~. Q( bFrame rate                               : 0.453 FPS
; I$ ]0 _- Z9 g/ k+ w0 @Count of elements                        : 23561 }  A3 B' _% }! Q5 _* U, @
Stream size                              : 22.2 MiB (0%)0 i5 b# D2 B& Z; D, A$ Z
Language                                 : Russian* z0 b1 R; i0 g# L7 A! x* P! G" d
Default                                  : No
7 p/ ?( I3 ]1 `. k6 p! t% M" f# _Forced                                   : No
$ x3 G- P# B; [4 D2 S) i) GOriginal source medium                   : Blu-ray" U; R4 ~3 G# X6 k
: t3 V$ N5 n% R' `: W0 o* n
Text #10
; ?& n% O% l1 o4 p* F9 CID                                       : 20
" n5 Z8 n! G5 ?4 A& [ID in the original source medium         : 4615 (0x1207)
% b% P, Q5 Z$ r& C3 DFormat                                   : PGS
: c# y  B& T* d* R3 J$ B4 pMuxing mode                              : zlib
' n7 s6 ]( k6 R/ I; @Codec ID                                 : S_HDMV/PGS% h* ]. l5 K* ]+ D' D" J5 @% K
Codec ID/Info                            : Picture based subtitle format used on BDs/HD-DVDs
$ H* s  B7 T* r7 B+ yDuration                                 : 1 h 26 min
) V) ~- Y6 i8 w8 EBit rate                                 : 26.9 kb/s
* V* F& Z- w5 w% q/ aFrame rate                               : 0.450 FPS
+ l2 ~# M! n; T* T/ R# aCount of elements                        : 2344% y/ o7 h* G% p$ ]& X+ O* W; R
Stream size                              : 16.7 MiB (0%), M& L, [. y- D' E& L
Language                                 : Thai. @+ y7 J& Z3 t2 B
Default                                  : No  _: R' c0 O6 ]6 ^2 ]3 ~5 }
Forced                                   : No2 f0 _5 y& o  R: C. d
Original source medium                   : Blu-ray3 l. Q2 S: i' M  }% Q5 F

3 C% s8 ^( \# ]2 {Text #11
0 P: J5 A' R- v: P. `$ wID                                       : 21
" S% I. T; ^, _2 nID in the original source medium         : 4616 (0x1208)
" _# `* A' N/ ~: WFormat                                   : PGS! e1 [3 M2 n1 [6 |2 f! O) |
Muxing mode                              : zlib
7 V6 o+ g, |- q% Q$ d) E# x5 vCodec ID                                 : S_HDMV/PGS
2 D8 E2 q4 ^7 y( P% K1 _" hCodec ID/Info                            : Picture based subtitle format used on BDs/HD-DVDs
+ \8 Y; Q% z9 F1 Y" |Duration                                 : 1 h 28 min" f& @/ b" M4 h
Bit rate                                 : 36.9 kb/s# g6 @. Q4 X, X: G% y/ _3 L
Frame rate                               : 0.448 FPS) b& S0 m+ V! A+ x, D
Count of elements                        : 2368
; e3 X8 C( A: I, {+ _Stream size                              : 23.2 MiB (0%)7 p1 A% j; i9 X" z2 `+ T
Language                                 : Turkish
5 j+ O* a! b* GDefault                                  : No
  S; Q3 s* b2 x+ g: `( I% BForced                                   : No
' ~6 J/ w7 C4 `Original source medium                   : Blu-ray
' n; O, ?" z5 l, U+ ?  [
0 i. N3 p# n6 _' c3 M' v  `( @Text #122 c( N8 {+ \4 u0 R+ {2 D
ID                                       : 22
1 B( q7 w4 L8 K/ `  ~9 aID in the original source medium         : 4617 (0x1209)
, g$ C: M1 ~  D5 M- `6 r" tFormat                                   : PGS
- x: a1 e" E0 DMuxing mode                              : zlib
: k4 r6 v3 ]. lCodec ID                                 : S_HDMV/PGS: J6 C/ B1 Y2 _3 B5 X
Codec ID/Info                            : Picture based subtitle format used on BDs/HD-DVDs
" G% S" T# Q! ^- b  {4 `, \Duration                                 : 1 h 28 min
7 c5 q  I' |4 S$ NBit rate                                 : 29.5 kb/s
8 I7 @- z& E; E/ S! w$ AFrame rate                               : 0.343 FPS
  d* \, N$ \5 X( r2 u) a" g  tCount of elements                        : 1813/ s9 K! N2 H% h+ A; r
Stream size                              : 18.6 MiB (0%)
* g: `& W* M6 ?( _* b. oLanguage                                 : Bulgarian( u5 s8 Q+ T; h1 j5 H6 l: R
Default                                  : No
7 D+ s3 E+ C$ {7 M; d& wForced                                   : No
! g2 u% {9 S, m8 w- DOriginal source medium                   : Blu-ray" \2 V/ \& w- X! p
0 s4 u8 X) z2 @
Text #13
. D% a- ~! T( C& BID                                       : 23
0 U8 q8 f% N! t$ J! QID in the original source medium         : 4618 (0x120A)( c3 ~: z& L9 ^+ N' @: o9 t1 G
Format                                   : PGS- b( D( y4 N1 [' y: c  k8 }, G" x
Muxing mode                              : zlib
5 R5 B7 W5 ~  c+ o  v  h( h) L$ Q' WCodec ID                                 : S_HDMV/PGS
" T) q- I' r. E; X# m. U0 uCodec ID/Info                            : Picture based subtitle format used on BDs/HD-DVDs
1 ]) M8 J. V& B; w6 uDuration                                 : 1 h 28 min
% S+ Y" a4 g. `  GBit rate                                 : 23.8 kb/s
8 j( l4 {/ }' E5 x4 T% K3 B0 CFrame rate                               : 0.441 FPS8 z/ g( b9 Z: T) B+ q
Count of elements                        : 23339 L9 V* M; B) u/ w! v
Stream size                              : 15.0 MiB (0%)
1 i% d2 Y. v6 i( R8 SLanguage                                 : Chinese
) C* p/ L5 ]  v! NDefault                                  : No
. S* \8 a& {  uForced                                   : No- e6 K7 x: P, \7 d+ x
Original source medium                   : Blu-ray
. c$ L1 F9 \( u& O  L8 |! y: m2 g8 I5 d
Text #143 H0 G5 |" E3 u1 }8 e; C
ID                                       : 24
7 p- Y) A4 P% h  p. S, R# AID in the original source medium         : 4619 (0x120B)2 s8 L9 Y. D# }7 z9 t# c' L
Format                                   : PGS
1 Z1 R8 C% c/ u6 q* ~' o" MMuxing mode                              : zlib
" ]! s$ B6 y! W0 Q& y4 p+ M$ y+ J' ~Codec ID                                 : S_HDMV/PGS5 b' H: O1 y# }6 |# F
Codec ID/Info                            : Picture based subtitle format used on BDs/HD-DVDs8 h* X9 c! r+ `5 e6 ?, e
Duration                                 : 1 h 35 min
' o4 p' o1 ~' s8 gBit rate                                 : 28.5 kb/s
8 {. Y- g0 Q2 U7 SFrame rate                               : 0.410 FPS: a& M% e# K, h2 g9 P- P
Count of elements                        : 2342
- f4 T6 O- E2 @& E$ Z, F* FStream size                              : 19.4 MiB (0%)7 D! W% Q0 T+ Y  M: ^2 p% A
Language                                 : Croatian
5 g5 \, \3 f0 C8 SDefault                                  : No
: Z6 n& K/ {, h1 T" Z1 }Forced                                   : No
/ T; }: a6 J" D8 r2 t" w  b! x, t8 l, gOriginal source medium                   : Blu-ray
) C( \3 j, f% d7 x. e$ P; }6 E8 E! C* B- I% E+ Y
Text #158 m7 Y. m' h& Z
ID                                       : 25
8 g8 K. r- g) rID in the original source medium         : 4620 (0x120C)
0 m% E! j% ^; s% U( u9 {8 OFormat                                   : PGS2 `, i5 k. {$ m7 A' N% E+ r4 v3 W
Muxing mode                              : zlib3 M- t3 L2 r1 d# v1 |) y0 @% O
Codec ID                                 : S_HDMV/PGS- k( r, I' V$ `  i4 k- g0 f
Codec ID/Info                            : Picture based subtitle format used on BDs/HD-DVDs
4 l! f: ~8 P' l: U7 i) e9 q( ~Duration                                 : 1 h 26 min9 @- a; @7 t* K$ p
Bit rate                                 : 39.1 kb/s
! M! n' ~+ H$ R1 i+ Q0 Y3 _Frame rate                               : 0.452 FPS
5 H" ^( x* @2 G) HCount of elements                        : 2354
  j; e5 B" q1 F+ B- l* H# s+ oStream size                              : 24.3 MiB (0%)4 Y9 x: m3 s( c, j" w' x* X" }
Language                                 : Greek
" y, L" P; ?8 ~% x8 hDefault                                  : No
8 T* j7 b+ ~; V& g5 ^Forced                                   : No
% x6 g8 r$ c" OOriginal source medium                   : Blu-ray2 T. w; |: N7 V. \

% S, C& x* y* `- Y5 X: e# zText #16% w* _+ w7 e1 M- z! R6 ~* S
ID                                       : 26
' b$ Z9 l$ I' `: v2 O2 AID in the original source medium         : 4621 (0x120D)
* J$ B* `  E7 l# }& `5 TFormat                                   : PGS4 X- p* W% C- ~$ R
Muxing mode                              : zlib3 [/ f  `8 t* x/ O6 r- D
Codec ID                                 : S_HDMV/PGS
  \3 v1 r9 c: ~Codec ID/Info                            : Picture based subtitle format used on BDs/HD-DVDs$ \2 n& v# z3 a8 F6 E8 h3 Q) {
Duration                                 : 1 h 26 min
6 x5 w/ I' _" }  r  lBit rate                                 : 24.4 kb/s
  i9 X# K; G6 X. DFrame rate                               : 0.453 FPS
, j4 [5 a9 C+ ~1 T1 o3 {Count of elements                        : 2356& x% }7 |. I8 Z( L( G! v
Stream size                              : 15.1 MiB (0%)
2 O- t) J/ _) G% uLanguage                                 : Hebrew! B' a0 O8 ~7 _3 ]( @& ?
Default                                  : No8 v* s) ^4 H& T$ S9 R
Forced                                   : No) i" f3 ~$ N& [: b/ y) Y7 c
Original source medium                   : Blu-ray/ V& D4 X, G9 e4 p& Z5 R( m
9 V: @: ?! r0 x- C. Y
Text #17+ x  G$ h( P3 l, {* f: k, b5 o
ID                                       : 27
7 L& a* W/ R# y! Z; `ID in the original source medium         : 4622 (0x120E)9 V& l# K* O: o2 U' s) w! d
Format                                   : PGS
5 Q9 U1 t6 s8 V+ a, y/ P8 lMuxing mode                              : zlib6 Q& L, `  X; q$ i3 u; [
Codec ID                                 : S_HDMV/PGS8 L+ K0 `0 I) w% w* s- E% r+ `6 p
Codec ID/Info                            : Picture based subtitle format used on BDs/HD-DVDs
- j- L, W+ w+ J7 ^9 j0 \6 {Duration                                 : 1 h 26 min, D, D* z! d& Y1 v$ p
Bit rate                                 : 20.2 kb/s  ^2 h- r8 H6 v$ q, s5 B9 y
Frame rate                               : 0.430 FPS) Q  ?2 \& P- Y' W; W' |: Y0 B
Count of elements                        : 2237
8 J; r1 N- J6 r1 t( ]9 |Stream size                              : 12.6 MiB (0%)
: g# S% O& j% I( MLanguage                                 : Korean0 Q3 Y! H" i0 Q) l  e! C' o
Default                                  : No
8 J+ w' o% z4 V# |6 SForced                                   : No. f% y. L( S. Y9 l( d8 n# F% x4 i
Original source medium                   : Blu-ray8 u, d/ K/ \3 c' Y; D

- ?# [9 v: \+ F2 L" a; f8 [Text #188 L% A* O5 F2 r8 M
ID                                       : 28
; {$ X1 \. o$ r& x( u$ eID in the original source medium         : 4623 (0x120F)
$ X' m# e9 ?: y* E4 D4 U% y8 y. tFormat                                   : PGS
/ n  ]" _; o5 i1 S' xMuxing mode                              : zlib# e, O/ m6 I# Z; q! T  X
Codec ID                                 : S_HDMV/PGS# ]0 G$ K, v8 E
Codec ID/Info                            : Picture based subtitle format used on BDs/HD-DVDs& b0 J+ L+ p1 p# T) w9 a8 b
Duration                                 : 1 h 28 min  ?! `% f* i7 {, o1 v6 v, s, X8 d/ ?
Bit rate                                 : 30.4 kb/s
1 A7 |) D4 Y: ?9 TFrame rate                               : 0.441 FPS
8 Z- B% k% u( ?1 b7 F3 XCount of elements                        : 23316 i& D9 U" A% W( _! r8 f5 f
Stream size                              : 19.2 MiB (0%)% B, a# N+ E6 b6 q0 {) A
Language                                 : Romanian3 {, s, ]) H) m5 M* B
Default                                  : No3 O- l4 J& x  S) u) y5 x5 I
Forced                                   : No
# V1 s2 t% x0 R( O8 M7 b6 COriginal source medium                   : Blu-ray; n( Q2 E* x3 E1 I0 o' z: q9 `
" }' u4 o! B' w& B- A; ~7 f
Text #19
9 P* K; S7 p3 nID                                       : 29  u, [5 L9 y7 h# |9 Z% g) l
ID in the original source medium         : 4624 (0x1210)" b' o  S) y  E0 W
Format                                   : PGS
7 v" z: [3 a" Y5 Z4 YMuxing mode                              : zlib
9 \8 `( D: ]2 Y8 r7 a- YCodec ID                                 : S_HDMV/PGS
0 ]/ |" s4 d( w6 g# O8 S  u. uCodec ID/Info                            : Picture based subtitle format used on BDs/HD-DVDs
( k9 X& q) Q4 O$ uDuration                                 : 1 h 35 min
' t. ?( e! f' b1 A) `, y: J! ?Bit rate                                 : 26.3 kb/s+ M- U) g" d% y/ l
Frame rate                               : 0.426 FPS
3 U$ b) b1 \9 H, G9 rCount of elements                        : 24336 F% c: u3 B) _  N7 k! J; i# ]
Stream size                              : 17.9 MiB (0%)' Y5 \( n9 i% p% c& g8 b* R
Language                                 : Chinese
/ D. a& i% r1 j5 e. HDefault                                  : No. O. o2 `" R# L: D" I1 {
Forced                                   : No
% l  r& `* _" R+ O5 C0 V* rOriginal source medium                   : Blu-ray
1 y5 I9 X2 r; \' q
( l. i4 u6 W% G( s3 `Text #207 A% w4 R; [- q1 c! x9 H3 d
ID                                       : 30
/ N' O' K' D7 @2 _ID in the original source medium         : 4625 (0x1211)+ J, G, x# m1 `8 C
Format                                   : PGS
2 j# S( E4 j) c' ^Muxing mode                              : zlib, e$ `6 Y% _3 o2 r* ^! f
Codec ID                                 : S_HDMV/PGS8 r4 [, n" t. ~
Codec ID/Info                            : Picture based subtitle format used on BDs/HD-DVDs8 d/ ^' x7 M* b& I0 ]0 w" \* {% ~. k( d
Duration                                 : 1 h 28 min; c4 `) ~2 q! M+ e6 @
Bit rate                                 : 31.0 kb/s
& G" f  ^8 _; Y9 }8 s  a/ SFrame rate                               : 0.447 FPS5 i: _/ a- o% @  y+ G* v6 j+ n0 \
Count of elements                        : 2362
3 b0 F& N+ s8 V9 DStream size                              : 19.6 MiB (0%)* \: V7 U2 {: X
Language                                 : Chinese) t2 l: v+ O! t- H1 Y( w" {; H9 Q
Default                                  : No7 P7 w$ D* R! N! ?: N8 z# ~
Forced                                   : No! w& q* q0 i7 L3 W5 |
Original source medium                   : Blu-ray
$ f$ R# J. o4 O' u2 Y0 x+ E. ~7 k
9 X! u3 ]% V& a9 V, F( [) sText #213 X! l# n& x+ r- w+ B
ID                                       : 31
% q6 @$ l  c) i' C5 X. B$ O; fID in the original source medium         : 4626 (0x1212)
* B. Q0 j& |* |& v$ HFormat                                   : PGS; X& ^$ y+ |1 f; i% W
Muxing mode                              : zlib4 u5 s0 r$ K4 ?  Y3 a5 ]" @
Codec ID                                 : S_HDMV/PGS6 k$ K; t2 o% x3 z/ q0 c* _
Codec ID/Info                            : Picture based subtitle format used on BDs/HD-DVDs3 L& r# E1 e. |
Duration                                 : 1 h 26 min
4 t% ~5 a% P$ d4 j, o7 J: dBit rate                                 : 34.6 kb/s! v; o4 |, i) o, R8 C& j' I- i
Frame rate                               : 0.452 FPS* Y& u( z% s  b$ w% s! c* ~# E
Count of elements                        : 2354$ o+ M' c  W, Q3 R2 [
Stream size                              : 21.5 MiB (0%)) c! i9 A& D" C4 O
Language                                 : Estonian
! Y$ y& {, S  ~3 b2 t, PDefault                                  : No
' d% G$ g$ D$ uForced                                   : No" T. w) O. K& z$ J; q2 _3 R1 `
Original source medium                   : Blu-ray
, e) g6 K( V% u% a
$ Q) L- {2 e* h9 d7 j. ZText #222 A  k" O6 i! S& c2 A  |
ID                                       : 32
- q4 l4 A) H* F& \ID in the original source medium         : 4627 (0x1213)
9 L, T( v0 s" i, o1 G  wFormat                                   : PGS
: ^' g+ h* T! Y! _Muxing mode                              : zlib
- C! e4 Z! d/ Z# U, q) @# \Codec ID                                 : S_HDMV/PGS
5 R$ R7 s3 {. CCodec ID/Info                            : Picture based subtitle format used on BDs/HD-DVDs6 Y+ u3 l6 p  S3 p, V+ A
Duration                                 : 1 h 26 min3 K! C0 [" Y7 l2 C/ [) N/ \  y' g. I
Bit rate                                 : 33.3 kb/s) @: x2 j. Z& p
Frame rate                               : 0.452 FPS
0 `5 B/ B1 y/ U, n$ R5 ^Count of elements                        : 23520 V# Y) f* j: }* H# s' c
Stream size                              : 20.7 MiB (0%)
9 N' m& {" ~3 X7 q6 Y* CLanguage                                 : Latvian
5 O9 I2 o) U1 YDefault                                  : No: J3 Q; m! M: C8 K
Forced                                   : No0 [, g' s6 n. n# b
Original source medium                   : Blu-ray
/ b- I& A9 {9 E1 P; o) N, s
2 d9 f; k' q4 m# x3 H$ nText #234 z, @8 [  h- p0 g
ID                                       : 33% ~9 ?6 M: w3 `. O  E* P
ID in the original source medium         : 4628 (0x1214)
; p- Z2 L  q$ ^) sFormat                                   : PGS
6 k5 C' l/ h: T& h& j  e6 k6 F7 wMuxing mode                              : zlib+ @' l; W4 K' i- o" L; y, H
Codec ID                                 : S_HDMV/PGS
0 W5 z7 @8 ~5 P* z: a1 S% q  oCodec ID/Info                            : Picture based subtitle format used on BDs/HD-DVDs
. D5 D- v* v4 w- [+ g3 Y' WDuration                                 : 1 h 28 min/ \9 f8 v: k8 f
Bit rate                                 : 35.3 kb/s
. g: ^8 j! w# s- M) l& ?% W1 D/ sFrame rate                               : 0.445 FPS- j  C8 V; {/ v
Count of elements                        : 2354
! y- [& I, U6 N& LStream size                              : 22.2 MiB (0%)
8 B- k7 a4 L, jLanguage                                 : Lithuanian  Y3 `3 E' _9 g' G! b( @
Default                                  : No
0 `+ E- a7 E) [, q; @Forced                                   : No9 E9 e% @0 H& q5 `, I0 _1 k# y
Original source medium                   : Blu-ray
1 ~6 @; h# r% d. Z7 Y9 n, y0 w
1 u$ Z# `6 b" F: v. S" _/ ~6 LText #249 G5 C. s2 k. m) S. q5 X1 [! T
ID                                       : 34
( Q* J2 x* `8 t) P- l. f  fID in the original source medium         : 4629 (0x1215)5 h, z  M. s8 p+ `3 B2 N; F( P
Format                                   : PGS
: B7 U+ [. o0 p) Q& L) \, x; m% uMuxing mode                              : zlib
* ~0 L( g% W& H+ D" J- R2 l0 w  cCodec ID                                 : S_HDMV/PGS
! ~( ^" t  k& A. r6 n1 ~4 rCodec ID/Info                            : Picture based subtitle format used on BDs/HD-DVDs
/ a7 a' y# w8 a& pDuration                                 : 1 h 35 min
0 n. e* L8 [! O* D4 L5 L' C2 }Bit rate                                 : 25.8 kb/s
; x! \  q4 `( L$ }0 S5 dFrame rate                               : 0.405 FPS; c6 S) \, y" c$ n
Count of elements                        : 2316! D' W: ?7 X& d# p& P# e
Stream size                              : 17.6 MiB (0%)
' O  o$ `+ [2 F7 W: U% h* z! P/ ALanguage                                 : Slovenian3 g* Q6 ~* O4 P8 m# Q
Default                                  : No& b  O' `" g0 w1 b6 v
Forced                                   : No$ c$ u5 n$ S# n
Original source medium                   : Blu-ray
; v3 I4 m& z. ^2 P# i! q8 J! B
0 q: M, Z$ Q2 n+ LText #25
7 ]$ L# P) b3 {$ I, I6 SID                                       : 35
* q& w' x, B* OID in the original source medium         : 4630 (0x1216)
9 s% R) U* m  O( a7 o1 W1 o6 p  [6 SFormat                                   : PGS
- D* h" A7 Y# `. Y6 eMuxing mode                              : zlib
- f1 W2 C# k, T4 O, P5 a' r/ `7 MCodec ID                                 : S_HDMV/PGS0 x* C+ V) c$ N6 {# I# d
Codec ID/Info                            : Picture based subtitle format used on BDs/HD-DVDs% o$ e( p8 i. J- r! r% S
Duration                                 : 1 h 26 min1 S! t, K4 i" U7 k- b' k9 k* h) n( g
Bit rate                                 : 35.0 kb/s
% f$ ]) ?1 r+ n5 J7 w7 m- r  yFrame rate                               : 0.453 FPS8 Q1 A  k+ C; b2 _
Count of elements                        : 2356* u# `- z0 |( V7 {  m" \$ t, m4 Q+ a
Stream size                              : 21.7 MiB (0%)
; E/ n/ n: m& fLanguage                                 : Ukrainian
$ ]8 l  x" m/ L! CDefault                                  : No
6 t4 G1 L9 C7 t* _( _! L/ {Forced                                   : No
! j$ D* k& t2 }Original source medium                   : Blu-ray0 |# d# P9 t6 w5 E, N
: C3 j6 o! }6 R; X) K
Text #26
0 \2 ]! C( ^( k% eID                                       : 36
5 |1 t( J. p2 @4 a8 h2 C5 N0 ~ID in the original source medium         : 4631 (0x1217)
5 W2 v+ `- P) q/ x8 d) CFormat                                   : PGS: a- j) @$ j5 |# e; w
Muxing mode                              : zlib% _4 s% r2 C! `4 i- W( e
Codec ID                                 : S_HDMV/PGS' H8 m9 x6 R& `3 ^
Codec ID/Info                            : Picture based subtitle format used on BDs/HD-DVDs- T5 r# ]5 A& l4 \4 B  r
Duration                                 : 1 h 34 min
5 w7 M) l2 b  l% {, m; V5 v1 iBit rate                                 : 167 b/s. y$ X8 k# B- z5 L+ }' [
Frame rate                               : 0.002 FPS
* K( H4 z/ s" ^% k1 vCount of elements                        : 14) ~3 q1 n7 S9 {) C. t
Stream size                              : 116 KiB (0%)
3 z7 }) p2 ]; j# f) G# w6 ^Language                                 : Portuguese8 h& N6 p# e3 W8 ?& v: N2 @% F
Default                                  : No
) F9 n2 a( O  [+ l) H: G7 AForced                                   : No. l, k) G" \& F5 ~) y5 F
Original source medium                   : Blu-ray
$ R- s$ t" D* ^# y+ ^$ P2 g, ]# L' h
Text #27: Y1 I* I3 K% m' ]' A& b
ID                                       : 37
: q9 J; X' e- nID in the original source medium         : 4632 (0x1218). X4 Y  c' Q( p3 V
Format                                   : PGS
9 S, d4 a8 l% {' IMuxing mode                              : zlib' W* j* E) ^' f( m" E1 J6 V% c, j
Codec ID                                 : S_HDMV/PGS
3 `/ o; s: W# ]Codec ID/Info                            : Picture based subtitle format used on BDs/HD-DVDs
, ~) b1 w6 G8 g" h! N4 oDuration                                 : 1 h 17 min. L! U# d" n" T
Bit rate                                 : 159 b/s/ n$ I& U. v& D$ J: V$ K
Frame rate                               : 0.002 FPS
+ |% `- X7 O$ P& C8 m3 }* eCount of elements                        : 8/ @  c& p$ Z! [% v" k' W; Z) K" ~
Stream size                              : 91.1 KiB (0%)" m/ o; ^) S6 z8 _2 N
Language                                 : Czech3 o# V4 \. a( o# ^
Default                                  : No
7 N! f: M1 U* l( F; UForced                                   : No
5 X( `" Q/ O; Y. }) i" G  p/ uOriginal source medium                   : Blu-ray; _3 a) n0 X, ^- T, A
: j+ Z; z( W/ G( W: A3 H* h
Text #28
- ?# y; [+ E  G4 Y7 EID                                       : 381 b/ b4 [  z4 C- I% ]) g" U' s
ID in the original source medium         : 4633 (0x1219)3 y$ E& u3 n, A/ x
Format                                   : PGS6 F8 V% M+ H8 f" z  @& K
Muxing mode                              : zlib% C2 j) m) p0 D/ ~$ d9 M4 P
Codec ID                                 : S_HDMV/PGS5 E8 g6 q4 t0 J7 U+ O9 d9 f
Codec ID/Info                            : Picture based subtitle format used on BDs/HD-DVDs
; a' c, s  p3 }Duration                                 : 1 h 12 min
7 J4 r5 Q* m8 `$ g5 o! FBit rate                                 : 401 b/s
6 f! a+ a9 y9 q5 }1 u& {Frame rate                               : 0.005 FPS; c) |( a7 Q( X! \
Count of elements                        : 22
9 p- ^0 }. B& }$ nStream size                              : 212 KiB (0%)
; s8 g7 s+ t* ^0 dLanguage                                 : Hungarian; f1 D' n3 E* M# e9 x8 `
Default                                  : No1 _6 A/ @7 a5 L5 @
Forced                                   : No
3 k0 T9 ~' ]: UOriginal source medium                   : Blu-ray7 ~- T2 a- B5 ^3 g5 n

# m; @# P& S8 P( F3 \# fText #29+ l9 }" e; e6 M& S0 V
ID                                       : 39. A, A+ T) s1 B* P0 [7 i6 S; S8 i
ID in the original source medium         : 4634 (0x121A)
& n$ e9 v* l& `) qFormat                                   : PGS+ U4 }  I+ J; ^/ k+ A' \
Muxing mode                              : zlib
6 `" R' K  i3 W, vCodec ID                                 : S_HDMV/PGS2 y& B0 J& q1 Q$ o4 O8 B: b
Codec ID/Info                            : Picture based subtitle format used on BDs/HD-DVDs- S8 f! U- |+ n& k
Duration                                 : 17 min 13 s
% r9 T: Z# `% p: ?' v- kBit rate                                 : 716 b/s
+ v1 f3 D) h% |0 Y5 {3 WFrame rate                               : 0.008 FPS
, z& o6 J9 k+ c) M! p# NCount of elements                        : 8
: W7 V, ^3 E* J! B5 u. ~Stream size                              : 90.4 KiB (0%)" o& m- [# X& j( ^5 p( y
Language                                 : Spanish: O3 n4 P3 }/ V" r% N
Default                                  : No7 ?* |2 E' @. Y
Forced                                   : No
: V: _+ i# g% X; v. k' cOriginal source medium                   : Blu-ray/ b  _3 Z$ ^) V& H! b+ ?6 s7 T

! T, C* r) }8 j) r/ z7 FText #30
6 y1 ]. p( C4 z, x8 Z  ]% Q2 dID                                       : 40$ R: x0 r7 U. L
ID in the original source medium         : 4635 (0x121B)6 H1 J/ G1 t5 Z9 P2 a3 P
Format                                   : PGS
: \/ R: Z, c5 e2 W8 u2 W5 IMuxing mode                              : zlib
" s$ d7 |7 c& V4 ?$ BCodec ID                                 : S_HDMV/PGS
( s* F9 y7 ?! p& W$ mCodec ID/Info                            : Picture based subtitle format used on BDs/HD-DVDs( r2 \4 X, I7 i1 @% A$ ^7 _& \9 W
Duration                                 : 1 h 15 min% j( {# m; z6 Y$ h5 H7 l
Bit rate                                 : 481 b/s
5 s8 w: x9 P0 Y* z  S! sFrame rate                               : 0.005 FPS
* n7 v7 P/ ?' d! b# R8 s' p/ O0 TCount of elements                        : 249 f  X9 F4 A7 j: w* \) [
Stream size                              : 265 KiB (0%)) l5 P" A( g& t, J3 Y9 P
Language                                 : Russian" }: E# |. n( P3 K. H, N' S
Default                                  : No
. F) t# e8 o9 x0 g' m1 \6 SForced                                   : No
, v! i0 k" M& M/ JOriginal source medium                   : Blu-ray4 e! M7 B! x  h8 j5 B7 d

4 p  H( P5 w# u2 z) p, G0 }' tText #31, d4 {, ^/ R# u/ l9 |( I6 B/ x$ Q( c
ID                                       : 41
( n/ ?: I, u+ F* l7 qID in the original source medium         : 4636 (0x121C)
! r8 E! C% G* u! i& mFormat                                   : PGS/ N% x" ^5 n+ y3 V% t9 C4 Z& ^
Muxing mode                              : zlib
/ D1 H0 j* y! F# x9 I  @Codec ID                                 : S_HDMV/PGS
) }2 c3 P! J4 f9 zCodec ID/Info                            : Picture based subtitle format used on BDs/HD-DVDs4 B7 a2 h/ {6 V! a" x
Duration                                 : 1 h 12 min6 `& _& q$ |' a% ?7 \+ w3 S
Bit rate                                 : 331 b/s6 c" E6 J# ]3 B
Frame rate                               : 0.005 FPS2 o; P& e8 t! ]3 A
Count of elements                        : 22
" ]* p5 b& \& N7 J' XStream size                              : 175 KiB (0%)
5 L4 w( B3 Y: j$ A+ ~Language                                 : Thai6 p, i3 r; M! V5 i
Default                                  : No
* n% p/ H4 m2 IForced                                   : No, _; r" S$ N' W8 Z0 E0 K
Original source medium                   : Blu-ray- R- ^( P; t1 Z. _$ b8 C

* X" Y+ B9 c% J9 c: Y8 wText #32
6 ]8 N7 M2 i; m6 {; Y3 w# yID                                       : 42
& G# K$ h+ \4 c* f) ^: QID in the original source medium         : 4637 (0x121D)
) y( S- N  J, i* W0 E5 EFormat                                   : PGS$ k4 R7 D9 s7 Y1 l% N
Muxing mode                              : zlib
- d9 J- y: w# j7 sCodec ID                                 : S_HDMV/PGS
/ u( C4 N/ V( k- F5 H0 KCodec ID/Info                            : Picture based subtitle format used on BDs/HD-DVDs6 Q" E, I" ^, I' L! C
Duration                                 : 1 h 27 min0 z% P+ U% u  Z9 |0 I2 L5 u1 v' f' j
Bit rate                                 : 115 b/s& ^" [" y. B# u+ i( Q
Frame rate                               : 0.001 FPS/ c5 R5 J% z: P* Y3 s
Count of elements                        : 6
$ m# t  ]: X  L6 u% hStream size                              : 73.8 KiB (0%)( K. b, W9 `6 e( b
Language                                 : Turkish
  {1 h. F7 Y; E; G" M9 V8 CDefault                                  : No
7 ]: T: P) L( {' E+ C! ]Forced                                   : No. Q3 v7 S* q8 b1 c
Original source medium                   : Blu-ray& f% Y3 N2 X5 N8 x

3 B  z0 M/ J0 k$ n, k+ n3 PMenu
) P$ J: i& I! s' j$ G& j00:00:00.000                             : en:Chapter 01
: Y1 U( E+ J- C2 c, _9 M00:03:57.111                             : en:Chapter 02, X1 a" z# Q! u3 `
00:09:13.135                             : en:Chapter 03
" P6 b* ~9 w+ d; _; a* ~! u/ F00:14:30.578                             : en:Chapter 04/ b4 \1 v4 z9 `" m7 n
00:17:58.410                             : en:Chapter 052 `. |+ z- V6 Q4 U; O% `6 q1 k
00:22:30.599                             : en:Chapter 06) w/ X7 J& F5 N- A) O; O/ A
00:27:09.502                             : en:Chapter 074 [3 C! `! N1 i  V6 k, s
00:33:33.511                             : en:Chapter 08- K0 X, R& G: A4 |  j4 l
00:38:46.157                             : en:Chapter 093 F7 q$ V0 M/ C( k- [
00:43:27.646                             : en:Chapter 10
$ {" ]0 R$ m: N# s& `00:46:31.747                             : en:Chapter 11& Q1 m- C, b$ E" g3 l* U& Z% v
00:52:04.037                             : en:Chapter 127 L$ x( P  s+ M: k  X" M5 H
00:55:52.098                             : en:Chapter 137 L7 V! [! E, ^) f5 l
01:02:15.982                             : en:Chapter 14( A/ Z: j$ D" x; D
01:07:01.100                             : en:Chapter 15
% I4 d& j6 e. o6 ?2 C- V0 M01:10:35.689                             : en:Chapter 162 t$ q6 h0 p' H7 w' R- v0 J
01:13:16.308                             : en:Chapter 17/ s  I3 N, G) Q
01:17:52.125                             : en:Chapter 18
) x$ q" @+ B3 b9 V  L+ L01:23:00.934                             : en:Chapter 19
* y6 V/ D. M) h4 a01:27:27.909                             : en:Chapter 20

5 }" ?1 O# o0 D& c( Y
游客,查看本帖隐藏内容请回复 | 加入VIP可免积分免回复 了解详情 | 还不是会员:点击获取邀请码 Invitation Code

2

主题

720

帖子

4197

积分

Sponsor

金币
471 枚
体力
2335 点
QQ
ccfys888 发表于 2022-11-11 17:47:52 | 显示全部楼层
啥也不说了,楼主就是给力!+ W$ T* l. A- {* K6 @+ V
Blu-ray Film Forum is now my home!( q4 l5 u. ^* g

10

主题

807

帖子

6226

积分

VIP Primary

金币
1224 枚
体力
2866 点
我喜欢你快乐 发表于 2022-11-11 21:24:27 | 显示全部楼层
感谢楼主分享

283

主题

742

帖子

4358

积分

Sponsor

金币
295 枚
体力
2535 点
zhangwenbin 发表于 2022-11-15 08:23:54 | 显示全部楼层
冥界警局1/衰鬼刑警 [REMUX无损版 自带中字] R.I.P.D.2013 1080p BluRaycd REMUX AVC DTS-HD MA 5.1-FGT 26.87GB
# @' G! I. e' J6 [https://forum.bluraycd.com/thread-59945-1-1.html
' n4 E3 \# I; ~7 T. y! d1 e: z(出处: BluRayCD Forum)8 l; F& V( Z1 a7 M+ a, ]' \, _; C
蓝光论坛里

0

主题

163

帖子

888

积分

Sponsor

金币
0 枚
体力
559 点
splj100200 发表于 2022-11-15 23:08:21 | 显示全部楼层
果断回帖,如果沉了就是我弄沉的感觉很有成就感!7 a( q* \# `, g! O* {
至少是现在,我一天没有访问蓝光电影论坛就不爽!At least now, my day did not visit the Blu-ray Film Forum on unhappy!, j; E  O3 D4 H/ [2 e

0

主题

163

帖子

888

积分

Sponsor

金币
0 枚
体力
559 点
splj100200 发表于 2022-11-15 23:08:58 | 显示全部楼层
每天都来蓝光论坛看看,我爱蓝光电影。
2 g$ ?  }; M, o7 F, ?0 }The decisive Replies sink is I get the sinking feeling great sense of accomplishment!
, R. |" l: a, l

0

主题

74

帖子

343

积分

Sponsor

金币
1 枚
体力
197 点
QQ
jimmywei1987616 发表于 6 天前 | 显示全部楼层
每天都来蓝光论坛看看,我爱蓝光电影

0

主题

131

帖子

730

积分

Sponsor

金币
6 枚
体力
461 点
QQ
一见哈哈笑 发表于 4 天前 | 显示全部楼层
感谢楼主,感谢!

本版积分规则

小黑屋|Archiver|4K蓝光论坛

GMT+8, 2022-11-26 23:51

Copyright © Tencent Cloud.

快速回复 返回顶部 返回列表