BluRayCD Forum

 找回密码
 立即注册【分享大片】
查看: 61|回复: 8
收起左侧

[蓝光原盘] 她将会 [REMUX无损版] She Will 2021 1080p BluRaycd REMUX AVC DTS-HD MA 5.1-FGT 19.76GB

[复制链接]

8953

主题

9147

帖子

6万

积分

Post Share

金币
113 枚
体力
12493 点

卓越贡献勋章

24小时 发表于 2022-11-12 02:08:54 | 显示全部楼层 |阅读模式
An aging film star retreats to the Scottish countryside with her nurse to recover from surgery. While there, mysterious forces of revenge emerge from the land where witches were burned.& V) d+ A" Q1 \

; A+ z/ G% y6 K" O8 P5 ? 01.jpg
% [* D6 j7 K- x0 s/ k$ Q9 j+ b# f
◎译  名 她将会: A/ {1 C8 F# [. i1 V/ P8 @
◎片  名 She Will / 마녀들의 땅& B- _7 ]( A8 V( N8 a
◎年  代 20218 N$ k* S2 \! y3 q+ G/ i. f. G
◎产  地 英国
1 J- O) y4 W# w/ p5 T4 m- {5 \0 _+ c◎类  别 剧情/恐怖/惊悚
: }: O& i1 X" a: \+ G, ^◎语  言 英语
; f5 }5 L9 |6 z- A* J◎上映日期 2021-08-05(洛迦诺电影节)2022-07-15(美国)/2022-07-22(英国)7 y. @5 T+ N( E1 {5 Y5 N' _
◎IMDb评分  5.4/10 from 1,557 users$ C/ b6 i* e* N5 \! r
◎IMDb链接  https://www.imdb.com/title/tt9340916/
) @$ `9 _6 W  L. }; d◎豆瓣评分 6.2/10 from 244 users! V! n* y( D% `
◎豆瓣链接 https://movie.douban.com/subject/35480773/
$ \1 H: y! v) E- l, V◎文件格式 x264 + DTS  * Q! S6 [4 J3 h& m: H5 K! X
◎视频尺寸 1920 x 1080
. o7 _$ z- [8 \$ M6 \5 f◎文件大小 1DVD 19.76 GiB
* Q& z$ E& a. Z) ^  b5 r) `◎片  长 1 h 36 min
( I2 R+ y! |' }, S  O◎导  演 夏洛特·科尔伯特 Charlotte Colbert, \4 b  V: n% X
◎编  剧 小猫珀西
8 w( F$ o6 v% F2 J$ X( X9 K$ ~       夏洛特·科尔伯特 Charlotte Colbert
' q9 H. H" Q- q$ G6 A◎演  员 艾米·曼森 Amy Manson* C. j' P3 [( E6 {. W5 h
       约翰·麦克雷 John McCrea  G: Z. Q1 I( }, f5 q5 z
       马尔科姆·麦克道威尔 Malcolm McDowell1 x! N/ i" W, V' m( i. W' H
       鲁伯特·艾弗雷特 Rupert Everett
0 V3 {9 V7 y8 l6 A6 r% T       艾丽丝·克里奇 Alice Krige% {- x3 a% ^5 k4 G7 T( J4 U
       丹尼尔·莱派恩 Daniel Lapaine0 J4 V1 ?& I- W, F
       乔纳森·阿里斯 Jonathan Aris
) ~# [: o  R: x       乔安娜·培根 Joanna Bacon& H! {6 A& L7 t
       肯尼斯·克拉德 Kenneth Collard
0 S" L5 d$ y9 v9 {# j       科塔·埃伯哈特 Kota Eberhardt
7 i. j5 b2 _9 G: ]       达里奥·阿基多 Dario Argento6 [1 v* \/ _8 _. u9 M- A4 l# L2 N2 D
       希安·詹金斯 Sian Jenkins
( ~$ L+ A& _2 Q$ L* U8 x( V$ ]- Y* x2 e; E: k  M! j7 _
◎简  介   4 {# m' U# c  q0 |* c

0 {/ j- f+ I$ e2 o9 w  After surgery glamorous actress, Veronica Ghent, travels with her nurse, Desi, to the remote highlands in order to attend a healing retreat. The other guests are eccentric and there is something different about the land; the nature seems to have a purpose of its own. Immersing herself in the dramatic surroundings, Veronica is given a new lease of life and finds purpose through the magical elements in the land. Desi must overcome her own battles to help Veronica make peace with herself. Veronica and Desi, the motherless child and the childless mother, find in each other a sense of family, and the future of a new dawn opens up to them.& j0 ^7 A3 P5 H1 `

) `1 o! Y9 q6 q; Q4 {% |
She.Will.2021.1080p.BluRayCD.REMUX.AVC.DTS-HD.MA.5.1-FGT: y# P8 t8 g/ \# @8 R& l
1 |4 i- d! Q4 S$ C! p8 ^
Video
2 O9 l% |' x( E$ K  XID                                       : 1
! H9 v! H6 T. P$ O0 E# M, NID in the original source medium         : 4113 (0x1011)
* [& i9 g- p" F  iFormat                                   : AVC9 t* a  T0 v+ U" C$ {7 K6 I
Format/Info                              : Advanced Video Codec
( l0 c# P! T" L4 y+ D  OFormat profile                           : [email protected]' L! Q* c7 @0 }1 c3 W9 m, c
Format settings                          : CABAC / 4 Ref Frames
7 K! T+ F& M  ^1 S  `, \Format settings, CABAC                   : Yes7 W* h8 i+ ~9 o) w1 t3 z% P5 s
Format settings, Reference frames        : 4 frames1 U4 w* U. {) l
Codec ID                                 : V_MPEG4/ISO/AVC- v# \. O' ?; d
Duration                                 : 1 h 36 min
2 i: P7 a# o" L# ]* uBit rate mode                            : Variable# K! I2 {1 C# T/ P; V
Bit rate                                 : 23.7 Mb/s
1 {1 w* f5 N' f3 CMaximum bit rate                         : 36.0 Mb/s
- y% P4 Z, S$ B; U% B1 I9 h/ P4 iWidth                                    : 1 920 pixels+ }# e  ?. G' h7 k
Height                                   : 1 080 pixels
* Y+ B$ A* r7 T# U3 I- Q, t0 dDisplay aspect ratio                     : 16:9
4 t$ \; K2 B7 N7 v3 F% zFrame rate mode                          : Constant
& f+ \7 A7 |% {% O8 g' v$ \Frame rate                               : 23.976 (24000/1001/189150) FPS& `9 T9 S5 M) K4 ?" V0 d
Color space                              : YUV' t' i2 C6 D* S& Q/ {
Chroma subsampling                       : 4:2:03 w9 B8 o9 b: |# Q" f
Bit depth                                : 8 bits
0 r. D, J$ l" \. pScan type                                : Progressive; M: o9 [  B- j' y0 C9 F& P
Bits/(Pixel*Frame)                       : 0.4767 G! w* B9 ^8 T; K- D
Stream size                              : 15.9 GiB (80%)  {( t3 C# @9 ]  D0 P$ E) [
Language                                 : English3 B3 Z5 o4 B0 H1 a2 J) s+ l+ O
Default                                  : No
/ x$ O( i2 k! ]6 fForced                                   : No5 k7 g" I1 @$ U7 E8 [
Original source medium                   : Blu-ray
: R7 W9 q+ N) |# e& y2 h
1 o  s- t8 T! F, E0 \Audio #1% }( D1 E" |( p  P( W
ID                                       : 2
0 i6 i7 L$ `) `1 ~# p; O3 WID in the original source medium         : 4352 (0x1100), d! e' d( D) q% e% x$ X
Format                                   : DTS XLL' Y# @; e8 M4 D. j5 V# L; V0 T$ P6 }
Format/Info                              : Digital Theater Systems0 r6 i# ]; |, O
Commercial name                          : DTS-HD Master Audio
% B2 t9 T7 e5 a' i% A4 r7 RCodec ID                                 : A_DTS
' y  O1 G: k- y# m+ x4 [: |, aDuration                                 : 1 h 36 min
4 O; H4 r& E0 B( \  x6 \/ HBit rate mode                            : Variable
2 U4 m1 p" p% Z! F9 X+ rBit rate                                 : 3 755 kb/s2 h0 Y+ @5 A+ ]- ]' Q  }- s% O
Channel(s)                               : 6 channels5 m( d* P; m. p
Channel layout                           : C L R Ls Rs LFE+ z: M- V0 A. M: u
Sampling rate                            : 48.0 kHz3 A& ~5 E! X7 K# Z  l
Frame rate                               : 93.750 FPS (512 SPF)
3 z! B: @/ e. a6 }! U$ [- [Bit depth                                : 24 bits# w5 Z9 |0 _  e/ {& S) n& ?
Compression mode                         : Lossless) G) r. ]  v  u' I. K/ \
Stream size                              : 2.52 GiB (13%)5 |5 ]% u8 c3 S! u$ Y
Title                                    : DTS-HD MA 5.1& k2 }* H5 m" I9 Z% ]
Language                                 : English
/ r. [6 {/ S/ T6 D- fDefault                                  : Yes
0 X* \( g6 ]+ z0 p* d- ZForced                                   : No1 H; _) C) W! N; _8 J
Original source medium                   : Blu-ray3 Q7 q' B- @- x: y# G; u' `" O

" r3 }% v0 K! F2 A8 MAudio #25 m& B$ I! p, h- _7 K7 l
ID                                       : 3
, m9 R) c0 g6 D- E1 ^ID in the original source medium         : 4353 (0x1101). U! }4 ~9 ~5 ?% a+ w1 Z
Format                                   : DTS XLL
- R/ M' A* [* P1 F2 {) QFormat/Info                              : Digital Theater Systems
- [9 K. p. k9 P  V& DCommercial name                          : DTS-HD Master Audio
. X: z% E: a' V( RCodec ID                                 : A_DTS
3 l& K5 j0 n0 l7 A0 |& k9 H4 qDuration                                 : 1 h 36 min) d: a) q- m: j, E/ }5 l
Bit rate mode                            : Variable
- ], P/ f3 f8 D+ R6 g1 eBit rate                                 : 2 016 kb/s" W3 a0 L! w( X
Channel(s)                               : 2 channels5 N* o3 J1 y' a. A7 S3 l
Channel layout                           : L R2 K2 T' P9 L$ F! g3 I' g
Sampling rate                            : 48.0 kHz. v7 y2 L& ?1 V+ I- U* I: ]: l
Frame rate                               : 93.750 FPS (512 SPF)
3 ^4 s* M' A* J; T  e9 f: FBit depth                                : 24 bits
. B5 ]) o7 F0 g( Z6 V3 Q. uCompression mode                         : Lossless
! `6 b, P5 u4 [: U9 XStream size                              : 1.35 GiB (7%)
6 {) }8 v. J6 b; K$ W) q2 PTitle                                    : DTS-HD MA 2.0
) I- V5 O4 x* o+ U+ Z  R$ J0 L# @1 cLanguage                                 : English2 r. ?4 C$ }% D, o% D+ P& k
Default                                  : No
! p: w  f6 z; `5 l) @Forced                                   : No* R0 L! I" E. f0 l
Original source medium                   : Blu-ray2 a2 Z7 J( v. C$ E1 _( y

" J% x. C1 K' ]% N: R+ H3 jText #17 U+ a5 z1 {: f9 v
ID                                       : 47 F/ T' ]/ n0 k5 I3 n/ W4 M
Format                                   : UTF-8
1 @# h& X) N& K: v% Z) KCodec ID                                 : S_TEXT/UTF8
- y0 v4 E) P# M6 L( e$ BCodec ID/Info                            : UTF-8 Plain Text, k8 y9 C9 d# _4 Q  D9 ~# s
Duration                                 : 1 h 33 min
2 r) j5 N$ H+ _0 z: @Bit rate                                 : 23 b/s
+ c* X% s8 L# b7 K$ CFrame rate                               : 0.109 FPS6 U; S- S6 a4 G& A. v( G7 G: L5 Z
Count of elements                        : 6066 F# q$ H6 v: h. d9 d6 w
Stream size                              : 16.3 KiB (0%)
7 \, N+ M0 P- N. kLanguage                                 : English
  n7 V' S/ w* g$ u! G  i. CDefault                                  : Yes) B/ \1 r. V; [9 @7 m
Forced                                   : No
$ G2 h4 E7 m( O" h- q! @8 k" m0 H' C5 n+ \
Text #2
, F% N' \* v  e; ]% ~ID                                       : 5& H# t! u" z' F
Format                                   : UTF-8# Y. t- A- _9 Z7 o4 L" L
Codec ID                                 : S_TEXT/UTF8
! Z" \! J8 Y. b9 a' RCodec ID/Info                            : UTF-8 Plain Text, r+ d% q- R0 y8 w! X5 v
Duration                                 : 1 h 33 min; v4 O" E- _# ~/ Y
Bit rate                                 : 29 b/s
' }5 ]3 d/ r4 N. h! O& A: lFrame rate                               : 0.142 FPS
$ t0 X( E# @1 G8 DCount of elements                        : 795
3 g! ]9 T4 M* N8 {9 H' V0 Z) gStream size                              : 20.0 KiB (0%)
- t: y+ E, Z- ^/ r2 @2 x: XTitle                                    : SDH
  D9 I' d2 A) V$ tLanguage                                 : English
5 Q9 w8 H; w# j4 ?. ^" h0 hDefault                                  : No
& T6 r7 B& M2 nForced                                   : No
. \& L9 I* f0 B3 d9 i& A2 ]( b5 {8 x+ t; g1 n- G+ d% t6 g3 ~
Text #3
1 f) q" `) A- GID                                       : 6- T# e8 {! u; A9 D+ w
ID in the original source medium         : 4608 (0x1200)* @9 o/ g/ |# b* D7 _
Format                                   : PGS4 q5 x9 Q9 @" J
Muxing mode                              : zlib
) M- T# ?2 D" C  J+ K8 KCodec ID                                 : S_HDMV/PGS
/ f5 g4 {4 P! h# ~& |9 NCodec ID/Info                            : Picture based subtitle format used on BDs/HD-DVDs
, o8 G- n  W  @1 iDuration                                 : 1 h 33 min
( F# Y$ s+ s' f( C! DBit rate                                 : 13.0 kb/s
4 |8 ]) _6 }# }3 P' ]# f- T+ m8 ?Frame rate                               : 0.289 FPS; |6 O2 l, Q/ ]! O4 G
Count of elements                        : 1616
' e3 |. l; u& n' [* [Stream size                              : 8.67 MiB (0%)8 i2 f, l8 P/ i4 A; W1 O* _" w
Language                                 : English
6 ~, A# V3 A. ]) ZDefault                                  : No, p& G1 a1 S, v) f) B* R
Forced                                   : No
" D2 \9 L2 |/ w1 U  z& {Original source medium                   : Blu-ray
1 |( w) H1 ]4 G+ [5 h" M% \$ n( D4 E" }: n1 x7 V  {; `2 V
Text #4
" o" J) Z# L" B' Q# L) x5 h) l% aID                                       : 7
2 B) V' O) R1 i, D  H' }. nID in the original source medium         : 4609 (0x1201)
# p( V: ?2 G+ xFormat                                   : PGS
7 R2 r8 J3 |. D3 t1 L! D6 aMuxing mode                              : zlib: T+ T1 s) L( i, c) j) V! ^
Codec ID                                 : S_HDMV/PGS' l8 e, k, g; u9 x8 j
Codec ID/Info                            : Picture based subtitle format used on BDs/HD-DVDs' b& j7 E) g' b6 a/ Z! q8 J$ s
Duration                                 : 1 h 29 min
# I% N3 t3 W3 U7 X% j6 d+ SBit rate                                 : 10.3 kb/s; D7 G8 Q' O+ H5 j
Frame rate                               : 0.210 FPS, U; K) B1 N  {. E0 p
Count of elements                        : 1128! [4 W2 ~$ X; B- P4 Z
Stream size                              : 6.58 MiB (0%)
3 E9 ^! ?$ n) ]4 y5 FLanguage                                 : Spanish
# V' l4 C) Y, K. a( ODefault                                  : No
* r& a& p1 ^$ A: R! X7 l; H- v" q* AForced                                   : No5 ~7 a6 n- v! `1 f; m7 J  K: v; P
Original source medium                   : Blu-ray2 K% V3 K3 t& ?; d' S# v6 g
8 y* x% m; f+ t; g# E# h
Menu
* S) f/ y0 U) p; _/ F9 d  e00:00:00.000                             : en:Chapter 01" @4 m6 p/ y. N3 T# u; U+ P# U: G& u
00:14:12.434                             : en:Chapter 02
, l% j! O% Z; v00:28:18.988                             : en:Chapter 03
1 D' l8 c4 ~8 g, s& X+ L00:38:22.049                             : en:Chapter 04
$ C. E: |  m8 n00:52:18.718                             : en:Chapter 05+ k9 K9 A! H# q* u2 q9 C. F. V; L
01:07:42.016                             : en:Chapter 06* D/ H% P& V- Z* [
01:22:39.120                             : en:Chapter 07& D( `/ }) Z/ y' j/ Q5 w( r
01:31:46.375                             : en:Chapter 08
" A/ W1 H2 Y) x( T
游客,查看本帖隐藏内容请回复 | 加入VIP可免积分免回复 了解详情 | 还不是会员:点击获取邀请码 Invitation Code

31

主题

2540

帖子

1万

积分

Sponsor

金币
1794 枚
体力
6817 点
QQ
shiji1973 发表于 2022-11-12 09:38:24 | 显示全部楼层
沙发是抢的而不是占的!
, K3 K# ]$ `( XThank you for sharing such a good resource polite reply, very sorry for myself!
( K, X+ _; i4 h; \8 Q- ~

0

主题

1078

帖子

4233

积分

Sponsor

金币
261 枚
体力
1830 点
zzk980220 发表于 2022-11-12 11:02:12 | 显示全部楼层
啥也不说了,楼主就是给力!/ j; _' E9 s) R. E! `6 s$ W. B2 H
要想蓝光电影论坛发展好,资源多,就靠你我他!To the development of Blu-ray movies forum, resources and more depend on you and me!. `9 o6 J1 n' J

3

主题

880

帖子

4259

积分

Sponsor

金币
0 枚
体力
2383 点
myg0123 发表于 2022-11-12 18:51:50 | 显示全部楼层
啥也不说了,楼主就是给力!3 {/ M# k0 \$ Z
The decisive Replies sink is I get the sinking feeling great sense of accomplishment!/ B2 @# _* H  v+ ^( E: w
蓝光论坛里 ...

0

主题

102

帖子

868

积分

Sponsor

金币
83 枚
体力
565 点
tjzfyybbb 发表于 2022-11-12 21:21:16 | 显示全部楼层
JHGLJKHKLJLKJKLJ

0

主题

574

帖子

2655

积分

Sponsor

金币
10 枚
体力
1524 点
QQ
neilwang1982 发表于 2022-11-15 14:41:49 | 显示全部楼层
有点意思的电影

0

主题

841

帖子

3252

积分

Sponsor

金币
248 枚
体力
1305 点
lfvvzc 发表于 2022-11-16 14:56:08 | 显示全部楼层
果断回帖,如果沉了就是我弄沉的感觉很有成就感!( X7 F  Z& k9 [* C
Blu-ray Film Forum: I will always support you!$ T" z: y; [) x

0

主题

131

帖子

730

积分

Sponsor

金币
6 枚
体力
461 点
QQ
一见哈哈笑 发表于 2022-11-19 11:24:27 | 显示全部楼层
感谢楼主,感谢!

本版积分规则

小黑屋|Archiver|4K蓝光论坛

GMT+8, 2022-11-27 00:13

Copyright © Tencent Cloud.

快速回复 返回顶部 返回列表