BluRayCD Forum

 找回密码
 立即注册【分享大片】
查看: 15|回复: 2
收起左侧

[科幻恐怖] 她将会 She Will 2021 720p BluRaycd x264-PiGNUS 4.19GB

[复制链接]

1万

主题

1万

帖子

10万

积分

Post Share

金币
171 枚
体力
26702 点

卓越贡献勋章VIP黄金勋章诚信会员勋章

mvods 发表于 7 天前 | 显示全部楼层 |阅读模式

" d; z: F5 P3 ?& F5 s3 g/ n' _3 N) z; ^) x
◎译  名 她将会
8 L0 l' P: j) ?2 U' J8 G◎片  名 She Will / 마녀들의 땅. _: V" Y2 U9 F  s& H0 k
◎年  代 2021
) T( `" \( \; h; v  D' S◎产  地 英国0 R  J5 k* Z8 m3 A" z. L  m
◎类  别 剧情/恐怖/惊悚
# |, q2 C! k2 a2 E- M! h◎语  言 英语: A- E% J/ @5 P; m. c5 G
◎上映日期 2021-08-05(洛迦诺电影节)2022-07-15(美国)/2022-07-22(英国)
# P) J$ z/ A& }0 q  q◎IMDb评分  5.4/10 from 1,650 users8 N6 r( @; S- w4 z
◎IMDb链接  https://www.imdb.com/title/tt9340916/
8 u9 H) p- z7 N  a- M1 \# r' Y◎豆瓣评分 5.9/10 from 333 users
7 ~7 I9 D* W& S) ]7 t+ c7 O◎豆瓣链接 https://movie.douban.com/subject/35480773/
/ ~4 a& w5 r) C' {* w. v◎片  长 1 h 36 min
/ J# c) w3 W: g◎导  演 夏洛特·科尔伯特 Charlotte Colbert
0 @8 e% _/ H1 U3 U2 ]◎编  剧 小猫珀西+ V! e8 R# C3 E, h' I& b% i  c$ O1 h
       夏洛特·科尔伯特 Charlotte Colbert, n& m& y. K; D8 V4 h' C' q# ~2 M# _
◎演  员 艾米·曼森 Amy Manson3 ^) |, R, ^, `6 a/ N) L) v
       约翰·麦克雷 John McCrea- f* }- ~* n, ^6 q! S
       马尔科姆·麦克道威尔 Malcolm McDowell
; C5 F+ Z2 o. M1 f  k3 _! t/ M       鲁伯特·艾弗雷特 Rupert Everett
# _! l; _9 c5 M( h) Q4 g% Z       艾丽丝·克里奇 Alice Krige
9 Z1 Z1 ~& \4 @: p- c& X; ]1 D  E8 p       丹尼尔·莱派恩 Daniel Lapaine
3 }- i# a+ o* j! E       乔纳森·阿里斯 Jonathan Aris
8 e& y# U; O  b% r5 H" n) R       乔安娜·培根 Joanna Bacon
# @( p2 l, B/ E2 v4 @       肯尼斯·克拉德 Kenneth Collard
5 S) C! \  p6 M- _8 W       科塔·埃伯哈特 Kota Eberhardt
9 h  ^6 \) y8 D       达里奥·阿基多 Dario Argento
9 b* w; K/ O5 ]+ ^7 r& n$ E6 c7 y       希安·詹金斯 Sian Jenkins9 t$ |9 o5 w! I, ^' N/ E; X
$ w% m# J1 ?. e
◎简  介   % b% W$ w" r  b' d

/ o9 w% q  o3 R9 a  An aging film star retreats to the Scottish countryside with her nurse to recover from surgery. While there, mysterious forces of revenge emerge from the land where witches were burned.
3 R, p2 F) M  L  H4 V3 m
Video
1 L% ]! ~% K; {$ c0 C" U: e# e# ZID                                       : 1
  ]# j$ L- N. w  ]" |5 |Format                                   : AVC9 E/ c( r  T: E% e! {; V( `* K+ v' t
Format/Info                              : Advanced Video Codec
8 b, V- z* f# Z* L( JFormat profile                           : [email protected], w- {: V1 }( h! R2 I% B4 ^
Format settings                          : CABAC / 8 Ref Frames
  K: x) X0 F: b, @' DFormat settings, CABAC                   : Yes
6 V3 k' G( p- ^- iFormat settings, Reference frames        : 8 frames( W3 @# E1 q: N& L2 r( x; c* t1 `7 D
Codec ID                                 : V_MPEG4/ISO/AVC
; o. Z9 W/ R/ O% a' J8 }" ]Duration                                 : 1 h 36 min
: d+ A: P# e! |# C9 m! VBit rate                                 : 5 603 kb/s- r4 P9 n) P; I! v5 N0 @
Width                                    : 1 280 pixels
0 L. O% ]+ B4 [/ U# h7 l6 ?Height                                   : 534 pixels# d7 Y6 G# z7 S2 a1 a
Display aspect ratio                     : 2.40:1
8 C; T& j9 R6 |9 mFrame rate mode                          : Constant
- [& ^% D. \+ F; TFrame rate                               : 23.976 (24000/1001/189150) FPS  m1 x" A! C+ l% s6 o: b3 r
Color space                              : YUV. M: g8 v7 K0 i
Chroma subsampling                       : 4:2:0
0 i, @; B7 u1 w$ K9 u! f2 DBit depth                                : 8 bits
! }/ h2 W) A' i  `/ U, TScan type                                : Progressive5 J* e4 M+ B6 j6 C
Bits/(Pixel*Frame)                       : 0.342
8 L3 P9 U5 B8 L) \* A  uStream size                              : 3.76 GiB (90%)3 ^' C4 r5 F4 g  y) L7 t, _: ~1 o4 K
Writing library                          : x264 core 164 r3101 b093bbe
3 L1 }  ?" d7 H* S% {5 eEncoding settings                        : cabac=1 / ref=8 / deblock=1:-3:-3 / analyse=0x3:0x133 / me=umh / subme=9 / psy=1 / psy_rd=1.00:0.00 / mixed_ref=1 / me_range=16 / chroma_me=1 / trellis=2 / 8x8dct=1 / cqm=0 / deadzone=21,11 / fast_pskip=1 / chroma_qp_offset=-2 / threads=17 / lookahead_threads=1 / sliced_threads=0 / nr=0 / decimate=1 / interlaced=0 / bluray_compat=0 / constrained_intra=0 / bframes=3 / b_pyramid=2 / b_adapt=2 / b_bias=0 / direct=3 / weightb=1 / open_gop=0 / weightp=2 / keyint=250 / keyint_min=23 / scenecut=40 / intra_refresh=0 / rc_lookahead=60 / rc=crf / mbtree=1 / crf=15.5 / qcomp=0.60 / qpmin=0 / qpmax=69 / qpstep=4 / ip_ratio=1.40 / aq=1:1.00
$ k- \9 E1 u! L  MDefault                                  : Yes
/ ]; N& U4 B% ^9 q' GForced                                   : No7 t% Q  h2 l" e; z( u4 z/ z& S" j
0 G6 o+ ^# Z1 o/ f" W6 L; O& d+ K' A
Audio
" y. i+ \6 d6 p& e6 q( \9 sID                                       : 2
) w$ v9 D- J0 f$ e- E" vFormat                                   : AC-37 O& `5 p  O) ^6 T
Format/Info                              : Audio Coding 32 p% i/ t, g; i2 H! L, o& V# t
Commercial name                          : Dolby Digital
3 ]' [7 g/ q( F" k9 u  sCodec ID                                 : A_AC3
. A3 n& ]( L$ r9 X) ]+ SDuration                                 : 1 h 36 min
  v9 n& S. z8 d5 OBit rate mode                            : Constant
$ d8 ?5 M2 Q9 a, @7 ~+ u% Y; V. lBit rate                                 : 640 kb/s6 x' h$ B1 y9 p* Y2 O2 k. O9 ^
Channel(s)                               : 6 channels
& o* s7 O9 m. I$ FChannel layout                           : L R C LFE Ls Rs- c+ d9 _4 H; C  @
Sampling rate                            : 48.0 kHz/ o% Y" Q$ [2 V6 J0 Q
Frame rate                               : 31.250 FPS (1536 SPF)
1 s7 ~4 e0 L8 \/ r' F+ x: rCompression mode                         : Lossy
% U* L+ z) f% XStream size                              : 440 MiB (10%), J# ^/ b4 x' O
Language                                 : English
3 \  M2 ~- b! W; y0 E5 v1 ~0 z. {Service kind                             : Complete Main1 L2 @% A; `$ ?6 E! j2 O  [% q* r
Default                                  : Yes. F  H' B& T( z( r; B; T
Forced                                   : No" s. R3 f1 c/ f/ Z* q7 j* l  \

/ E. f5 ?2 b* f, F$ sText #14 F7 @  G# e* g0 W3 k' P; c
ID                                       : 3
" {  P7 ]+ k2 }" v1 [/ rFormat                                   : PGS
+ f$ Z. L0 V- n) M1 B6 fMuxing mode                              : zlib
1 p8 U' ~6 _9 |: M: R/ T) ~) eCodec ID                                 : S_HDMV/PGS) l6 q, X: P* z* U0 c. Y
Codec ID/Info                            : Picture based subtitle format used on BDs/HD-DVDs
2 |+ X) }, J9 _( l; lDuration                                 : 1 h 33 min; N* o1 `% M* m1 G9 q0 F3 H
Bit rate                                 : 13.0 kb/s  Q1 C1 {4 Z1 }) G: |; R) b
Count of elements                        : 1616
, t' s8 X+ @' U# p- qStream size                              : 8.67 MiB (0%)
% p4 H% W- V! D( R$ H/ s9 B2 d  }Title                                    : English SDH- A# m2 X. L! D3 x( N) C
Language                                 : English
% W; j  T/ t6 U( A8 D/ G& XDefault                                  : No
: J4 ^! q( Y4 V3 T; M( ^Forced                                   : No
8 }" t* a2 C3 e& K+ ?
  e( H' F  E9 e! b- nText #29 l6 g- s/ y1 h' _6 J
ID                                       : 4
2 W' l8 ?! S3 u6 h8 t$ SFormat                                   : PGS
; P9 x0 [2 A+ S' Z9 oMuxing mode                              : zlib
1 {% h/ {; r' B5 P5 C- YCodec ID                                 : S_HDMV/PGS
; b3 M2 n* O$ g, z: W: H# m( sCodec ID/Info                            : Picture based subtitle format used on BDs/HD-DVDs
, H% g+ \( I' T+ FDuration                                 : 1 h 29 min
- {/ g+ C) n0 e1 ABit rate                                 : 10.3 kb/s
5 W8 F( f# g7 v+ A" i+ ~, y: B% cCount of elements                        : 1128
3 z9 G4 x# W- N& _( R6 w( n$ fStream size                              : 6.58 MiB (0%)
, S3 z( I( y# e$ uTitle                                    : Spanish1 h7 j- M$ T$ t) A4 d
Language                                 : Spanish0 J/ n) H4 A7 j/ g
Default                                  : No
7 B3 _% b! j, _Forced                                   : No- V. z- W6 r- P6 I1 s& X5 X

% X! V( D5 V0 s( d' b" J) ?Menu
! V7 e. O( _. d, d00:00:00.000                             : en:Chapter 016 L1 j, C% K0 G# M
00:14:12.435                             : en:Chapter 02" U$ c; b  O. n9 h. w: p
00:28:18.989                             : en:Chapter 03
. I1 ?- C1 z( L* W: C8 o" l00:38:22.050                             : en:Chapter 04
( e: q; V2 S( H9 H* \( p+ G00:52:18.719                             : en:Chapter 05$ h8 ~' U# g4 Y7 F7 e8 u
01:07:42.016                             : en:Chapter 06) p4 g! R2 b7 M, {! i0 Z7 U8 K
01:22:39.121                             : en:Chapter 07$ I! ]# }6 Q* r( e1 U6 [
01:31:46.376                             : en:Chapter 08
8 |7 U: G( B& T3 _01:36:02.340                             : en:Chapter 09
$ }" z$ K% |$ j
' o& d! e8 v% Q# ]! F+ q! @Name: She.Will.2021.720p.BluRayCD.x264-PiGNUS 4.19 GB; O, r: D9 R( B5 g2 T

' \9 [; n: g& O1 w. I  K- ZRelease date: 09-11-2022
+ @9 ^, t+ U7 E' [' G) i' v1 Z3 O6 _- C$ h
IMDB link: https://www.imdb.com/title/tt9340916$ Y+ Z, O. N0 K! _& l0 V
9 Y5 g  q( J+ |7 u0 w+ {
Resolution: 1280x534
; P9 z2 f' X: c* D5 }2 a' R& i$ {! cAudio: English AC3 6ch 640 kbps
) N1 p% Y1 V2 c' MVideo: 5603 kbps, CRF 15.5" o! ]0 x5 Z9 N) }2 \
Source: 23984 kbps' w! b! R- I" v$ X9 s) A" M$ l, e6 y
6 c* `+ F! F- g/ T7 [
Subtitles: English SDH, Spanish

9 o* |% }8 w9 b3 c' m9 l/ J
游客,查看本帖隐藏内容请回复 | 加入VIP可免积分免回复 了解详情 | 还不是会员:点击获取邀请码 Invitation Code

31

主题

2540

帖子

1万

积分

Sponsor

金币
1794 枚
体力
6817 点
QQ
shiji1973 发表于 7 天前 | 显示全部楼层
沙发是抢的而不是占的!
8 j1 _- u9 `; q- G. SAfter reading the posts have nothing to do I Amoy posts!. b  e7 u5 ^; d) `8 ^

0

主题

589

帖子

2256

积分

Sponsor

金币
29 枚
体力
953 点

签到达人勋章

QQ
jiyugen8180 发表于 6 天前 | 显示全部楼层
每天都来蓝光论坛看看,我爱蓝光电影。
& ^$ q( ~3 P/ s$ k/ WBlu-ray Film Forum is now my home!
  C; g: A/ J$ A7 ]' p' r- z8 ]8 C6 s

本版积分规则

小黑屋|Archiver|4K蓝光论坛

GMT+8, 2022-11-27 00:38

Copyright © Tencent Cloud.

快速回复 返回顶部 返回列表