BluRayCD Forum

 找回密码
 立即注册【分享大片】
查看: 57|回复: 7
收起左侧

[科幻恐怖] 她将会 She Will 2021 720p BluRaycd x264-PiGNUS 4.19GB

[复制链接]

1万

主题

387

回帖

12万

积分

Post Share

金币
3947 枚
体力
32369 点

卓越贡献勋章VIP蓝光勋章诚信会员勋章

mvods 发表于 2022-11-20 18:35:30 | 显示全部楼层 |阅读模式
9 S$ `3 m) t+ l& `& x6 z" X

% g( H3 q6 d3 V! b6 \6 t  A! k( i/ B◎译  名 她将会
9 R( y: |) t6 F% O◎片  名 She Will / 마녀들의 땅. L% D- Y4 W" h8 Y! o. {6 @# G$ n
◎年  代 2021
% |, T# r% k; R2 Q" V◎产  地 英国
5 r4 D3 h4 h6 T8 x3 D+ E◎类  别 剧情/恐怖/惊悚3 b* J% I$ I$ i9 Z
◎语  言 英语
6 L0 |+ u$ C" Q* R◎上映日期 2021-08-05(洛迦诺电影节)2022-07-15(美国)/2022-07-22(英国)
* b- |9 G+ p, d+ Y5 X+ t◎IMDb评分  5.4/10 from 1,650 users
8 _$ S% l9 z7 W" H' d" _◎IMDb链接  https://www.imdb.com/title/tt9340916/" j' S# y" l1 y
◎豆瓣评分 5.9/10 from 333 users
. D3 {0 F  j& [2 d! ~8 z◎豆瓣链接 https://movie.douban.com/subject/35480773/3 _2 K0 U, o  G
◎片  长 1 h 36 min) c4 Q& S3 [6 L$ Z
◎导  演 夏洛特·科尔伯特 Charlotte Colbert
: H! k: o6 m' x( d◎编  剧 小猫珀西. t) Q. a. `1 b* P1 G+ E& Y* I- O
       夏洛特·科尔伯特 Charlotte Colbert
2 P1 o- r/ _" j( C' a◎演  员 艾米·曼森 Amy Manson6 k1 r% |% i6 |+ [3 b; l0 m
       约翰·麦克雷 John McCrea* x+ L: n1 g$ V" M1 g, G5 `
       马尔科姆·麦克道威尔 Malcolm McDowell! ~* ^, v. k  p' M5 q. X4 v
       鲁伯特·艾弗雷特 Rupert Everett
: x( @8 R" X. f8 E       艾丽丝·克里奇 Alice Krige
; ~0 }. m2 W1 ]       丹尼尔·莱派恩 Daniel Lapaine
" P5 q) {& D" T  Z2 O* h       乔纳森·阿里斯 Jonathan Aris# {6 I6 C% t$ g
       乔安娜·培根 Joanna Bacon5 _/ e' n/ `: b- y! B, R; E0 L, b2 O
       肯尼斯·克拉德 Kenneth Collard
8 V# i, p; q3 I( ?7 T7 G2 j7 [       科塔·埃伯哈特 Kota Eberhardt3 a0 Y' \/ f) }
       达里奥·阿基多 Dario Argento+ s2 S2 h5 F1 V, T  z, `# Z3 B& A
       希安·詹金斯 Sian Jenkins
. y% e7 e- e/ O8 Y2 o& g$ q9 P$ n
◎简  介   1 _# d6 `5 }: N% ?3 \
- @3 d" M5 M/ r6 h9 d( ^2 G
  An aging film star retreats to the Scottish countryside with her nurse to recover from surgery. While there, mysterious forces of revenge emerge from the land where witches were burned.: S5 e9 g5 l% G2 R5 b6 h! I
Video" z& F2 M9 y* F  q4 f3 t& O
ID                                       : 1
% y5 j0 d# E8 E% jFormat                                   : AVC
# K5 C, P2 `) ]6 e7 g" KFormat/Info                              : Advanced Video Codec
. y) d9 F' _/ O+ M8 PFormat profile                           : [email protected]. p3 l0 p, I2 a& Z6 w# \
Format settings                          : CABAC / 8 Ref Frames$ E4 s+ B" j. k5 }1 z
Format settings, CABAC                   : Yes
& z" @$ i# H( z1 B0 [: X4 BFormat settings, Reference frames        : 8 frames
) H$ F( T/ Q1 Q2 N+ GCodec ID                                 : V_MPEG4/ISO/AVC; e2 Z. _! E3 Q+ |# y& s+ [
Duration                                 : 1 h 36 min
8 h' e+ F' K! u9 v# c6 k( QBit rate                                 : 5 603 kb/s; }0 y; z, s: W
Width                                    : 1 280 pixels+ n* Q+ i% b" V+ m1 n# n
Height                                   : 534 pixels; B4 |# c# c2 C* f, \8 N& Z, D. G  {0 g
Display aspect ratio                     : 2.40:1
+ c+ P# A7 i- D4 ^# H3 B# Y* yFrame rate mode                          : Constant
, K1 i5 ?- a) q$ M+ |; [% O% e( {: oFrame rate                               : 23.976 (24000/1001/189150) FPS
0 P* J. E1 i( j) w1 \! g. ]Color space                              : YUV
9 j5 w, j5 x- A+ i; K; N! y- b; MChroma subsampling                       : 4:2:0* F4 h7 C) `$ c8 m
Bit depth                                : 8 bits' n9 C; v! [! N5 e2 ~2 j% h
Scan type                                : Progressive; L" A$ U" @. \% ^) \
Bits/(Pixel*Frame)                       : 0.342) L. c2 b4 y! P/ F8 @6 V4 E
Stream size                              : 3.76 GiB (90%)  ]4 f* S$ X5 Y
Writing library                          : x264 core 164 r3101 b093bbe
4 @% w$ m/ b3 ^6 }  Q% JEncoding settings                        : cabac=1 / ref=8 / deblock=1:-3:-3 / analyse=0x3:0x133 / me=umh / subme=9 / psy=1 / psy_rd=1.00:0.00 / mixed_ref=1 / me_range=16 / chroma_me=1 / trellis=2 / 8x8dct=1 / cqm=0 / deadzone=21,11 / fast_pskip=1 / chroma_qp_offset=-2 / threads=17 / lookahead_threads=1 / sliced_threads=0 / nr=0 / decimate=1 / interlaced=0 / bluray_compat=0 / constrained_intra=0 / bframes=3 / b_pyramid=2 / b_adapt=2 / b_bias=0 / direct=3 / weightb=1 / open_gop=0 / weightp=2 / keyint=250 / keyint_min=23 / scenecut=40 / intra_refresh=0 / rc_lookahead=60 / rc=crf / mbtree=1 / crf=15.5 / qcomp=0.60 / qpmin=0 / qpmax=69 / qpstep=4 / ip_ratio=1.40 / aq=1:1.00/ L' M* Q4 q7 C( R- [+ _* ^
Default                                  : Yes
) c+ u" R, Q- B( _, K2 eForced                                   : No
9 L7 B9 V8 X* k9 d0 s  P1 `
0 a( S6 r/ U' `3 E2 o! l, TAudio2 j- X, j. L- L  E+ x
ID                                       : 22 M5 O7 S6 t) {
Format                                   : AC-3$ \8 a6 U% {; D- \6 K  t
Format/Info                              : Audio Coding 3$ e7 W; `# A9 v7 {& X# S4 E. t
Commercial name                          : Dolby Digital
5 X! B( I  P, sCodec ID                                 : A_AC3% q  V8 s( I. {% z, q
Duration                                 : 1 h 36 min& K- w- Y4 M! h3 A: V& v
Bit rate mode                            : Constant
; Y3 P! r1 U$ ?% _# UBit rate                                 : 640 kb/s
4 X9 R4 R/ D. E/ T5 \Channel(s)                               : 6 channels# |& ?+ T7 x: a0 S2 b
Channel layout                           : L R C LFE Ls Rs9 x! u; w5 g! Z9 ?9 W
Sampling rate                            : 48.0 kHz% i2 }0 V/ B" @! E% w4 ?
Frame rate                               : 31.250 FPS (1536 SPF)
  s6 y3 _7 d$ {" x# [: E$ P8 ICompression mode                         : Lossy
. `) T+ N4 f% f, UStream size                              : 440 MiB (10%)
8 U7 a6 F" e# P8 {$ z/ ?: YLanguage                                 : English: d9 T) F9 @% e7 M. G2 @, W
Service kind                             : Complete Main
, @( r9 h$ F+ J1 A, I& \Default                                  : Yes! s& D, @$ K- Q: |3 R5 [! I
Forced                                   : No
7 A2 `4 G, r: s. j% \. ~% W  s, C7 r7 L: k4 q; I, K
Text #1
- x' w/ K0 I/ `% N  D* @1 D+ d7 {! cID                                       : 3
4 O* D( x5 C/ ?Format                                   : PGS
( y3 }9 i+ d( \Muxing mode                              : zlib
- r, J9 G$ j. y$ Y, s/ fCodec ID                                 : S_HDMV/PGS
: u5 V9 E4 r) O6 ^0 x4 n: WCodec ID/Info                            : Picture based subtitle format used on BDs/HD-DVDs- D) [/ `1 u  X9 ?
Duration                                 : 1 h 33 min% C/ Z5 F6 v& y: t/ x+ A
Bit rate                                 : 13.0 kb/s
9 s! z$ n, O7 ]$ T  ?( [Count of elements                        : 1616
* W# \1 h0 [6 F' @Stream size                              : 8.67 MiB (0%)3 _$ L7 p- B, t- a% h; E( z) ^6 O
Title                                    : English SDH/ N: T1 j- k- i" Q  d! h
Language                                 : English
4 t3 b9 y5 T( c7 R8 E" r9 uDefault                                  : No
: J. X5 G( }' ~$ L  q  H( }. B  f% VForced                                   : No; `: }4 H* T3 v4 r- L+ T  ^  I; P6 r
0 J4 e5 ~& ]' x# ?  u" g2 Y! L0 s
Text #28 ]  D1 \5 X; V# Y& Y6 M/ p( r: p
ID                                       : 4; T, c, p! W9 R1 i0 Q
Format                                   : PGS
0 z) f/ C4 k: oMuxing mode                              : zlib
5 ]6 l) I! H# d2 Y; M# m4 T* c$ Y+ D  _: }Codec ID                                 : S_HDMV/PGS4 Q0 x! g) b% d& N* A' K
Codec ID/Info                            : Picture based subtitle format used on BDs/HD-DVDs
; e, _; K; H2 r5 q  |# R' }: [Duration                                 : 1 h 29 min
2 ^! E# \7 H" mBit rate                                 : 10.3 kb/s
7 J( `8 l" k5 @: q/ x8 |% {" nCount of elements                        : 1128
# f% I4 y0 a2 J5 P- m  j# kStream size                              : 6.58 MiB (0%)
4 ]% N) b: F; ^9 LTitle                                    : Spanish2 I! F2 I/ Q0 B1 v
Language                                 : Spanish
3 M1 p6 W. {7 Q- k9 Y. [Default                                  : No
- c# J# ?$ W) a( lForced                                   : No9 m$ |; M: n8 R9 F
6 o# {4 x& J0 `. w+ X, {$ R
Menu$ h, Y/ M4 g* W, _4 B7 {! g
00:00:00.000                             : en:Chapter 01
" J& V+ x, ~( R00:14:12.435                             : en:Chapter 02
! }9 y/ l: j  }2 X! M00:28:18.989                             : en:Chapter 03
8 ~) {( d4 U! Z" O2 k, `00:38:22.050                             : en:Chapter 04+ a! b9 O: ]. k
00:52:18.719                             : en:Chapter 05/ b! ~( G( b# ~; z- ]) o
01:07:42.016                             : en:Chapter 06
2 T& Y4 w8 l6 t% Y5 V01:22:39.121                             : en:Chapter 07
5 t6 [, ]# Z) X7 `01:31:46.376                             : en:Chapter 08
' C6 M/ `6 ^3 J* Q3 [8 v. _" s01:36:02.340                             : en:Chapter 09
9 ^- X2 c: V* a# }% G' M' _+ ~" ~/ |) @- X4 j
Name: She.Will.2021.720p.BluRayCD.x264-PiGNUS 4.19 GB
  ?7 N0 ]; ?# R7 N& M
& [1 o% J; O; r2 q: `* m* k6 YRelease date: 09-11-2022
: v4 s: s3 z; k! I8 W8 j; q
' I' K0 y/ D( R  u5 C1 J4 \IMDB link: https://www.imdb.com/title/tt9340916& g7 e. A5 y, D: |" C

; J9 e4 `  W  r. dResolution: 1280x534
# k8 L6 Y1 J# i2 u  Z: V  ^5 PAudio: English AC3 6ch 640 kbps& ?2 ?7 u1 C5 |" q% T5 }" I
Video: 5603 kbps, CRF 15.53 [! O; w' `8 S5 K7 h
Source: 23984 kbps  a  ?% r( h0 z5 X$ s8 z3 u
" Y6 H4 h7 T3 W
Subtitles: English SDH, Spanish
7 g/ K8 |+ N5 C& H) d
游客,查看本帖隐藏内容请回复 | 加入VIP可免积分免回复 了解详情 | 还不是会员:点击获取邀请码 Invitation Code

31

主题

4044

回帖

2万

积分

Sponsor

金币
3039 枚
体力
9707 点
QQ
shiji1973 发表于 2022-11-20 21:34:24 | 显示全部楼层
沙发是抢的而不是占的!
) B$ J1 ?) ]2 s2 XAfter reading the posts have nothing to do I Amoy posts!
: G0 K( f$ `# t8 A. S3 q6 C

0

主题

1683

回帖

6827

积分

Sponsor

金币
5 枚
体力
3001 点

VIP蓝光勋章

QQ
jiyugen8180 发表于 2022-11-21 08:47:20 | 显示全部楼层
每天都来蓝光论坛看看,我爱蓝光电影。
7 [; E3 M. [8 H/ Y; ?0 a& ZBlu-ray Film Forum is now my home!8 i! B, ]8 R% J" G: ]. u

31

主题

4044

回帖

2万

积分

Sponsor

金币
3039 枚
体力
9707 点
QQ
shiji1973 发表于 2022-11-28 08:28:10 | 显示全部楼层
沙发是抢的而不是占的!
6 w# c2 t. u! B) Q至少是现在,我一天没有访问蓝光电影论坛就不爽!At least now, my day did not visit the Blu-ray Film Forum on unhappy!0 s  A8 b3 z9 J, I/ V2 C

31

主题

4044

回帖

2万

积分

Sponsor

金币
3039 枚
体力
9707 点
QQ
shiji1973 发表于 2022-11-29 09:45:44 | 显示全部楼层
沙发是抢的而不是占的!
8 G: R* }3 M: p$ n3 C. l祝愿蓝光社区越办越好!I wish Blu-ray communities better and better!
" j! E) i' V# o  U

31

主题

4044

回帖

2万

积分

Sponsor

金币
3039 枚
体力
9707 点
QQ
shiji1973 发表于 2022-11-30 09:16:39 | 显示全部楼层
沙发是抢的而不是占的!- W8 r4 V* w7 Q* Y$ n
Your resources, well, I am very satisfied!$ C8 S- |+ t3 g0 f' c( R

31

主题

4044

回帖

2万

积分

Sponsor

金币
3039 枚
体力
9707 点
QQ
shiji1973 发表于 2022-12-1 08:49:28 | 显示全部楼层
沙发是抢的而不是占的!% _( O" c8 `; @/ \. A
要想蓝光电影论坛发展好,资源多,就靠你我他!To the development of Blu-ray movies forum, resources and more depend on you and me!- e5 d, w. r' `4 d! r

31

主题

4044

回帖

2万

积分

Sponsor

金币
3039 枚
体力
9707 点
QQ
shiji1973 发表于 2022-12-12 10:47:36 | 显示全部楼层
沙发是抢的而不是占的!/ ^. L& D1 B2 h7 Z( ^6 p2 |+ s. K
The decisive Replies sink is I get the sinking feeling great sense of accomplishment!
7 h% b8 K, g* X: _7 g

本版积分规则

小黑屋|手机版|Archiver|4K蓝光论坛

GMT+8, 2024-3-5 06:31

Copyright © 2001-2021, Gadaddy Cloud.

快速回复 返回顶部 返回列表