BluRayCD Forum

 找回密码
 立即注册【分享大片】
查看: 30|回复: 7
收起左侧

[2160P极清] 城中大盗/窃盗城 [4K SDR高码版 自带中字] The Town 2010 2160p BluRaycd x265 10bit & 8bit SDR DTS-HD MA 5.1-SWTYBLZ 25.36GB & 28.77GB

[复制链接]

7486

主题

7658

帖子

7万

积分

Post Share

金币
133 枚
体力
23720 点

卓越贡献勋章

( F  a' I% `0 o7 Q6 n1 x2 O

" `1 a! c5 _0 T◎片  名 The Town
8 @0 m$ [: k2 `- O4 S◎译  名 城中大盗/窃盗城(台)/狂盗之城(港)/小镇/镇上/城区( R& O/ ?2 ]7 ^. |
◎年  代 2010: _) Q, L# r9 {7 z
◎产  地 美国9 z  v5 }1 V3 s5 ]6 F* H8 c! z% W
◎类  别 剧情/惊悚/犯罪
) G! v( ]. s3 \( |2 _◎语  言 英语/ ^8 u5 x' e. o7 v
◎上映日期 2010-09-17(美国)/2010-09-08(威尼斯电影节)* L+ x" ^* `; F' [4 @' C- w7 |
◎IMDb评分  7.5/10 from 391,371 users
1 x6 e) p7 `# z- X' k◎IMDb链接  https://www.imdb.com/title/tt0840361/6 V# J  q# `( D: M1 s
◎豆瓣评分 7.5/10 from 66,191 users
9 {& F0 ~5 |' V# c; ?5 H* S◎豆瓣链接 https://movie.douban.com/subject/3217165/
3 @9 W% {# t& ~7 p* ?- r. y, l, @◎片  长 2 h 4 min
: W+ z0 |3 a, Y% [8 _◎导  演 本·阿弗莱克 Ben Affleck& l) `) d% G5 w8 t3 o% p' h
◎编  剧 彼得·克莱格 Peter Craig. J, n% o, N7 f3 d7 v
       本·阿弗莱克 Ben Affleck
+ D  n7 @. L' i( f1 {       查克·霍根 Chuck Hogan
4 {/ P% q2 h- U, e6 L       亚伦·斯托卡德 Aaron Stockard
. e% n9 h- M. n: q: A3 Q◎演  员 本·阿弗莱克 Ben Affleck6 x  Z; G; [  f0 l+ l
       丽贝卡·豪尔 Rebecca Hall
* E% e9 x/ n: j: O( E" W       乔恩·哈姆 Jon Hamm
: i8 Q: F0 P5 i' B4 M  A       杰瑞米·雷纳 Jeremy Renner
4 L+ d  a, W# {       布蕾克·莱弗利 Blake Lively
4 X4 p& f: ~7 o" {) p       提图斯·维里沃 Titus Welliver
& C, f' B7 h6 o9 _7 w4 _. H4 A% h4 M       皮特·波斯尔思韦特 Pete Postlethwaite8 O0 h5 }9 z. Z% C. R$ R
       克里斯·库珀 Chris Cooper
- t- r7 O' A8 k9 n: ^9 }0 w8 J       Slaine
1 [0 ^' v$ L; t2 @/ `( G0 B       欧文·伯克 Owen Burke
/ W! z1 A4 L; N( K3 {; P1 F; g       Dennis McLaughlin' v, n2 D  |4 H- ~; q  W9 `
       Corena Chase) J5 u2 v* t# n" U; ^
       布莱恩·斯坎内尔 Brian Scannell
9 q( {7 N8 P7 V$ p# V2 \( ?( ^       Kerri Dunbar
3 [  C/ g; e# ]       Tony V.
; |2 b4 e1 O" U  c7 g' z7 f3 f6 _+ d       特德·阿尔奇迪 Ted Arcidi
6 G) O0 @7 U$ S1 z( ~; W       托马斯·图尔 Thomas Tull4 l. K& K& W# g. E8 V+ c* u; B
       大卫·巴克利 David Buckley
; o9 S! {0 t0 w* u' x       哈里·格雷格森-威廉姆斯 Harry Gregson-Williams6 e" `% S+ m4 m) X
       罗伯特·艾斯威特 Robert Elswit6 V% @6 B3 z- s+ l4 Y
       苏珊·马瑟森 Susan Matheson+ t5 O  Y' t( R7 ]

( J( P4 H4 a, s7 o◎简  介   
: K' D& D/ f5 K) k6 N2 j7 ]: H& a7 q5 s7 V
  美国东部,位于波士顿近郊的查尔斯城,俨然一个被法制遗忘的失乐园。城中爱尔兰裔的工薪阶层占有很大比例,区域贫困的生活条件和令人无法喘息的压力让人们铤而走险,银行抢劫案时有发生,一切都变得癫狂无望。某个早晨,美丽的银行经理人克莱尔·吉塞(丽贝卡·豪尔 Rebecca Hall 饰)遭遇一伙头戴骷髅面具的劫匪,而她更被劫持为人质。奇怪的是,克莱尔最终意外生还,似乎这个早晨的变故从未发生过一样。一天,她邂逅了高大英俊的男子道格·麦克雷(本·阿弗莱克 Ben Affleck 饰),奇妙的缘分就此展开,两人的命运也由此改变……4 ]8 z. K" d" D( G( A1 N  i

  ~- m' p$ J2 l8 B. _2 ~  本片根据库克·霍根(Chuck Hogan)的原著改编。/ ^; E, j* o1 g0 O4 X

8 [* y2 ^/ S/ I- f& l& I  As he plans his next job, career thief Doug MacRay tries to balance his feelings for a bank manager connected to one of his earlier heists, while trying to stay one step ahead of the FBI agent looking to bring down him and his crew.
$ _: B* F/ L  t3 }* [3 I8 r# z- V
SWEATY BALLZ presents
0 k+ K- U, h! G, @! D! x
0 r" O4 H* q' k. P7 x1 EThe.Town.2010.2160p.BluRayCD.x265.10bit.SDR.DTS-HD.MA.5.1-SWTYBLZ 25.36 GB( e5 ^4 P% |2 K8 k$ M
Converted from 10 bit HDR to 10 bit SDR using tripple mixed Hable-Reinhard-JJ per scene+frame analysis algorithm
6 B: q* k! W3 w" dScreenshots are 8bit SDR because browsers dont support HDR or 10bit files
, ?8 O5 X/ @- R7 y6 _7 S& f5 E+ W! k+ }
Video
5 s) N6 \. P, C# [5 E: ~, RID                                       : 1
8 _) f5 {' r8 _) g- mFormat                                   : HEVC5 `1 U4 K& d8 K7 r( y3 k
Format/Info                              : High Efficiency Video Coding; S4 P0 H" ?! T4 t  U) g: e
Format profile                           : Main 10@L5.1@High
* k2 ?" k, y- {- a! _' J' `' SCodec ID                                 : V_MPEGH/ISO/HEVC
$ ]3 m8 [$ o# T) Y  Y3 oDuration                                 : 2 h 4 min
3 c3 m1 m  Q9 Y' Y3 a  M7 B, G1 wBit rate                                 : 25.2 Mb/s' G7 D3 q* ~& L$ ]2 J! K9 a
Width                                    : 3 840 pixels! P: b  Z! Q3 `* A/ Z1 H" i
Height                                   : 1 594 pixels! _2 R/ n' s" J2 E) w- o5 J
Display aspect ratio                     : 2.40:1# l) O* z1 [& [3 x4 Z) w# W
Frame rate mode                          : Constant! w0 v% s7 k$ N1 O. l
Frame rate                               : 23.976 (24000/1001) FPS$ V0 M" i; E* P: i' k8 k
Color space                              : YUV/ Z/ @4 D: r( L- \% K' M; U
Chroma subsampling                       : 4:2:02 r  L: h* |- y& }2 j; n
Bit depth                                : 10 bits
3 b. a1 H; N( Y+ d6 YBits/(Pixel*Frame)                       : 0.1717 _0 z7 [. q- Z. Q
Stream size                              : 21.9GB (87%): z2 H8 L% j3 O2 [( \6 ?& B
Title                                    : The.Town.2010.2160p.BluRaycd.x265.10bit.SDR.DTS-HD.MA.5.1-SWTYBLZ. \" r: _  F( `
Writing library                          : x265 2.5+4-b4a5bcfe29c7:[Windows][GCC 4.9.3][64 bit] 10bit
% d7 S6 I: B$ v- c; B2 m! ?Encoding settings                        : cpuid=1173503 / frame-threads=16 / numa-pools=24,24,24,24 / wpp / no-pmode / no-pme / no-psnr / no-ssim / log-level=2 / input-csp=1 / input-res=3840x1594 / interlace=0 / total-frames=0 / level-idc=51 / high-tier=1 / uhd-bd=0 / ref=3 / no-allow-non-conformance / repeat-headers / annexb / aud / hrd / info / hash=0 / no-temporal-layers / no-open-gop / min-keyint=1 / keyint=24 / bframes=4 / b-adapt=2 / b-pyramid / bframe-bias=0 / rc-lookahead=25 / lookahead-slices=4 / scenecut=40 / no-intra-refresh / ctu=64 / min-cu-size=8 / no-rect / no-amp / max-tu-size=32 / tu-inter-depth=1 / tu-intra-depth=1 / limit-tu=0 / rdoq-level=0 / dynamic-rd=0.00 / no-ssim-rd / signhide / no-tskip / nr-intra=0 / nr-inter=0 / no-constrained-intra / strong-intra-smoothing / max-merge=2 / limit-refs=3 / no-limit-modes / me=1 / subme=2 / merange=57 / temporal-mvp / weightp / no-weightb / no-analyze-src-pics / deblock=0:0 / no-sao / no-sao-non-deblock / rd=3 / no-early-skip / rskip / no-fast-intra / no-tskip-fast / no-cu-lossless / no-b-intra / rdpenalty=0 / psy-rd=2.00 / psy-rdoq=0.00 / no-rd-refine / analysis-reuse-mode=0 / no-lossless / cbqpoffs=0 / crqpoffs=0 / rc=crf / crf=20.0 / qcomp=0.60 / qpstep=4 / stats-write=0 / stats-read=0 / vbv-maxrate=160000 / vbv-bufsize=160000 / vbv-init=0.9 / crf-max=0.0 / crf-min=0.0 / ipratio=1.40 / pbratio=1.30 / aq-mode=1 / aq-strength=1.00 / cutree / zone-count=0 / no-strict-cbr / qg-size=32 / no-rc-grain / qpmax=69 / qpmin=0 / no-const-vbv / sar=1 / overscan=0 / videoformat=5 / range=0 / colorprim=2 / transfer=2 / colormatrix=2 / chromaloc=0 / display-window=0 / max-cll=0,0 / min-luma=0 / max-luma=1023 / log2-max-poc-lsb=8 / vui-timing-info / vui-hrd-info / slices=1 / opt-qp-pps / opt-ref-list-length-pps / no-multi-pass-opt-rps / scenecut-bias=0.05 / no-opt-cu-delta-qp / no-aq-motion / no-hdr / no-hdr-opt / no-dhdr10-opt / analysis-reuse-level=5 / scale-factor=0 / refine-intra=0 / refine-inter=0 / refine-mv=0 / no-limit-sao / ctu-info=05 t9 G, L0 L6 i/ a  P1 Y$ }
Default                                  : Yes) }  H3 s! E" y( U
Forced                                   : No2 f4 X: A& D* N- J
8 C4 Z! S! Y/ Y
Audio #1
. ^6 p/ m4 [+ R2 s" m$ ]ID                                       : 26 T/ ]& E0 m, u/ e, M
Format                                   : DTS8 Z  A$ d" h2 y3 b" R$ M
Format/Info                              : Digital Theater Systems7 c0 M) i' w9 I7 `  ?5 D8 E
Format profile                           : MA / Core  M5 w2 {# k' V2 l) K( j5 Z
Codec ID                                 : A_DTS; Z' i6 A% b( f% H* E8 x9 C
Duration                                 : 2 h 4 min
6 H$ u, v) n9 B$ p2 F9 g5 qBit rate mode                            : Variable / Constant, O* P" w! s8 o/ p. w9 U0 |
Bit rate                                 : 2 722 kb/s / 1 509 kb/s6 f  R: i/ r+ @; O+ F
Channel(s)                               : 6 channels+ g6 v0 f$ c, B: M- F
Channel positions                        : Front: L C R, Side: L R, LFE
4 |: k5 ?, K3 T% a; o* ~Sampling rate                            : 48.0 kHz9 V" p/ E2 \! I/ m
Frame rate                               : 93.750 FPS (512 SPF)
1 G! y/ l" S9 L+ M1 w: IBit depth                                : 24 bits
) \: g3 Z6 O# e; fCompression mode                         : Lossless / Lossy( U. L! b2 |% U2 e" m) l
Stream size                              : 2.37GB (9%); y7 @! k% d! R: a. o) L4 K" W! ~
Title                                    : The.Town.2010.2160p.BluRaycd.x265.10bit.SDR.DTS-HD.MA.5.1-SWTYBLZ
3 G3 f8 e5 K& E# |8 m1 oLanguage                                 : English
6 n* N9 y5 L5 f: Q! lDefault                                  : Yes
/ |9 O, e5 {( w% D3 V% L$ aForced                                   : No# F! G, ~% G2 u( c; U
, v4 M) s- T, r, F* ?1 S
Audio #2% x" s3 ~* G" T7 c
ID                                       : 3, k. b9 T- i" P( d
Format                                   : AC-3
  N3 k% R1 h; _, S8 z7 rFormat/Info                              : Audio Coding 3
, @1 \3 P0 t/ Q  R+ TCodec ID                                 : A_AC3* D) M; o5 d; x1 c6 r' [3 N
Duration                                 : 2 h 4 min# E) e! I+ `" z9 @& w
Bit rate mode                            : Constant4 N- N$ O7 ]3 S0 k
Bit rate                                 : 640 kb/s
* Z; J8 X, b% V: U4 m) V0 d1 @Channel(s)                               : 6 channels* R( ^/ I9 z, A: h3 S6 _1 q
Channel positions                        : Front: L C R, Side: L R, LFE; S0 n) }6 j- C
Sampling rate                            : 48.0 kHz% R/ S3 Q: e, D4 t; h7 f7 Y7 k
Frame rate                               : 31.250 FPS (1536 SPF)
( }1 c" M, E  s  y% C: K; N$ n: hBit depth                                : 16 bits$ O& d& S7 u& d  }( a" }$ ]
Compression mode                         : Lossy# j2 O. g6 \3 P! o5 S2 c5 M
Stream size                              : 571 MiB (2%)4 }2 N! b. T0 y/ J# k+ H
Title                                    : The.Town.2010.2160p.BluRaycd.x265.10bit.SDR.DTS-HD.MA.5.1-SWTYBLZ4 ~' c6 \/ V8 Z: D( v. W+ M1 D
Language                                 : English0 t" {2 q) o  ?2 x; L. V
Service kind                             : Complete Main( [, s4 ^  S4 J5 ?$ T8 n, H
Default                                  : No0 m6 c8 H# J8 X! z; w# V  P$ c
Forced                                   : No% r6 \4 g2 Q- \; ]7 n
# Q/ ~3 l0 ~: F' b
Text #1
; O. r; n1 ?% |# u* z5 \; LID                                       : 4
0 K% c; l, H! ]- m) V5 OFormat                                   : UTF-8- ]# V0 L7 f& b) S: u* G' X
Codec ID                                 : S_TEXT/UTF8
+ Q  f  c' P6 m8 P3 e5 VCodec ID/Info                            : UTF-8 Plain Text8 d% \2 x; p9 f; W7 @
Duration                                 : 1 h 56 min+ }# v' ~0 Y; a6 Z2 s
Bit rate                                 : 61 b/s
8 w+ T: j4 Q; h& Y: c2 E1 Y$ KCount of elements                        : 1475% [/ x) c3 S$ ~/ d5 X" g+ r; I# k' t
Stream size                              : 52.6 KiB (0%)
0 N3 O1 G: S8 ?+ Q- e: lTitle                                    : English-SRT4 ^: b/ @( f4 U5 I: W( N7 E# c
Language                                 : English2 L6 _, E( M  l% k! L$ C7 D4 F
Default                                  : Yes
5 e/ ^# \1 a5 pForced                                   : No: T0 h) }% A/ d8 V
/ J( @3 V9 k3 X, x/ l
Text #2+ X2 H0 V( a$ U6 S, ]7 t
ID                                       : 5
% e7 P" `& I) ~9 O! rFormat                                   : PGS# `7 q8 ^" W6 P! D* [. f4 K
Muxing mode                              : zlib
+ Z( y, y, X6 v; Q) R( {! M' `+ b4 ZCodec ID                                 : S_HDMV/PGS) ~' X! |/ _' ?5 [$ o+ X
Codec ID/Info                            : Picture based subtitle format used on BDs/HD-DVDs5 t* x/ Z5 H5 L' e
Duration                                 : 2 h 2 min
1 [, _# p  L5 X5 PBit rate                                 : 35.8 kb/s- z+ q$ x" s* r7 M0 o2 ]6 |0 T
Count of elements                        : 3066  N) G$ e4 D3 E9 a) Y2 |
Stream size                              : 31.5 MiB (0%)
1 ~: |5 U1 ?/ y5 N- W/ K& lTitle                                    : English-PGS
. ]; |7 k, Z. HLanguage                                 : English
4 t, g) \9 W: ?) q8 g+ F% cDefault                                  : No' |) J, T* j$ q7 e: L6 P( g" ?% z
Forced                                   : No* s% x, Q% o4 g0 e! R2 c, R" x
1 n# H/ F6 G' D! ]  p* y9 M
Text #36 g/ S( c  ~6 v* v4 U& V
ID                                       : 62 g1 D( o% b* v& ]
Format                                   : PGS
  @& F  t2 x5 L! |) q6 J5 @5 nMuxing mode                              : zlib
. n# k( [- V. m0 t% P4 UCodec ID                                 : S_HDMV/PGS
8 x" u' ]! u) t" a6 d( SCodec ID/Info                            : Picture based subtitle format used on BDs/HD-DVDs$ W& U* ]. a5 ]- }: Q0 F* f0 ?# s
Duration                                 : 2 h 3 min$ Z8 I% v8 L0 X. R$ G! c8 m
Bit rate                                 : 24.4 kb/s) u, D+ k. K. v7 x, }% K
Count of elements                        : 28763 o( r# e+ U0 h% N5 U
Stream size                              : 21.6 MiB (0%)
" W; ^7 i, `( e! @Title                                    : French-PGS
2 \" S7 A" Y! Q' P# G  ]0 tLanguage                                 : French
7 b+ y: ]4 |4 ?1 d# A9 h5 ^Default                                  : No2 `& i! w0 ~9 x$ N
Forced                                   : No0 D$ ^# i; G! Q

. ]- l0 S) ^; g" m# S) `$ nText #44 o9 h9 ~- f, i0 H3 i) x2 {  y
ID                                       : 7
3 [4 F1 p7 W/ D; p# T$ _Format                                   : PGS
( i0 Z. P3 s, @1 r; |Muxing mode                              : zlib4 ^3 L- {* a: g/ ]" b
Codec ID                                 : S_HDMV/PGS( T  a  k+ w) h$ ?
Codec ID/Info                            : Picture based subtitle format used on BDs/HD-DVDs
8 D6 U5 l) N. u, TDuration                                 : 2 h 3 min
/ y2 k9 {; G3 |* E/ YBit rate                                 : 41.7 kb/s
; t; X* _: x, N% a8 ^# UCount of elements                        : 3200
* g7 n1 r+ h7 FStream size                              : 36.9 MiB (0%)5 T6 v; {( B. V7 Z' D2 K" @
Title                                    : German-PGS3 g+ y- K) @; I' J7 e1 O+ @- z
Language                                 : German
; w1 M6 ^/ a7 gDefault                                  : No# s6 ?& ?8 Z# C! x, P% K
Forced                                   : No5 B  D0 w3 W. A/ p9 _% H3 u

  g, U/ y  ~  R) y+ X6 b) T8 YText #5
- V0 O  t  @, z! t8 dID                                       : 81 |8 T1 m; m, E0 b
Format                                   : PGS# ?8 n) s) @5 e/ x9 U! B- H
Muxing mode                              : zlib
% a& N2 @, b- Y: {7 I' q8 Q& B  O0 XCodec ID                                 : S_HDMV/PGS! N1 p" y7 r+ a  ?- C
Codec ID/Info                            : Picture based subtitle format used on BDs/HD-DVDs
$ N5 C* I4 B- T( Q% xDuration                                 : 2 h 3 min1 N) |$ t1 W" _: u1 G! M7 F3 d
Bit rate                                 : 32.9 kb/s
# |+ Q2 n0 }# l. pCount of elements                        : 3104
5 i2 m  I+ {9 B% L& sStream size                              : 29.2 MiB (0%)
" [! q! R, C+ ?Title                                    : Italian-PGS1 t& W; u) ]& w7 p, E. O! p5 f+ G
Language                                 : Italian
' X" m% I+ g7 _$ o& i. z, ~3 M& R4 rDefault                                  : No' _) g4 T% \# O1 m( S  R- G1 S
Forced                                   : No0 |, D- m1 b+ H- j9 f
. m* x& r9 \+ f1 X5 a
Text #65 _( i1 i6 _. d: O0 k
ID                                       : 9  K- ?% k9 E$ Z/ m1 }  F
Format                                   : PGS
" v" V2 t- S' X4 v/ j8 RMuxing mode                              : zlib3 a7 p! \" f& A! |7 o/ `
Codec ID                                 : S_HDMV/PGS2 Q6 n% n) s: P4 Q& ?4 F  [+ R& R
Codec ID/Info                            : Picture based subtitle format used on BDs/HD-DVDs' J9 x' e- ?8 f
Duration                                 : 2 h 3 min
4 h. \# _# y7 M, p: Q/ S: O/ b9 pBit rate                                 : 27.0 kb/s4 T# W) ~. x1 C, e
Count of elements                        : 2934" ~7 G' N1 q6 b, K$ g) Q7 L
Stream size                              : 23.9 MiB (0%)2 l& y0 L* l; D+ v* B/ Z/ K+ h- e
Title                                    : Spanish-PGS
9 i7 j+ m) S, v8 CLanguage                                 : Spanish
# s- U/ j+ Q/ I- g4 SDefault                                  : No
' n+ u: r. r9 b( g& `) X* z( H6 SForced                                   : No
) v) b5 h. Z6 B2 Z7 r
5 Q& L2 A8 a1 f( L  t$ b+ \/ yText #7$ v; Z8 @8 [2 r& R7 ]+ L
ID                                       : 10
' Z. L5 l# b: ^$ B6 Q  Q- K& QFormat                                   : PGS
. R2 ^# ?. ]' y5 x* jMuxing mode                              : zlib8 l: c5 s  z0 w3 b; U- b- U
Codec ID                                 : S_HDMV/PGS
, [' e1 d  C: H9 ^6 |0 A/ tCodec ID/Info                            : Picture based subtitle format used on BDs/HD-DVDs2 `1 g9 }# \0 O4 p  e+ o9 l
Duration                                 : 2 h 3 min' `+ B) g5 V, ]6 j6 M
Bit rate                                 : 26.4 kb/s
  \6 o4 E4 S+ jCount of elements                        : 2366
) |, h) ~" J, r9 v9 Q% O; N/ aStream size                              : 23.4 MiB (0%)
; g) y+ e% x% S* p, oTitle                                    : Dutch-PGS, K% R' K7 h4 y$ d" N" @
Language                                 : Dutch
7 ~4 G# x' C  R) [2 gDefault                                  : No3 y" }, E% H$ D3 o- h* }
Forced                                   : No& A$ ]5 ~" W% k$ v) t! X/ y
( e6 ]. x% Y' x8 ^8 N8 R
Text #8
( ]( o8 \2 G' f# @( ^) I3 sID                                       : 11
$ \! @/ a7 X; _$ xFormat                                   : PGS
" S( ^0 o  }/ o4 mMuxing mode                              : zlib
! d. @7 T# A- J' l! r; h" iCodec ID                                 : S_HDMV/PGS
. d) t2 |! _5 c  R+ [1 A/ qCodec ID/Info                            : Picture based subtitle format used on BDs/HD-DVDs! z  a- z+ s, h% K
Duration                                 : 2 h 3 min
* l7 T+ E% _9 P9 f7 n6 GBit rate                                 : 25.2 kb/s5 N; [/ |( ]( c
Count of elements                        : 3016
# U7 o- y6 x7 H9 fStream size                              : 22.4 MiB (0%)& r1 Y) D# o" A9 b/ L5 ?! H" y8 o1 a
Title                                    : Chinese-PGS8 U" s5 E, G  n/ n1 e
Language                                 : Chinese) ~0 W' \) R5 L
Default                                  : No  ]4 x6 Q$ S8 z2 X2 v+ }0 z
Forced                                   : No( {  L! x" J7 z4 Y

  u* t, s' A" ]- s6 eText #9
( H8 M/ t+ b, yID                                       : 12+ [; a$ R; O/ k% z: O# M8 m
Format                                   : PGS
2 M6 |8 `% n  ~5 T. b9 p& \Muxing mode                              : zlib
5 i& D- @% L& g0 WCodec ID                                 : S_HDMV/PGS
3 u: P2 ~3 ~) E' B8 @" KCodec ID/Info                            : Picture based subtitle format used on BDs/HD-DVDs* q- P( q& \( ?2 o; J; m# C
Duration                                 : 2 h 3 min7 H7 P5 O7 R. H  a* L
Bit rate                                 : 25.2 kb/s. H- R. o0 Q  X
Count of elements                        : 2972: s9 y8 h0 T% j  U$ z+ }3 `
Stream size                              : 22.4 MiB (0%)% I1 M4 Z9 U. L' Q- z
Title                                    : Chinese-PGS
' G) w, p  G6 v) f2 c; V! HLanguage                                 : Chinese
. Y: l- p5 J9 C0 @) i3 ZDefault                                  : No, z+ ^$ \, y1 F/ i: m
Forced                                   : No
" _( q5 ^) q$ J3 v  D+ i4 o1 a5 Q1 K6 Q
Text #10( q9 h5 P% W6 ]* G0 M
ID                                       : 139 E" {. f/ q' u: b
Format                                   : PGS1 H  A  R0 J( u' [" [
Muxing mode                              : zlib" F6 c. R, W3 g; P
Codec ID                                 : S_HDMV/PGS
3 u* h( B) o& ZCodec ID/Info                            : Picture based subtitle format used on BDs/HD-DVDs
4 a. a% d0 [; n$ L' p# ~& SDuration                                 : 2 h 3 min
3 m/ q4 J9 `6 Q1 IBit rate                                 : 23.8 kb/s
* ~! z/ W% p) U6 p0 X* iCount of elements                        : 3010
/ m. J; ~0 d5 h8 \Stream size                              : 21.1 MiB (0%)
) F6 M8 O4 s- t. uTitle                                    : Korean-PGS
; m' H2 u& m& ~8 g# ?Language                                 : Korean5 S' p" K  b$ W" z; K- G' O
Default                                  : No) B4 H  Y+ ^9 h" O
Forced                                   : No
: K: i' ?" ~3 p* A9 h5 C( `, f
0 p; Y8 {3 X9 UText #118 t1 a1 t! z2 ], P$ I. M
ID                                       : 14
2 J" @' z  S/ F; E; OFormat                                   : PGS
" p6 P+ l' ]" W4 e: k% S$ jMuxing mode                              : zlib# @* k% ~/ \, l- G' }6 K3 U
Codec ID                                 : S_HDMV/PGS, a" m7 w' c8 L
Codec ID/Info                            : Picture based subtitle format used on BDs/HD-DVDs
4 `2 Q8 t* V- L2 C3 O: pDuration                                 : 2 h 3 min- E) d1 m5 b+ g- A; f7 v8 x& L
Bit rate                                 : 33.7 kb/s# l6 [( C# ^5 `8 G" T) `- S6 {
Count of elements                        : 3430" f6 p- x& [+ d, @* j( P7 Z
Stream size                              : 29.8 MiB (0%)
0 a) a$ ^# w: u/ FTitle                                    : Spanish-PGS. J  z8 u2 s! T
Language                                 : Spanish
# D& I: U- E, W' j0 v( XDefault                                  : No! O- h, p0 }, G) w" a! I
Forced                                   : No
' I8 F; ~( D4 s+ b5 b2 ?& D( H( r, Z, e6 _
Text #12
& Z8 j" }. p8 C. \$ {, @ID                                       : 15
& C6 e, M, e0 H: [$ g7 UFormat                                   : PGS( K3 O7 [/ d6 A; o% \/ _0 |. J8 ~2 q
Muxing mode                              : zlib
. ]. v6 g) A, A+ `Codec ID                                 : S_HDMV/PGS) o6 q# {5 v" r0 u9 C! s, ?' `
Codec ID/Info                            : Picture based subtitle format used on BDs/HD-DVDs
: o! ^$ B& s' F( d: u. P# @Duration                                 : 2 h 3 min" o/ A6 i) S8 A  k) X
Bit rate                                 : 29.9 kb/s- p8 E6 T6 B' @
Count of elements                        : 3042
" s( e, K, ?' l/ N/ BStream size                              : 26.5 MiB (0%)
( E# d; k; s! [6 b( eTitle                                    : Portuguese-PGS: p  z2 ?$ Y3 ?
Language                                 : Portuguese! T- c8 b; I9 i5 ]; W* |6 @
Default                                  : No
2 L3 G1 r1 p) S3 k5 ^4 U0 X1 b: TForced                                   : No
+ D" V) I* t2 C% G# ]& y2 ?$ v) {0 M- {' c' A
Text #133 N4 f2 w& [( J$ H: J( A/ E
ID                                       : 162 Q2 F) }( w8 y5 a8 U7 b1 q) \
Format                                   : PGS
- s3 M. y' i# F; D) C( l( u" SMuxing mode                              : zlib
" @! T7 U9 o0 L$ L; VCodec ID                                 : S_HDMV/PGS* U7 h+ R. @- F- y# q- D1 u
Codec ID/Info                            : Picture based subtitle format used on BDs/HD-DVDs
6 C7 u8 ]9 c/ H6 ^* zDuration                                 : 2 h 3 min& N) Y, n* u6 m/ o( Y, v
Bit rate                                 : 16.5 kb/s
2 i5 h9 x2 h- q( w% dCount of elements                        : 30161 F% }$ i0 z3 Q! R) ?$ u
Stream size                              : 14.6 MiB (0%)& Y6 L; r. X3 E# r1 r
Title                                    : Arabic-PGS
) U4 N% U1 ]4 ], k' R) ULanguage                                 : Arabic
2 b2 P2 j0 o6 O' q- s( R: SDefault                                  : No5 k( {+ r1 V: V' v
Forced                                   : No
" d% J( X0 K* d* ^* J/ h6 f. w$ c& |* K1 @- d
Text #14
8 Y% {+ W' ?) E8 H$ PID                                       : 17- Z5 g( p. _4 g0 O1 r
Format                                   : PGS
# L5 p6 i0 o# d. V# ^Muxing mode                              : zlib& u  ^; G$ ?/ _( W6 ^& ^; G& d
Codec ID                                 : S_HDMV/PGS
2 b7 V  r4 d+ O3 Z8 |- RCodec ID/Info                            : Picture based subtitle format used on BDs/HD-DVDs
1 I! X) S5 K0 G6 t3 SDuration                                 : 2 h 3 min$ {6 c6 B+ o' ?+ O0 `1 n
Bit rate                                 : 28.8 kb/s: D8 a" }, l' \$ V
Count of elements                        : 29865 U4 L; j4 j; b  y5 Z& I- r
Stream size                              : 25.5 MiB (0%)) X7 l' ^1 b/ I
Title                                    : Czech-PGS, m3 x, j# d2 p* L0 h
Language                                 : Czech
9 ^/ W$ N2 X3 h6 uDefault                                  : No
( u9 d/ b$ m( }/ t: T" c) yForced                                   : No
' `+ E' j6 }7 @! M! b) Q- H, C, I7 V$ Y: B& M6 R* [
Text #15
, ^  U8 z# R. vID                                       : 184 G! A7 x+ R/ V6 K6 ?+ Z) z
Format                                   : PGS1 S4 |+ @9 k3 f; q
Muxing mode                              : zlib
; _3 S! C# X. h! N/ KCodec ID                                 : S_HDMV/PGS$ u. ^4 B0 L; {1 Q
Codec ID/Info                            : Picture based subtitle format used on BDs/HD-DVDs: `2 h6 a6 s3 P8 G  u
Duration                                 : 2 h 3 min! `, s- ^4 s- s4 _8 p; E
Bit rate                                 : 26.0 kb/s
( z* v7 n. R4 l) q  Z3 gCount of elements                        : 19780 C% H' W4 y- e0 m5 d
Stream size                              : 23.0 MiB (0%)
, ^7 j# ?- v- A# |" RTitle                                    : Danish-PGS
& P# W; B! I4 t7 x4 y5 F2 ?4 yLanguage                                 : Danish
* W0 ?6 V* v% kDefault                                  : No
2 b: F0 w' u; X; v; s2 F5 TForced                                   : No0 \* h8 Y; N$ C$ |5 ?. |# i

$ f4 D8 K! T" ^- o3 w1 Q/ jText #160 a/ m7 \2 g+ ?* D- Z
ID                                       : 190 B' w( Q* M: ~; z' f3 @) p* u$ g
Format                                   : PGS
  g. A1 `: f8 k* z7 s5 RMuxing mode                              : zlib
+ l6 {4 T. h. \# M, M7 J# A: W' wCodec ID                                 : S_HDMV/PGS5 r7 p1 U6 I9 J  n
Codec ID/Info                            : Picture based subtitle format used on BDs/HD-DVDs: R( z8 @2 j2 |) ?0 i
Duration                                 : 2 h 3 min
/ t, h" ~1 p8 XBit rate                                 : 23.9 kb/s
( X" Z* j1 J4 S8 \5 L4 SCount of elements                        : 24647 e- o4 M2 s" W  [3 X
Stream size                              : 21.1 MiB (0%)
" r" \0 x# C4 S/ vTitle                                    : Finnish-PGS/ E% w2 Z% ?  E
Language                                 : Finnish
' U( Z4 p0 x: k; C5 s5 M* Q; D& d# XDefault                                  : No8 F* H% _6 u% I/ T/ G" {7 \' Y
Forced                                   : No
# P1 h5 @! U8 M/ T! {5 v  {$ f7 }$ d
6 J2 J" k0 K% @3 _% W' DText #17$ b1 H0 @/ x+ M$ s
ID                                       : 20, F! f* E2 k6 r
Format                                   : PGS
7 n, T, [+ y3 HMuxing mode                              : zlib, n, e7 {4 G5 G- ?( H' G
Codec ID                                 : S_HDMV/PGS. G' r( {- k. w9 q8 ^3 h1 l- ?
Codec ID/Info                            : Picture based subtitle format used on BDs/HD-DVDs
' j8 w5 J) r5 E3 [# W* a$ V- _Duration                                 : 2 h 3 min
: ^, G) b. n; r0 t  u& ~, cBit rate                                 : 23.6 kb/s$ ^. ^& X, n' r/ c0 z& J8 P
Count of elements                        : 3034* d2 M# w# J5 F; d
Stream size                              : 20.9 MiB (0%)' w6 r' E9 D6 N4 l; L/ l
Title                                    : Hebrew-PGS
  [3 d$ Q2 I4 I& L1 sLanguage                                 : Hebrew& I' P+ ?3 M* x2 }( z
Default                                  : No/ P8 K/ ?* V  W/ Q
Forced                                   : No
+ C3 r; u0 s8 ]  ]3 l* n6 q; m) B9 c
Text #18
$ B" l  m$ c+ k  UID                                       : 21# I3 l; k6 B3 H
Format                                   : PGS. i$ I; R; A) L: t7 e7 M
Muxing mode                              : zlib) K: B* F. N, X3 E( X  E
Codec ID                                 : S_HDMV/PGS
- l( l4 l, v5 d3 D: J7 sCodec ID/Info                            : Picture based subtitle format used on BDs/HD-DVDs" ~" T, v' c1 S4 R' g! r
Duration                                 : 2 h 3 min  u- E. D6 h. J
Bit rate                                 : 27.4 kb/s0 A6 {- Y3 F. k, w5 N' T
Count of elements                        : 2534
% v+ n) S# J  R* E. r. mStream size                              : 24.3 MiB (0%)# }" _, H8 Q* d& M2 y% H# H* [
Title                                    : Norwegian-PGS
9 a1 k$ `* ?$ N% o$ k: ~# \Language                                 : Norwegian0 g7 A& h7 c7 z" A5 J1 j
Default                                  : No8 D" \3 |; S# e' M( E
Forced                                   : No
+ e2 b0 i+ i/ W
& ]" [$ A! R5 R6 ~9 u( cText #19
1 a1 Q" ?7 {$ m: K8 [ID                                       : 22: x2 @8 \" y7 l6 ?* V& |6 u
Format                                   : PGS3 q& [2 q1 y: h! T. @
Muxing mode                              : zlib4 ]5 h; Y) [6 _3 i
Codec ID                                 : S_HDMV/PGS( W: D5 V7 i4 V
Codec ID/Info                            : Picture based subtitle format used on BDs/HD-DVDs, l5 L: N" x" q8 \% ?
Duration                                 : 2 h 3 min, m+ X  h; g" J: L2 w
Bit rate                                 : 28.0 kb/s% d( Y4 {: |* P; F
Count of elements                        : 2952
" y9 e7 d3 K& b* R4 ]8 Y8 f3 tStream size                              : 24.8 MiB (0%)
/ N  S' x) a( N- H. FTitle                                    : Polish-PGS
4 `; Q  ]& c  C6 E: _  z% ^Language                                 : Polish
2 S; l4 q3 [; O* w5 D$ J9 mDefault                                  : No
/ C- I, _3 k6 S0 T" bForced                                   : No
0 N% y* R5 n/ H1 ?- n+ a( S. l: e6 n8 E+ [
Text #20& Z" ^( T: t. v  H9 w# `  n/ ^, l0 }
ID                                       : 23
# p* B* N& I8 K$ K7 {Format                                   : PGS
3 A4 [1 v7 E1 B- j- C$ PMuxing mode                              : zlib9 `; I0 T  I/ Y& f! Q( w% v
Codec ID                                 : S_HDMV/PGS% m, h+ G+ B  G
Codec ID/Info                            : Picture based subtitle format used on BDs/HD-DVDs% a. f1 h: B& A( [5 S
Duration                                 : 2 h 3 min
. ~& [8 I. G& C6 e& p( P+ p: |Bit rate                                 : 29.4 kb/s; d  K1 ?0 Q4 \
Count of elements                        : 29425 J$ P* D! l7 |2 N3 _) R9 q* |
Stream size                              : 26.0 MiB (0%)
4 Y. W  U  D# {5 [7 k. V* ITitle                                    : Portuguese-PGS
) f. k- b) }( tLanguage                                 : Portuguese" [3 ?9 {# e& S; L& b
Default                                  : No
# k4 b/ h1 N: R8 O; a; F; I2 A* c) f% ?; MForced                                   : No
) l. w, x' X+ _. M
) k6 ?( f; j5 ^, S# i6 j) MText #21
! q/ J0 c! Z3 y+ U  MID                                       : 240 O8 _2 [& x1 T
Format                                   : PGS
+ C" D- c  z# D! q1 l. W1 T6 aMuxing mode                              : zlib" ^; Q) b% o) F! T7 I; u9 P6 l
Codec ID                                 : S_HDMV/PGS' q4 ]. y0 A$ i5 }& j) O
Codec ID/Info                            : Picture based subtitle format used on BDs/HD-DVDs5 T) [2 O( j: s- ]2 q
Duration                                 : 2 h 3 min
1 f( _3 b- ^% e7 [Bit rate                                 : 28.6 kb/s+ F% B* v4 e% I( H) ?% u* Y) p
Count of elements                        : 3438
8 z; A" o" V3 ?" _# ?- r3 ]Stream size                              : 25.3 MiB (0%). O4 Q7 C- B3 `: y  M3 r
Title                                    : Russian-PGS) b4 }+ S' O, \* m3 D6 q. s
Language                                 : Russian7 I) I* K% o0 R
Default                                  : No& p" g% L/ q# Z9 s: H: G
Forced                                   : No
% ^# a3 a/ P3 w. R; U6 p. r, L
' ]- @' T$ A0 g% P- y" o; VText #22. `3 `  M! m9 E' Q& W8 X7 B2 ^
ID                                       : 25: a5 ~1 n. F% P2 X
Format                                   : PGS. H# b2 \; v+ e, Z4 J' i5 K
Muxing mode                              : zlib# c8 Q# ~! {2 J! c, [
Codec ID                                 : S_HDMV/PGS, S% W, ^" F7 L- r
Codec ID/Info                            : Picture based subtitle format used on BDs/HD-DVDs
. ^9 U# U* I: R. [: _$ _Duration                                 : 2 h 3 min: J) l- l$ W8 l, t' E5 s
Bit rate                                 : 25.2 kb/s
$ e8 S3 i; `0 C" W2 v7 D* V7 TCount of elements                        : 22361 h  i5 @7 T0 x) @6 _) I. r7 V
Stream size                              : 22.3 MiB (0%)
. G7 _. @! ~( W7 z' k; _8 R# ?Title                                    : Swedish-PGS( X9 T* V5 p2 j5 W- [& T- ^
Language                                 : Swedish- ]1 W7 H* I# D7 T5 e0 ^) a
Default                                  : No0 n& r+ ^, I0 T7 L
Forced                                   : No' m: p$ u( K7 z( x( M1 `- p
9 `' C( `; J/ g& T3 c
Text #23% I: [6 Q- M; Z6 `" X
ID                                       : 261 ]/ H( L: V4 A% @
Format                                   : PGS7 j  Z5 `2 m+ s: G! X5 g4 K8 g+ p
Muxing mode                              : zlib
9 ~9 O+ k1 l6 O7 g$ g! qCodec ID                                 : S_HDMV/PGS5 V7 |! N7 u) j
Codec ID/Info                            : Picture based subtitle format used on BDs/HD-DVDs% u) [* H6 B/ r9 w
Duration                                 : 2 h 3 min
+ f! J9 T" ~( e$ U( ^8 WBit rate                                 : 30.0 kb/s
$ H) Q/ B3 N  e# u0 R' dCount of elements                        : 3048
8 a+ ~& z7 e5 B! H  X0 cStream size                              : 26.6 MiB (0%)
$ F3 {# B! C3 ITitle                                    : Turkish-PGS! q4 i" _' |# q( e+ f# `" {% `8 x) J0 U
Language                                 : Turkish
" p8 H) h# n: r! ?# q7 e7 MDefault                                  : No8 p1 G2 z3 B" w7 F
Forced                                   : No
" I+ y- T# W3 c: @' R+ X( n
8 n. k/ W! t2 n$ N: u5 q& XText #24
) E3 c3 u) o- E& \3 e) }; X& v/ nID                                       : 276 `* T+ ]7 i  L" z
Format                                   : PGS
% ]% h0 i) R: Z6 U1 @2 ~# z3 xMuxing mode                              : zlib6 {$ p& A+ A2 w
Codec ID                                 : S_HDMV/PGS
" I6 s& _1 P# ^- b6 \' UCodec ID/Info                            : Picture based subtitle format used on BDs/HD-DVDs
6 S, x+ a9 `1 s/ P0 {" v1 rDuration                                 : 2 h 3 min
/ ~8 J# [1 @* X2 ?Bit rate                                 : 395 b/s
4 C2 Q" B) u' wCount of elements                        : 30, L% X" k9 b0 z( m9 Z
Stream size                              : 359 KiB (0%)
" [. E3 ?) x: z. k' PTitle                                    : French-PGS
  P7 `) Q# N  E% W3 KLanguage                                 : French
0 ^) O( ]6 x+ H0 A: `3 @0 d# l5 `! SDefault                                  : No
* c' x9 q1 l& _1 [" j7 O) K/ pForced                                   : No
9 X! s/ p/ O# W# n3 z# H3 ]
/ W1 b. F8 n+ j+ |/ Y; j7 JText #25
2 B; G  e+ }0 C/ ^# ~8 y+ |1 I, y7 @: rID                                       : 28
: j; k9 h* [6 G5 ]+ @Format                                   : PGS
9 V- D/ h! W& }Muxing mode                              : zlib& f4 {1 ]9 P+ `& |: L1 w# Y
Codec ID                                 : S_HDMV/PGS
# z4 n4 f0 I" M2 E7 O" z# qCodec ID/Info                            : Picture based subtitle format used on BDs/HD-DVDs  C# A; v' A9 k. }) Z1 J
Duration                                 : 2 h 3 min2 B0 ~* _% u+ b  I: h
Bit rate                                 : 470 b/s# w) R& ^* X3 H- x* x2 T# k2 i
Count of elements                        : 32
7 \; b7 k5 k; ZStream size                              : 427 KiB (0%)7 X7 [# z8 d: t& C; L$ N: P
Title                                    : German-PGS
/ N& K7 f& {; Y0 WLanguage                                 : German7 \4 J; T9 m3 f: H( q& H( W2 W
Default                                  : No
* }3 M' W+ X! ^" K4 HForced                                   : No5 H# g: m# D# S) e5 F

3 W. f9 Z0 z0 }" f) ^Text #269 M6 n. c9 V0 u. Q
ID                                       : 29
4 q* ~) E4 J3 J5 `. z' YFormat                                   : PGS1 `& v: H; c0 H- j: I" j( R2 V
Muxing mode                              : zlib6 K- L7 ^' h& {
Codec ID                                 : S_HDMV/PGS
4 k% E. Z* F! g% ^+ R/ w: y, gCodec ID/Info                            : Picture based subtitle format used on BDs/HD-DVDs
! k  F/ Y" x, H$ P+ ~& BDuration                                 : 2 h 3 min- C  @4 r0 b( e5 s
Bit rate                                 : 561 b/s. t" `  \0 _" C' b! H3 J, s
Count of elements                        : 40
3 j4 [. {% e  Y! m% _9 J" k8 W2 Y6 JStream size                              : 509 KiB (0%)
* p( M8 f, k" T& |Title                                    : Italian-PGS
& B6 n5 R# W: VLanguage                                 : Italian6 l9 T% E9 l$ K4 F: p9 ~- j# [
Default                                  : No
. t& K* @, s" ], D, C; DForced                                   : No  @/ C, t) G+ f" k
) G. ?5 j, s& n6 @# f- \
Text #279 N! E+ F; u# i' p" p; `! u8 }4 |: T
ID                                       : 30
: I( L$ J+ V3 D! GFormat                                   : PGS0 l* W  q, Q7 j) J
Muxing mode                              : zlib: y& p7 m3 G  {8 g
Codec ID                                 : S_HDMV/PGS: v' {5 V3 g, v6 {' O
Codec ID/Info                            : Picture based subtitle format used on BDs/HD-DVDs- K6 y4 r' e8 R/ l' J- z$ R
Duration                                 : 2 h 3 min8 K8 F7 ~$ D7 B# H5 S9 i0 R; _
Bit rate                                 : 447 b/s
) z; k. e/ _) P, SCount of elements                        : 30
! i( Y* `; J, r8 L( Y8 F* T2 ]Stream size                              : 406 KiB (0%)' S( _2 G* R: B  |0 p& n/ z
Title                                    : Spanish-PGS
/ [5 k0 Q! c3 C1 g- W* e* O; ?3 k/ OLanguage                                 : Spanish
6 N, \' m! G8 mDefault                                  : No
/ Z1 \- E2 U& {/ m+ A- pForced                                   : No
6 `3 m3 f0 D. S, [5 Y$ F$ X$ N$ U- H' X2 ?; N
Text #28
& d* E2 h6 u+ N  H2 @ID                                       : 31
0 G0 a: G& t' A/ L, B% k2 j9 G7 yFormat                                   : PGS  x# Y# s; R8 e" N, i2 }1 h
Muxing mode                              : zlib
/ i' P. a6 z- p7 r% @Codec ID                                 : S_HDMV/PGS
* f: _- R' t) W/ ECodec ID/Info                            : Picture based subtitle format used on BDs/HD-DVDs
1 e/ p  \6 |9 ?$ q- ?: j; E4 RDuration                                 : 43 min 45 s  q5 R- l( S. v: u$ n, H
Bit rate                                 : 111 b/s& [& c9 X  U( y/ g# ^
Count of elements                        : 6
! u! K$ r: z4 P( Y7 g1 ]# L) l$ }Stream size                              : 35.7 KiB (0%)" _) m4 _9 _( u0 O
Title                                    : Spanish-PGS
3 l# {2 d. w* VLanguage                                 : Spanish
% z9 I6 N( [0 h( ]) b% _& VDefault                                  : No
3 Q2 e1 N! Z  [0 `7 h; n* l# sForced                                   : No0 T* U$ p% N+ v- Y+ c* v

. i# H6 [$ ?5 j" _; NText #29
) f% o% O4 f0 Q, n, ~) d/ BID                                       : 32' ~. f$ \( i: ]% M9 P4 W' \
Format                                   : PGS
; ?- c, u7 h" L3 r( ?2 z: ?Muxing mode                              : zlib
: u7 c- Q; W9 H, G5 lCodec ID                                 : S_HDMV/PGS# x$ c5 b& W0 y, O) \/ w& `
Codec ID/Info                            : Picture based subtitle format used on BDs/HD-DVDs
- [/ C* \( O+ K! ^8 D" PDuration                                 : 35 min 8 s
& C: @# F0 d& V& W) u* r/ OBit rate                                 : 74 b/s* F- E9 x" J# l4 l) R4 c
Count of elements                        : 4
* O0 g# k4 a0 P" a- ]) a3 pStream size                              : 19.2 KiB (0%)
2 ]: o& V. h* |; ?& FTitle                                    : Portuguese-PGS9 _# d+ b  {( v$ H# V8 t
Language                                 : Portuguese
! `  ^5 E1 W6 PDefault                                  : No$ P% H( @! C: j; S
Forced                                   : No; F2 Z4 _/ S; ~" O
2 F& i4 @) ?6 W. @. P* o/ j
Text #30
# I) Z. J  l9 M) ^$ gID                                       : 330 L% y. |) x" D/ X& w; S; H
Format                                   : PGS' G& ~! z: k2 s' P3 G" s  w
Muxing mode                              : zlib- Z1 q1 S0 C& y/ g
Codec ID                                 : S_HDMV/PGS
7 u9 C: T4 [9 a4 `Codec ID/Info                            : Picture based subtitle format used on BDs/HD-DVDs# l& o* z! M, N9 M; R8 m! L* N
Duration                                 : 2 h 3 min
6 `4 L% w: I; i: Z  X& rBit rate                                 : 144 b/s" o# \+ O3 g5 u
Count of elements                        : 14
  f3 F2 s& |9 p. KStream size                              : 131 KiB (0%)
0 V# f5 h" w- [4 n- OTitle                                    : Czech-PGS6 j$ ]* c" M3 |/ v5 P& J
Language                                 : Czech
9 L0 l5 U/ C; ~' X0 PDefault                                  : No
" v3 r! u/ v/ VForced                                   : No
9 P; M2 p  N$ [) g0 w. v1 m( y- G5 n1 w) t# I# x7 p) y
Text #31, N& X  b, e" _$ I6 ?& |
ID                                       : 34/ g' }! J  ~. ~0 K7 h$ u
Format                                   : PGS/ H- V* r4 C- t: ]: N
Muxing mode                              : zlib
& Z9 y0 E% u5 e; v. xCodec ID                                 : S_HDMV/PGS
' v8 b; b! e, R( F$ @9 _Codec ID/Info                            : Picture based subtitle format used on BDs/HD-DVDs
' U8 ]  H) x, ADuration                                 : 2 h 0 min" N& K! n+ d# ^+ s- T) V3 s8 Z7 v
Bit rate                                 : 23.2 kb/s
5 _0 h% `5 ]' e3 V" f* M* k5 G8 ECount of elements                        : 31019 R- h7 Y% W6 N2 |! I: R
Stream size                              : 19.9 MiB (0%)
- k8 u1 C1 O! S( c; i5 G0 MTitle                                    : Japanese-PGS6 S% U( H8 G/ P$ d4 K
Language                                 : Japanese0 `1 N5 [" ?' A7 A/ r# l
Default                                  : No; h0 T0 J# c4 ]5 C6 x4 B0 x& J3 ]5 r6 O
Forced                                   : No
3 @+ H/ P4 o  J2 [8 y6 l- C$ A! {/ V: |
Text #32# a; _  ~8 B+ Y7 n* T
ID                                       : 35" w: W" ~$ Y$ [( _! D' k  \
Format                                   : PGS
" H5 Z, H( j5 Z7 s% O6 X5 _Muxing mode                              : zlib
$ y$ s" w  x+ s" ~& _8 MCodec ID                                 : S_HDMV/PGS- Z$ L8 D, S9 D  F! _
Codec ID/Info                            : Picture based subtitle format used on BDs/HD-DVDs( `2 u! H' [5 S! I4 e% m
Duration                                 : 2 h 0 min4 F! \0 {; }. M/ v; b
Bit rate                                 : 551 b/s* T& _' S3 ?3 ?8 c
Count of elements                        : 239
$ Y- B3 V8 F+ ~8 G& ?% d+ p' b0 H; }Stream size                              : 485 KiB (0%); G! e! S& ?8 }* g
Title                                    : Japanese-PGS
5 [! _2 c( t+ Z  GLanguage                                 : Japanese! B: r/ B. {' q; `/ {
Default                                  : No
9 P5 G5 r1 r- A# R' L  D- F" s' VForced                                   : No) W3 K/ ~0 Y( w, o# ^  e5 k7 R
" c. A1 h: D8 V' W7 `$ O$ m+ N
Text #33
& p3 a9 _! C  ?% d( TID                                       : 36
$ q3 P8 X+ w3 X9 Q2 h& hFormat                                   : PGS
5 \7 K0 S4 D; B# K, |2 @Muxing mode                              : zlib
4 x) ~# [5 ]# ]# |  CCodec ID                                 : S_HDMV/PGS, E& [+ O- g. W: u6 X+ W
Codec ID/Info                            : Picture based subtitle format used on BDs/HD-DVDs
& H# H! ~, M" t, c3 N( SDuration                                 : 2 h 1 min
4 _; j$ y2 Z' g% B4 FBit rate                                 : 41.4 kb/s, V4 z2 t# Q. e- E7 H
Count of elements                        : 3567
6 L$ p/ d1 f' vStream size                              : 35.9 MiB (0%)
, N; i0 }1 a- u( hTitle                                    : Japanese-PGS. D2 `8 f1 ^# w/ K' i$ T+ s  i3 n
Language                                 : Japanese% c, u* h3 s7 @  M
Default                                  : No' |" q7 w6 L+ S! T- C
Forced                                   : No' u6 k/ n/ `0 d6 P; v( ?: |9 B

7 J0 Y0 w( [% p: b' q8 [$ KMenu" K! L6 a% t3 q% e; }" w* {
00:00:00.000                             : en:Chapter 1
) }" w- L/ |+ ^00:10:12.486                             : en:Chapter 2' r4 P1 m2 s; @- k' m2 P
00:17:49.693                             : en:Chapter 3
% J3 V7 F$ T5 |4 w9 O/ ?  L00:29:18.173                             : en:Chapter 4  G3 F$ W6 ~2 }
00:38:44.780                             : en:Chapter 5
0 O- A! g: u$ e* r! {00:50:41.580                             : en:Chapter 6% j6 g. D0 J! p+ s7 H9 P
00:58:39.891                             : en:Chapter 7- \0 J/ z4 ~  C4 u& d3 h' f
01:09:07.017                             : en:Chapter 8; ~+ m9 [3 f. @9 ?0 ?" q
01:17:30.228                             : en:Chapter 9
2 A4 L: |+ ]1 b5 X% w8 A01:28:08.074                             : en:Chapter 10
) \" G3 c$ c& X% |! Y01:37:57.621                             : en:Chapter 11
/ h) \1 n. f$ y$ Z. ]01:48:41.264                             : en:Chapter 12
+ u! O2 T2 Z4 X4 ]) ^01:57:47.268                             : en:Chapter 13
SWEATY BALLZ presents
" `$ n# t8 z* m- o
* v( b1 i) H8 {7 _3 L( s4 WThe.Town.2010.2160p.BluRaycd.x264.8bit.SDR.DTS-HD.MA.5.1-SWTYBLZ 28.77 GB  G& D1 a2 X- y
Converted from 10 bit HDR to 8 bit SDR using tripple mixed Hable-Reinhard-JJ per scene+frame analysis algorithm
; ?2 k7 N" Q5 J3 Q$ T* X* H6 D; W) ~1 v% y3 ?4 v* c
Video
5 Z5 ]$ J+ n( U1 ?% BID                                       : 1  g' X. \* O" ?3 ], V) {% R
Format                                   : AVC
* f" j1 Y* Q6 L; _Format/Info                              : Advanced Video Codec6 {9 J; M9 t0 R# s) W
Format profile                           : High@L5.18 U( }* S2 ]) x3 \- g. {2 f7 ~
Format settings                          : CABAC / 5 Ref Frames
8 [: R/ b0 V, B+ ?5 N) MFormat settings, CABAC                   : Yes
0 b( ^" k( c2 m' M5 ?8 G" \Format settings, RefFrames               : 5 frames& o; }) H$ O5 v  `# ~$ I
Codec ID                                 : V_MPEG4/ISO/AVC
' D4 l$ p) j" Y/ \# pDuration                                 : 2 h 4 min
. q( g/ H: m' q$ v# O8 `Bit rate                                 : 29.1 Mb/s
) W9 E2 j3 C+ I8 \# V9 _Width                                    : 3 840 pixels
* X0 p: V) t: d- l9 e; q* A, UHeight                                   : 1 594 pixels
/ C1 e# q& {+ B1 L: U& r' j% iDisplay aspect ratio                     : 2.40:1# L7 T* y$ |+ q3 X* t$ p4 l2 f
Frame rate mode                          : Constant/ U! \& b  G- M5 _& u% h/ [
Frame rate                               : 23.976 (24000/1001) FPS# K  o1 U1 @0 y3 {8 L3 W
Color space                              : YUV6 G9 b. s% M1 {$ A* ~
Chroma subsampling                       : 4:2:0+ @& y4 V  U4 i2 r9 i8 g
Bit depth                                : 8 bits
. T! M$ X9 u2 m* mScan type                                : Progressive; F5 P* q4 Q" j* z, L3 F
Bits/(Pixel*Frame)                       : 0.198# I" n  p  [2 n5 i" g+ N3 j6 E
Stream size                              : 25.3GB (89%)
+ P8 b6 ^" ~$ I- y8 g  G: R8 lTitle                                    : The.Town.2010.2160p.BluRaycd.x264.8bit.SDR.DTS-HD.MA.5.1-SWTYBLZ
; I4 j/ _" \0 l7 S& o3 y% m& p5 DWriting library                          : x264 core 148 r2748 97eaef28 a5 {, ^6 l8 l# O
Encoding settings                        : cabac=1 / ref=5 / deblock=1:-1:-1 / analyse=0x3:0x113 / me=umh / subme=10 / psy=1 / psy_rd=1.00:0.15 / mixed_ref=1 / me_range=48 / chroma_me=1 / trellis=2 / 8x8dct=1 / cqm=0 / deadzone=21,11 / fast_pskip=1 / chroma_qp_offset=-3 / threads=50 / lookahead_threads=4 / sliced_threads=0 / nr=0 / decimate=0 / interlaced=0 / bluray_compat=0 / constrained_intra=0 / bframes=3 / b_pyramid=2 / b_adapt=2 / b_bias=0 / direct=3 / weightb=1 / open_gop=0 / weightp=2 / keyint=250 / keyint_min=23 / scenecut=40 / intra_refresh=0 / rc_lookahead=50 / rc=crf / mbtree=1 / crf=22.0 / qcomp=0.60 / qpmin=0 / qpmax=69 / qpstep=4 / ip_ratio=1.40 / aq=1:1.00# ~  h" G! O1 V3 W
Default                                  : Yes% ]* C% y/ N7 |, R) m
Forced                                   : No/ Z. y1 d; G) ?9 M- s4 J8 L

9 R: d3 Y8 \3 e+ pAudio #1+ ^9 f4 E: d8 Z2 }) k( a4 [  {  j
ID                                       : 2" n: ?( U( x- o6 a. v
Format                                   : DTS
' t" H9 b0 G  z& K" Y( |Format/Info                              : Digital Theater Systems5 S/ y3 e9 ^$ M: [% ?: g
Format profile                           : MA / Core# M9 i. l! @, u
Codec ID                                 : A_DTS
0 f/ k& _! n. W4 LDuration                                 : 2 h 4 min
" ?0 @+ |$ O7 b: t5 z: ZBit rate mode                            : Variable / Constant
# J) G% q. R% j* o! m' o# RBit rate                                 : 2 722 kb/s / 1 509 kb/s# w' S; u( w" ~. J! F
Channel(s)                               : 6 channels
5 h% t/ J: z6 L" f2 ]- L0 _. Z4 NChannel positions                        : Front: L C R, Side: L R, LFE- l9 ?8 m% P% p$ L/ S
Sampling rate                            : 48.0 kHz
0 K0 Q) ~- w6 x! n3 U+ }& oFrame rate                               : 93.750 FPS (512 SPF)
  o: n" y+ d& a* |0 PBit depth                                : 24 bits
7 h# b/ k$ D2 D5 OCompression mode                         : Lossless / Lossy8 r1 R1 c- c4 K( k, ~0 T- T3 j
Stream size                              : 2.37GB (8%)
9 R3 Q3 T6 x' R0 G, G) A" C5 dTitle                                    : The.Town.2010.2160p.BluRaycd.x264.8bit.SDR.DTS-HD.MA.5.1-SWTYBLZ6 ]" G. c4 ]; {8 P) L! g9 S
Language                                 : English6 j& b3 [# g5 L) _$ R: @1 h* h) L
Default                                  : Yes& t1 S) W$ q' U7 J
Forced                                   : No
- J) m% e6 {* P* Y
2 O2 G  H6 m/ h6 _Audio #20 Z! ]4 d+ w: E& }1 B
ID                                       : 3
% l2 G- t9 ~9 d$ `Format                                   : AC-3; [6 z1 A2 A6 T* F; q0 T
Format/Info                              : Audio Coding 3
0 i" r7 p6 [( @5 |7 oCodec ID                                 : A_AC3
% T$ }* X. T9 o, |  X+ EDuration                                 : 2 h 4 min% j3 T4 v! N9 X, F. j) _$ P: ~
Bit rate mode                            : Constant
& i0 q3 i4 s4 j) S& x  }+ OBit rate                                 : 640 kb/s
& L- p% F! p. Y- N: b  EChannel(s)                               : 6 channels
. F( z/ A/ e/ j# H/ uChannel positions                        : Front: L C R, Side: L R, LFE
" K- |6 Q2 ?# Y9 B1 tSampling rate                            : 48.0 kHz
- n( u' o: K7 P/ _Frame rate                               : 31.250 FPS (1536 SPF)
- O" T& q& H% K% z3 l- TBit depth                                : 16 bits
' P( u1 g6 B& q. P) DCompression mode                         : Lossy
0 n/ }; \/ J: M$ W0 y( ]; k! SStream size                              : 571 MiB (2%)
6 z! X" S/ Z# d! f( V/ n9 wTitle                                    : The.Town.2010.2160p.BluRaycd.x264.8bit.SDR.DTS-HD.MA.5.1-SWTYBLZ* ~2 H3 w8 ~- x, [# ~. G3 f
Language                                 : English7 a; }& a* i- j$ M) H
Service kind                             : Complete Main9 o7 n4 k, c6 F1 K9 ~, \
Default                                  : No
' {5 A: ?4 t+ X) D. {+ O! @5 dForced                                   : No
' _* j7 t( P7 c. W4 }: [. d% M3 w0 l* }- b' r' d- o
Text #12 L5 l* ]  |9 Z2 I& h3 F" }/ a
ID                                       : 4
* c) {9 L' G! r: \+ CFormat                                   : UTF-84 b3 i* H: F" j  C
Codec ID                                 : S_TEXT/UTF89 w& j' ]/ D! Q/ s- K4 R( m
Codec ID/Info                            : UTF-8 Plain Text& R9 |4 W1 D" t$ a
Duration                                 : 1 h 56 min; B- ]5 }$ A! E& N6 @6 z0 ^+ u
Bit rate                                 : 61 b/s
: p) K1 C8 I; I- U( r) L  PCount of elements                        : 1475$ D4 K5 X5 D! H% |
Stream size                              : 52.6 KiB (0%)
) ~& R& \7 K  A6 W4 v4 b; U/ ?; yTitle                                    : English-SRT
# C. x3 N% [' g% Z1 gLanguage                                 : English
8 M$ {0 O( r- ?: D& }& dDefault                                  : Yes
1 V5 H* w& q7 U" n8 {Forced                                   : No0 `/ \$ J8 t) k2 M& v, u
! m; f5 O9 Y) g" b) a1 ]" M4 Z
Text #2  z% a/ N2 w7 [( l4 q5 ]0 Z4 s
ID                                       : 5$ f. n- I9 r  ]6 d' h1 q/ Q
Format                                   : PGS( v( w, f' A1 N" n0 n
Muxing mode                              : zlib6 j' U2 W4 [) {3 z; ^: n
Codec ID                                 : S_HDMV/PGS+ u2 J0 U3 j: i1 W
Codec ID/Info                            : Picture based subtitle format used on BDs/HD-DVDs
& F. ^* A% I( N% ]; i- H) IDuration                                 : 2 h 2 min) F( J. Y& Y/ \8 X1 |
Bit rate                                 : 35.8 kb/s; X6 ^3 z: l% V: Q# t
Count of elements                        : 3066
( G- @6 ?7 `6 ?: N4 V2 r: sStream size                              : 31.5 MiB (0%)
3 b) H0 n2 O. v* a5 i( s! p9 N6 |3 bTitle                                    : English-PGS1 a3 s( j4 z8 N1 o# d' Q2 G
Language                                 : English* A0 X+ S9 e' G
Default                                  : No* J3 ~3 b% j, G3 x/ W% u$ l6 Z
Forced                                   : No
- x, v: j0 N5 B3 Z) U/ D0 t, c, r
Text #37 H& ^/ B1 m; L
ID                                       : 68 v+ w+ Q/ I8 [, z$ E; r* \- {, x
Format                                   : PGS
9 n0 }( W* z/ f2 N2 S- zMuxing mode                              : zlib. s% U; d+ K* o8 H1 k( i* N' s
Codec ID                                 : S_HDMV/PGS
7 ?4 L( d6 i. U$ p7 C5 n& `6 ICodec ID/Info                            : Picture based subtitle format used on BDs/HD-DVDs2 {( p# G8 S% B5 b5 ~: Q
Duration                                 : 2 h 3 min9 |9 p! I/ V5 O. `9 Z2 ^
Bit rate                                 : 24.4 kb/s
, W( V. N8 n, O  @4 E8 H8 rCount of elements                        : 2876
. K% J7 N, ^4 Y, y3 v7 wStream size                              : 21.6 MiB (0%)+ H- p- q4 O" K' n( p: i; l
Title                                    : French-PGS
: g  s7 I. m/ Z, ZLanguage                                 : French3 W, ~- Z% ~0 U% ~4 D3 n$ Z
Default                                  : No3 c5 p* o% y- N: p) t
Forced                                   : No
, ]) l2 M  j) F- M
5 G$ S! a1 y6 N- mText #4
3 [# E+ F# i7 ?0 BID                                       : 75 u5 r' K/ R0 U" p2 R
Format                                   : PGS5 m3 w& t1 Z! G6 ~
Muxing mode                              : zlib8 @1 V5 L/ d+ Z* h# N; E
Codec ID                                 : S_HDMV/PGS
" R9 l/ H2 |/ T9 BCodec ID/Info                            : Picture based subtitle format used on BDs/HD-DVDs0 I2 |% x  }0 s) j' i9 r  l1 C
Duration                                 : 2 h 3 min
1 z) v! c- x5 u5 x# ?, d* BBit rate                                 : 41.7 kb/s4 {* o. G  r, c4 k
Count of elements                        : 3200
0 F) D; _( w: y8 c) t0 Q% {Stream size                              : 36.9 MiB (0%)3 o$ w3 j. [9 E- Y+ P0 {" O
Title                                    : German-PGS
( r7 W! `' u6 ^/ a$ A1 K0 t0 ^Language                                 : German( d# Y- X& k# c& P; M  S$ j( |
Default                                  : No" L. v% J: y- {6 @& H: x! i( U
Forced                                   : No
/ a! u5 x+ ^# M  i
8 |8 A: l  J3 bText #5
9 m3 l+ K, G7 k, J) U- {' fID                                       : 8
8 [9 _# }) H5 j8 uFormat                                   : PGS" E, H+ G. ?7 w: m  M0 @6 Q& ?+ }
Muxing mode                              : zlib
# r% D% C, T; ^5 V, b& zCodec ID                                 : S_HDMV/PGS' @# t, {: e: v% Q# h* J
Codec ID/Info                            : Picture based subtitle format used on BDs/HD-DVDs2 X8 r; J3 t0 G1 I
Duration                                 : 2 h 3 min# I  b& o! t. T7 V& K( I  n) p8 f
Bit rate                                 : 32.9 kb/s
% c( p* p! V' D  p# {" I7 ZCount of elements                        : 3104
0 s7 B7 E* S  ]2 t3 P, WStream size                              : 29.2 MiB (0%)5 E# Q/ q  @5 k! d) A$ E' w
Title                                    : Italian-PGS' g1 @( N( I4 t' v2 o& a/ y
Language                                 : Italian
! G* b/ P+ w0 z0 J& m/ sDefault                                  : No0 A+ g; @. Y6 P7 I, x6 a. P
Forced                                   : No- ]' H2 V; L5 w% k$ [5 P
6 _5 f  l; c: H6 M# F  K- o
Text #6
: p" F* b$ M5 Y  jID                                       : 9  u4 V; L% a  X3 I6 m
Format                                   : PGS9 D! u+ q; ?; y, _: l& u
Muxing mode                              : zlib% s& M( L. _/ g% k6 w" H
Codec ID                                 : S_HDMV/PGS
* R) F9 q. ~9 Z! k, bCodec ID/Info                            : Picture based subtitle format used on BDs/HD-DVDs. i* r3 e6 M( O# t9 R3 _! f
Duration                                 : 2 h 3 min2 t4 H. j! _, R" W
Bit rate                                 : 27.0 kb/s
+ }2 u6 `' }& R1 x) s/ @, E8 N0 fCount of elements                        : 2934/ ?/ P8 J8 n% T! U
Stream size                              : 23.9 MiB (0%)
' D7 `2 _4 w% a; jTitle                                    : Spanish-PGS; \, c6 n) T: T) H( r$ Q
Language                                 : Spanish
2 x8 D% X" m4 \9 }4 t5 @% \. R$ {Default                                  : No! T2 e, E+ l' t7 c% \" c1 n7 D  A
Forced                                   : No
  m, m; g  ^' T; p2 w+ h) R$ y- F5 I) D" i$ R7 F, ]
Text #7
9 A, n" C5 ^0 ZID                                       : 10' I) k4 H! v3 M  @( O
Format                                   : PGS
% r7 P7 I2 F9 x& s, v5 tMuxing mode                              : zlib  d$ [! b5 ~' f  R* z1 m
Codec ID                                 : S_HDMV/PGS
* _+ c5 v. h5 p& wCodec ID/Info                            : Picture based subtitle format used on BDs/HD-DVDs
9 s) @" M4 s8 L' [4 j7 R6 NDuration                                 : 2 h 3 min
% z( r, ^1 }6 x1 C! CBit rate                                 : 26.4 kb/s
" P9 V, j2 l' g, G. K! E' ICount of elements                        : 23668 a. N/ h3 G5 X6 V/ Q
Stream size                              : 23.4 MiB (0%)
( x9 I" N# i  ]' m0 |, QTitle                                    : Dutch-PGS
" ?' w! p) {% e9 a4 i8 x' ULanguage                                 : Dutch* N( E( r3 K- ?( k
Default                                  : No" s0 u% x+ N/ B- V+ k
Forced                                   : No3 y2 @2 L% G. x0 y, S
. {5 H2 E: ]5 D% E
Text #8
0 B5 P3 i$ F% T& l# x2 Q% kID                                       : 11, L. N8 s. G' K5 a
Format                                   : PGS% e1 v$ t! e1 e+ N' R8 q
Muxing mode                              : zlib
& s- q: Z; K- \/ L7 UCodec ID                                 : S_HDMV/PGS
: [- ~: K4 H/ k# c- @Codec ID/Info                            : Picture based subtitle format used on BDs/HD-DVDs
0 Z6 `" x. m  m0 o7 _+ L( fDuration                                 : 2 h 3 min
& N( x2 @! Q1 U: uBit rate                                 : 25.2 kb/s
5 I1 S0 O3 F0 d% KCount of elements                        : 3016
! e, F% X8 }  I& _* t  dStream size                              : 22.4 MiB (0%)2 C9 o! q' q! Z9 `9 u) j9 v9 M$ t( T
Title                                    : Chinese-PGS6 a0 D8 l4 G4 ~, I3 q
Language                                 : Chinese8 H9 U2 N+ A+ i% R; D2 A  {) S
Default                                  : No. g/ b9 r+ w' k# \/ V4 X9 n3 j
Forced                                   : No
, ~- }* |* m+ L. P! c# @( E* q0 [  v
& h( L; ~, w$ ^Text #9
! a. y+ R2 G3 @7 P& F4 _ID                                       : 126 F) P9 @6 f2 F) i: L; ?) }$ Q
Format                                   : PGS
# X3 i- A9 A9 aMuxing mode                              : zlib
1 y& j- w+ O; m8 X& I  V8 l/ HCodec ID                                 : S_HDMV/PGS% h  d- J/ F" P$ z  k$ t
Codec ID/Info                            : Picture based subtitle format used on BDs/HD-DVDs  W6 \1 M% @% O$ x- T7 D
Duration                                 : 2 h 3 min5 b7 y5 r7 E8 H9 I) J
Bit rate                                 : 25.2 kb/s
) ^0 T/ D0 S! t0 T+ zCount of elements                        : 2972
2 a# n( B1 F/ W$ K% B1 AStream size                              : 22.4 MiB (0%)  G7 B& V3 x% |) x% |! D
Title                                    : Chinese-PGS
8 x+ n$ l3 w9 U0 i+ `Language                                 : Chinese5 s5 \9 ~! Q! s' ^/ e$ |& b
Default                                  : No: T0 z- c0 ~6 t1 T' B/ X7 {
Forced                                   : No
2 r# n8 G, e' Z8 b5 x7 S* J7 v+ z. ~$ G* A" T/ w
Text #10
, u9 ^7 }/ P; }! K$ v# |ID                                       : 13
* ^% `4 i# I; l' H- i7 l; PFormat                                   : PGS
0 G1 c7 N7 ^: A6 C. `7 PMuxing mode                              : zlib* Y7 t) @7 u- h$ K3 N2 Z' v; h
Codec ID                                 : S_HDMV/PGS
  R& {+ b+ y* ?; M" f: v& L; [9 L, ^Codec ID/Info                            : Picture based subtitle format used on BDs/HD-DVDs
4 k9 `: e7 d0 `. o. s& ^Duration                                 : 2 h 3 min
( a4 x$ ~0 U! ]2 dBit rate                                 : 23.8 kb/s0 R7 D& t' i! k0 j0 P
Count of elements                        : 3010) D# Y& h- L9 F  r- D! a
Stream size                              : 21.1 MiB (0%)
( j- h5 w2 r; L* e. y' I; pTitle                                    : Korean-PGS
" C; S, s% }+ S  x9 CLanguage                                 : Korean
9 F3 w6 z( L  |3 M5 vDefault                                  : No
: {: a  Q# @7 {Forced                                   : No4 w0 ?$ v& _5 \/ W; [  W: z& P* t
& j( |  {- g: P6 W2 V. r
Text #11
' F0 r& _, J# g" B+ wID                                       : 14
( ^& G* f6 G  G7 x" a, w1 b6 Y8 hFormat                                   : PGS, h& a3 r" R: h
Muxing mode                              : zlib+ j# v  Y) b2 [6 U+ t6 A
Codec ID                                 : S_HDMV/PGS
1 \, z- H1 k. DCodec ID/Info                            : Picture based subtitle format used on BDs/HD-DVDs( F+ {3 B: q. X+ M& U6 z
Duration                                 : 2 h 3 min
, g# Q% M% D) @" w- uBit rate                                 : 33.7 kb/s
' `: U; A+ e2 n; a1 WCount of elements                        : 3430
1 K! n( z& r9 zStream size                              : 29.8 MiB (0%)
1 h4 _. F1 v' ?& P5 Q& bTitle                                    : Spanish-PGS
' j& Z& U5 @( Y2 x( p" SLanguage                                 : Spanish4 u( b, Q' s  `9 F
Default                                  : No
* |* t; _& {2 R* R# rForced                                   : No
/ `. S; A* J6 F  B; e- q5 e- ^! ^; X! W
Text #12
( Z: T6 U- y/ hID                                       : 15* A6 G( M" {7 W2 y: V
Format                                   : PGS
( V& J2 P* Z9 I' d4 MMuxing mode                              : zlib
& D0 g/ u1 r4 Q7 r5 ]" QCodec ID                                 : S_HDMV/PGS
* j7 E+ }$ R. g9 ?# E. {Codec ID/Info                            : Picture based subtitle format used on BDs/HD-DVDs  x! d1 M. D7 W1 b) r" r* f" V1 g" ?& T
Duration                                 : 2 h 3 min3 ]. ]% c9 u# u# R* C$ K
Bit rate                                 : 29.9 kb/s
+ I( i6 R" h3 U" M1 D- S+ X4 B* J% mCount of elements                        : 30427 W9 z2 v% ~& R
Stream size                              : 26.5 MiB (0%)5 `2 T# m4 ?+ l6 |9 o
Title                                    : Portuguese-PGS
& N( z. K5 ]  w  |Language                                 : Portuguese
0 a! {: V) W& D: o- V: c! w2 g; HDefault                                  : No
4 N( F0 N$ _# h' i' C, TForced                                   : No
+ l# P. v' Y/ b4 I0 x9 U1 l* Q7 P$ B  p2 }) _# p
Text #13+ ]; I# T7 p+ N5 c+ x2 `
ID                                       : 164 u9 b& g/ ~" [0 \2 C
Format                                   : PGS
  i9 H4 F5 _0 k- g5 L8 UMuxing mode                              : zlib
3 x$ [* Q2 ]- t2 x4 S- m# z  QCodec ID                                 : S_HDMV/PGS
7 g( V7 \; z# ]/ f% rCodec ID/Info                            : Picture based subtitle format used on BDs/HD-DVDs
0 S6 N7 H( w' P6 B2 s. w/ [Duration                                 : 2 h 3 min
) \- F) \$ t! [# E+ G" EBit rate                                 : 16.5 kb/s) W( q) j. G8 @& r" D
Count of elements                        : 3016
) V. @3 u( m7 ?4 x( y! hStream size                              : 14.6 MiB (0%)
, e" ^: a7 X7 D2 j5 i4 K! ]8 O- t. }Title                                    : Arabic-PGS
) ~! |: U6 q8 l. n/ R3 J3 k9 zLanguage                                 : Arabic
2 T3 z( F( ^2 }) b7 FDefault                                  : No/ E! h6 I6 n# s) h/ y9 K  w1 J
Forced                                   : No  S7 L! \- K. P2 \
& O! L: R( W  }7 U+ u1 ^
Text #14- w: d- g4 E7 G! g$ k' ~3 L
ID                                       : 17
( A8 j1 g. K- L4 h" X* i9 HFormat                                   : PGS
' c6 j* z( m% \Muxing mode                              : zlib
0 w# @& ]  A7 ~, TCodec ID                                 : S_HDMV/PGS
3 n9 V3 H; x" T5 ~2 NCodec ID/Info                            : Picture based subtitle format used on BDs/HD-DVDs
! e( }; X; O. C$ y1 G$ l2 }2 SDuration                                 : 2 h 3 min% S# V+ E2 x4 t% d3 Z! {2 M
Bit rate                                 : 28.8 kb/s
0 |6 j' p% e1 R, B" A( xCount of elements                        : 2986; Y- O' l" H4 q8 j% z* p
Stream size                              : 25.5 MiB (0%)2 u) z4 h( J$ G
Title                                    : Czech-PGS
$ V& G* Y; h; [1 E+ Q- U( B: JLanguage                                 : Czech3 K" U! b6 d: A7 X
Default                                  : No9 J; l" l* w1 m3 |6 q' }
Forced                                   : No
" D0 ]5 \! K# r5 g; O. h
4 p: y; w7 `1 \Text #15/ M' ]% {; F/ l. r/ z% p" e
ID                                       : 186 i2 N8 z! W; m# `1 ~
Format                                   : PGS
7 ^/ U5 b7 K. Q$ y7 o/ |9 QMuxing mode                              : zlib
( c: S5 _4 y$ V5 W1 |' vCodec ID                                 : S_HDMV/PGS
1 U$ m+ D1 q- `5 |& iCodec ID/Info                            : Picture based subtitle format used on BDs/HD-DVDs
. s; d, k. @/ a7 bDuration                                 : 2 h 3 min
9 e. P, p  |, W, W( ABit rate                                 : 26.0 kb/s% @+ l7 Y2 r- H' ]& R
Count of elements                        : 1978
: Z5 W- p8 m- U1 d2 Z) Z7 _4 E& sStream size                              : 23.0 MiB (0%)8 p$ V  G" n9 h! g- w8 A
Title                                    : Danish-PGS
) E4 \1 G7 F4 dLanguage                                 : Danish
5 C* k) y6 |0 bDefault                                  : No/ p! [& ?+ y9 g: M* p! n% o& \9 ]2 L; p
Forced                                   : No
. _1 r9 f: P+ T! K5 s6 ^
2 e/ K8 V) u* O5 D5 f! Z$ RText #168 d: @# S* w; j: i! w& b
ID                                       : 196 s- i, l5 }, }2 e( p
Format                                   : PGS. y; I( `: y" h0 j/ {0 k% g
Muxing mode                              : zlib
2 F' m& n+ L8 U1 Z( w- MCodec ID                                 : S_HDMV/PGS" x  {8 s+ q: B2 ]" h9 q
Codec ID/Info                            : Picture based subtitle format used on BDs/HD-DVDs' M" u# z6 _+ e* {$ q% M8 B
Duration                                 : 2 h 3 min5 @+ ?$ w! I9 x3 ^
Bit rate                                 : 23.9 kb/s
3 s  ~& `: B% m, zCount of elements                        : 2464
9 U' ^; \3 d) K( CStream size                              : 21.1 MiB (0%)
: X  m( i3 A1 B, K' y' jTitle                                    : Finnish-PGS% \1 H- E% l) R) i3 A
Language                                 : Finnish2 J' u# Y5 A) a" B' ?* S! x7 z
Default                                  : No+ w2 L9 [# t$ k0 E& F
Forced                                   : No) w5 b0 S, X7 c  H8 i7 @
6 J9 [8 S6 [1 o' y8 I  N' R/ B) k
Text #17
' M( c' E+ ?$ x. v" n8 f9 j. CID                                       : 20$ j5 |: X1 t$ X, W
Format                                   : PGS0 B$ K7 j9 x- O. n# g
Muxing mode                              : zlib
7 [9 S) a1 h  ICodec ID                                 : S_HDMV/PGS& j( A! w" G8 Z4 {3 U/ G
Codec ID/Info                            : Picture based subtitle format used on BDs/HD-DVDs. `& K$ R& J; D, r
Duration                                 : 2 h 3 min  X3 H+ w$ U9 w. a
Bit rate                                 : 23.6 kb/s9 d! F* \, p1 ^
Count of elements                        : 3034* a( r' D" L1 C& q/ q& h
Stream size                              : 20.9 MiB (0%). D- ^7 g5 M! ~0 l
Title                                    : Hebrew-PGS
0 {( Q" t0 Z' _$ }2 _3 BLanguage                                 : Hebrew/ L5 d. O( p$ q' a" \
Default                                  : No
1 v' t/ p; M3 [- WForced                                   : No
! p' H$ d8 ~1 K% o/ q& l1 `+ x0 ?' ^, l& w6 F' h1 q+ _
Text #18! i* r" t+ X1 ^3 p
ID                                       : 21) B' D/ I* y! n5 y& A
Format                                   : PGS6 a' U  V* y3 J8 X# X" o( ~0 U6 j
Muxing mode                              : zlib
$ v: ]) D- [$ x* }6 b2 w8 gCodec ID                                 : S_HDMV/PGS
. o4 \; {# k5 G# W# OCodec ID/Info                            : Picture based subtitle format used on BDs/HD-DVDs! V/ |; j) P+ [: m
Duration                                 : 2 h 3 min
3 A3 m7 w1 c. Y( p7 p' u) CBit rate                                 : 27.4 kb/s; d$ R: x) ]% d
Count of elements                        : 25348 M+ F& y% w) i8 [
Stream size                              : 24.3 MiB (0%)
3 L% Q$ h* ^& p7 G9 J: B5 z3 FTitle                                    : Norwegian-PGS
' Z, n" A- l. U, fLanguage                                 : Norwegian
% j# ?, }) j) \Default                                  : No5 k  ~3 D+ {9 v' m
Forced                                   : No
  Q9 r8 i2 t0 j' @/ ^% m' G, |( o
/ C1 i  v6 D- [' i: H$ g* `Text #19
; o2 V( y7 ~- T- ]6 C( D! @ID                                       : 224 f6 w9 E- u" D; u  n5 {$ h
Format                                   : PGS
7 f& {# `" p$ ?+ i# c% R3 k# [* L- DMuxing mode                              : zlib% O' G3 n7 \9 b0 x
Codec ID                                 : S_HDMV/PGS8 j( d' T: R$ L/ o9 e
Codec ID/Info                            : Picture based subtitle format used on BDs/HD-DVDs
& K0 m4 P$ ?: g7 s5 _Duration                                 : 2 h 3 min
6 N9 l- l$ |- G8 p8 |Bit rate                                 : 28.0 kb/s, m" \  {) r6 V% P! n
Count of elements                        : 29522 j$ U% t* }7 O! t/ d
Stream size                              : 24.8 MiB (0%)4 F! z( Q* t" i, e5 e4 ~) u
Title                                    : Polish-PGS) V+ s$ f8 a5 r2 o
Language                                 : Polish0 |7 y6 H+ \, w0 P# ?' a, L7 d3 i
Default                                  : No
& w3 X8 R5 l6 w" g% [# AForced                                   : No
9 c. c8 G: U6 H  v
, X8 G3 d- J& o' HText #20
. C# `4 e# X6 ^4 _7 a# bID                                       : 23
/ C, b2 Q' C/ W1 i; Z$ lFormat                                   : PGS7 a1 [, f) n# X: t0 x: R1 P4 x
Muxing mode                              : zlib
" C! ^0 C, S& ^! l7 i! ?. kCodec ID                                 : S_HDMV/PGS; _0 Q# U" R3 M
Codec ID/Info                            : Picture based subtitle format used on BDs/HD-DVDs" g% I( o3 z, F3 H
Duration                                 : 2 h 3 min
! s8 A% H- D) |$ o" HBit rate                                 : 29.4 kb/s
6 j9 z: j+ a  j, {Count of elements                        : 29429 y. l0 z0 {- y+ A# K/ A
Stream size                              : 26.0 MiB (0%)6 f  b' S) y+ p
Title                                    : Portuguese-PGS
8 q/ s& A6 n6 Q; {  K1 LLanguage                                 : Portuguese0 I& D- a2 A2 P( e  {
Default                                  : No& c9 v1 F! ]. U+ t1 {
Forced                                   : No& F1 I! ]9 l( B, X5 V' h1 Z! N9 x

! K$ M+ B+ b$ a! z! m) uText #21
  f. H! M8 t% q2 y4 J8 BID                                       : 242 e8 {" T6 q9 D0 ]4 I% Z4 U7 P( f5 L0 W
Format                                   : PGS
6 C$ k' Z+ v7 {3 vMuxing mode                              : zlib
7 q/ z: K( S4 T, i# nCodec ID                                 : S_HDMV/PGS' X3 @! \4 y# F" D% y/ g6 U! `1 E+ U
Codec ID/Info                            : Picture based subtitle format used on BDs/HD-DVDs
9 a- m& u: j8 ]! i$ \4 P- @- X( Z" }Duration                                 : 2 h 3 min- y9 s2 ~2 \2 v$ [9 R
Bit rate                                 : 28.6 kb/s, w) e4 q$ \. I- ^+ r# V  n
Count of elements                        : 34389 M: G. R- f" @
Stream size                              : 25.3 MiB (0%)
+ ]" _+ u9 L1 ?1 t& n0 sTitle                                    : Russian-PGS; k" O& U2 A8 ~2 M2 J! Z
Language                                 : Russian9 P0 S/ n9 B( L; l% M+ V
Default                                  : No0 v1 U7 w- j, _( T
Forced                                   : No
) y2 X6 ~2 G& H: c5 u
# d( c+ O" X, HText #22
: P9 z: I  ^, o. p" a+ o, qID                                       : 25
+ V/ P4 Y' A7 J# _( cFormat                                   : PGS" o0 d3 R! J* C4 V
Muxing mode                              : zlib
, ^# Y( f6 j, B- P$ gCodec ID                                 : S_HDMV/PGS
: E+ n; D; B/ {* z4 _Codec ID/Info                            : Picture based subtitle format used on BDs/HD-DVDs
5 X8 ~/ Q# D1 O+ c4 \. mDuration                                 : 2 h 3 min
( C( [; z, P  _* D" mBit rate                                 : 25.2 kb/s
: S) p3 |. E2 r0 X; a$ r' G6 Y; e2 cCount of elements                        : 2236' r- C* i8 b  V- u% v7 d1 d
Stream size                              : 22.3 MiB (0%); h8 S# k' q3 V" W1 J
Title                                    : Swedish-PGS* i4 H0 v" O5 \( N7 `
Language                                 : Swedish
' o3 d: W: a. e4 i! z$ ^Default                                  : No2 K/ q/ _" \$ D  G; L2 h( M
Forced                                   : No
7 p& A( x; D# I' T
2 s; l8 q" i& o/ ZText #236 n3 S0 \' h; I6 T" {$ K- O# V: k& d
ID                                       : 262 I/ |2 I& Y  T; W1 d; m) D
Format                                   : PGS
( ~; @. M; L4 g, i9 S* c+ U: mMuxing mode                              : zlib
* Y) T  L- K; j7 |, z! x6 TCodec ID                                 : S_HDMV/PGS5 O1 B* i- D; c+ z
Codec ID/Info                            : Picture based subtitle format used on BDs/HD-DVDs
! m2 a# N, D# r. V% s2 Y) K" ZDuration                                 : 2 h 3 min
# O- V, f- K7 Y2 A$ B$ KBit rate                                 : 30.0 kb/s, |- ~" r. P( S" v5 m7 ~
Count of elements                        : 30489 ~" u! r# [2 e' ~
Stream size                              : 26.6 MiB (0%)
% W1 o: {+ f6 t" wTitle                                    : Turkish-PGS8 ]8 ]1 T8 H/ J. s  T& S. G
Language                                 : Turkish- X2 c# e. l) [
Default                                  : No
$ ]+ d9 l9 K# r5 x5 mForced                                   : No0 ^4 x3 d( p" |0 S, Q

6 h% v% e6 ^, V6 Y* GText #241 Y2 k0 J5 m) ^- |1 R
ID                                       : 27; s5 g6 E* c8 ?0 r$ }4 T
Format                                   : PGS
8 h/ |" W1 q! B0 qMuxing mode                              : zlib9 |6 t7 ~8 ]: {
Codec ID                                 : S_HDMV/PGS
9 t- J2 ?, d. g5 lCodec ID/Info                            : Picture based subtitle format used on BDs/HD-DVDs2 M% z8 `1 j0 M+ B
Duration                                 : 2 h 3 min
* }+ z; P5 B: D2 |3 `& b1 SBit rate                                 : 395 b/s
# }! m  k% V+ O# |0 Y3 a9 A- ZCount of elements                        : 30% f1 v- l# I. G
Stream size                              : 359 KiB (0%)' c8 \( p* W! c
Title                                    : French-PGS
) q$ m$ N; k& o. \  SLanguage                                 : French; W. D8 x' f* Y1 h0 t& G0 y% @
Default                                  : No
, d  k! I" S8 O. GForced                                   : No2 E$ m& O! \. e" `4 I7 `
6 l) h" x" w. j2 j& c6 s4 E+ I
Text #25
2 k- U* O, z& l* @' b* wID                                       : 281 p! c; j; `4 A! u3 z
Format                                   : PGS
3 H, `! J$ V4 c; ^7 i2 IMuxing mode                              : zlib
; u" Z/ {9 b! e( ]4 lCodec ID                                 : S_HDMV/PGS  ]  D" o) }2 y# f2 S% T
Codec ID/Info                            : Picture based subtitle format used on BDs/HD-DVDs0 P0 [0 I, b9 _7 s
Duration                                 : 2 h 3 min
* \) o" ]' ~/ p' d2 e+ tBit rate                                 : 470 b/s
3 @: [$ j8 t- @6 c1 lCount of elements                        : 32( a6 L. F+ A- {1 o  G) [! F5 V( G$ _
Stream size                              : 427 KiB (0%)
( k, w! h( T1 U1 t+ sTitle                                    : German-PGS" m5 k# M! G- s
Language                                 : German
" T6 {$ [9 G( ]3 a" x% i1 g6 Y) i. KDefault                                  : No
9 A! U! |1 e/ S( o8 W5 WForced                                   : No
% u( x) Y6 F) P; J/ T
( ^! T$ Y# u8 B$ ?, K5 |; e1 g) qText #26' N$ }/ s' E& L7 F' ^
ID                                       : 29
! ]' H, u7 N5 r4 V% n$ MFormat                                   : PGS
' e, Y7 Z4 q  w. l) _' z2 VMuxing mode                              : zlib, X( |& v( B: g4 l5 Z: n, y
Codec ID                                 : S_HDMV/PGS' L8 C7 Y/ ]& v
Codec ID/Info                            : Picture based subtitle format used on BDs/HD-DVDs
1 y8 v  F" p2 iDuration                                 : 2 h 3 min! l2 ]$ p6 I$ I# t
Bit rate                                 : 561 b/s: m. H: o, [& c' [/ e8 _, O9 F
Count of elements                        : 40
' P4 l6 w# s$ N! \5 l- IStream size                              : 509 KiB (0%)( E" ]( m. W1 z% \
Title                                    : Italian-PGS! _1 m, t+ h% S& }& |! {) \
Language                                 : Italian
0 U! G* h; o! {& |% XDefault                                  : No
. j/ T! n' {/ O; p- @/ z: D5 jForced                                   : No
' ]. |9 c% p  U! h. n7 }
. C+ [& V7 T6 s4 P0 LText #27( Q, z+ S% D# s9 k: R
ID                                       : 30' T7 w' T; N4 J1 N
Format                                   : PGS) C7 l) V7 Q1 g) L1 J# G9 @
Muxing mode                              : zlib
8 S5 F. M" q5 [3 J" t/ jCodec ID                                 : S_HDMV/PGS# [, I3 E- z" f7 q
Codec ID/Info                            : Picture based subtitle format used on BDs/HD-DVDs( W4 a3 h6 z# t
Duration                                 : 2 h 3 min" v# K& V4 o- Q) Z8 [
Bit rate                                 : 447 b/s
% D3 x8 O- H$ w- S9 T& D  wCount of elements                        : 30
* t. b) p0 A4 a, t# MStream size                              : 406 KiB (0%)/ T+ y! h- z* z4 M4 J0 {! w
Title                                    : Spanish-PGS
; }% u; ]' r; ~1 T  gLanguage                                 : Spanish
$ e; p3 s1 f* Z. D# f* FDefault                                  : No
& s/ ?. c; D& X# ]% W* ?+ O  kForced                                   : No0 m  o# a1 [* `/ h# S- d9 e. {% R8 U

" N% Y7 w$ S4 ]# jText #286 T0 v9 _& W7 _: f8 o' J4 ?2 j
ID                                       : 31
9 d  R. E8 ]5 u; k, o- \Format                                   : PGS# t# f( J6 m: D: ]: m1 z+ s
Muxing mode                              : zlib
6 ^7 I! `1 f* FCodec ID                                 : S_HDMV/PGS
$ ~& ^4 l& v( U+ JCodec ID/Info                            : Picture based subtitle format used on BDs/HD-DVDs
  Y: ^) |* k; K" _1 v1 SDuration                                 : 43 min 45 s
$ X& g- b3 Y7 ^+ y" y3 ?Bit rate                                 : 111 b/s2 K2 x" q: B8 N0 }% S
Count of elements                        : 6
. N" ~. u2 j/ T# SStream size                              : 35.7 KiB (0%)
$ D9 ^* H$ C$ O6 nTitle                                    : Spanish-PGS
( ^7 v0 G8 Y7 s8 ^+ ELanguage                                 : Spanish6 [' V5 `; m0 K8 N
Default                                  : No
6 Y- J4 ]6 A4 m# r+ |Forced                                   : No; \4 U6 d) Q) @& k  O% v

% Y6 Y: r$ }2 h. eText #29
5 r4 _. F# d7 \. a0 U+ L) X0 M  BID                                       : 32$ w8 c& H4 T1 ?6 N5 _2 q# q
Format                                   : PGS
; e8 O9 N& a% NMuxing mode                              : zlib% R! t9 G& l( q
Codec ID                                 : S_HDMV/PGS- k: ?8 }, J& h; ]: e! _$ q! ~0 w% B: c
Codec ID/Info                            : Picture based subtitle format used on BDs/HD-DVDs' Y2 O$ \, N; F. B. g" {9 |' f* {
Duration                                 : 35 min 8 s- G$ A( S) q  w0 @7 F
Bit rate                                 : 74 b/s
, B/ G6 ?0 n3 x6 yCount of elements                        : 45 ~! Q# c) U7 `0 p5 I( w
Stream size                              : 19.2 KiB (0%)
& F) \9 _9 m  I, [! V( STitle                                    : Portuguese-PGS+ y. V; z: x1 F5 ?
Language                                 : Portuguese7 D/ O8 I- Y( F6 x
Default                                  : No/ b+ @) s6 ?6 y% s  Z: t
Forced                                   : No
: i9 L2 D  s1 Q6 ]2 Q' `8 y% M6 \3 G5 r* j$ A& s
Text #302 ~7 I4 e* z3 a2 @, D5 E
ID                                       : 33
/ J' P2 G- c: D/ ?& OFormat                                   : PGS* o& S6 G6 @- C
Muxing mode                              : zlib
( F5 D3 D* t1 p1 SCodec ID                                 : S_HDMV/PGS
7 E5 H* X. |7 K$ SCodec ID/Info                            : Picture based subtitle format used on BDs/HD-DVDs. f: q# q- ], T% \+ I  M
Duration                                 : 2 h 3 min; N+ ^" |5 T/ f+ D8 B. B
Bit rate                                 : 144 b/s8 R7 f9 D9 Z6 @3 W" q1 E/ Z
Count of elements                        : 142 J* R" p- J  V& b2 K" T
Stream size                              : 131 KiB (0%)
5 w, M, Y4 _) r! D- O: c, nTitle                                    : Czech-PGS
4 z& c% A5 y) X* d$ e: KLanguage                                 : Czech% U0 O/ Y7 w+ F3 r# k; K( n
Default                                  : No% W) I* ?8 g4 I* y
Forced                                   : No& x) ?+ I* P7 v4 A
4 E6 V% ^# ?; H
Text #31$ Z8 A& ~$ h# P& m* u) G( ]
ID                                       : 34
) P6 h" j& D- X5 {, B2 z0 s2 {! x% k1 UFormat                                   : PGS1 S9 y. g8 S" b0 o! B7 V
Muxing mode                              : zlib% o2 R% V9 K% Z4 r7 Z
Codec ID                                 : S_HDMV/PGS
" m* }" h! f6 q! q8 z7 zCodec ID/Info                            : Picture based subtitle format used on BDs/HD-DVDs
3 Z, V5 `5 a0 ^) E/ }# C0 bDuration                                 : 2 h 0 min
2 w- J' X9 o7 Y6 q: Y1 z4 Q( L! eBit rate                                 : 23.2 kb/s
0 K/ Z0 Y6 ]. kCount of elements                        : 3101
  Q' k1 w/ [( }4 R+ ]$ LStream size                              : 19.9 MiB (0%)0 z- H5 H- A* j7 T6 P) J0 \
Title                                    : Japanese-PGS
$ _+ d& e! b! H# A+ z$ {( wLanguage                                 : Japanese: k* @2 s3 u' b, ?& ]
Default                                  : No; f# D8 z0 j( x0 `# Y0 ]
Forced                                   : No
2 T7 _1 [" N  G1 P
( w% o3 n" R. V5 |Text #32
# V6 C/ v( U. S6 w( B8 f1 jID                                       : 35
( d6 ?$ w  J# U, O0 BFormat                                   : PGS# t5 K8 p' m: G$ F
Muxing mode                              : zlib2 [8 B; s2 @8 r4 \5 Y0 n0 R, U
Codec ID                                 : S_HDMV/PGS3 V  u  ^% v$ d0 h" N, o
Codec ID/Info                            : Picture based subtitle format used on BDs/HD-DVDs  V4 }) u7 w4 e9 O* M1 {8 n
Duration                                 : 2 h 0 min
2 Z! q, g2 S/ p# s1 t* ~Bit rate                                 : 551 b/s
$ U; [/ [$ Z1 j. I4 ?( G3 eCount of elements                        : 239
  n4 t# Q- s3 G! k) ]Stream size                              : 485 KiB (0%)
  x* d6 |4 `1 Z6 b; |5 Y- RTitle                                    : Japanese-PGS& ^% B2 d1 V7 c; n; b5 g2 n2 N
Language                                 : Japanese, Y4 U# |! ]* T" P
Default                                  : No- H- K9 g* }; q
Forced                                   : No
& x% B: i! z9 G) d
5 c9 P* c" z$ ?" S' fText #33
7 P0 G9 H# R  P& X# }+ QID                                       : 36
, i5 U% S5 e: h: M( b3 x2 `5 Z1 G5 kFormat                                   : PGS
% P9 `0 B0 ?. `6 C: ?Muxing mode                              : zlib# B& B- |1 l& h1 S! `% l
Codec ID                                 : S_HDMV/PGS
9 H, z- C9 x4 u- G. q: N" w2 ?. D# BCodec ID/Info                            : Picture based subtitle format used on BDs/HD-DVDs5 E) x! }  K" u  k# e( @
Duration                                 : 2 h 1 min" k$ S' s/ b- m3 h
Bit rate                                 : 41.4 kb/s+ e/ V5 U! q) D& j) |
Count of elements                        : 3567
9 U3 c+ O. t$ P6 T% m7 I! A; OStream size                              : 35.9 MiB (0%)
) \0 O; `$ M" e' T  r! MTitle                                    : Japanese-PGS) K, o' b2 D9 \$ s* o4 u( V
Language                                 : Japanese* {# S  a% F+ p0 S
Default                                  : No. S% K" x" f2 W. d# y' d# o
Forced                                   : No' A# j, z7 ~) A, e' e& X( s

  h7 @* s& H" I. F) @0 |9 u4 pMenu
/ \% o+ \% X3 K) J+ s% d00:00:00.000                             : en:Chapter 1" x, j* h2 D! ~; c8 }( j
00:10:12.486                             : en:Chapter 25 @/ O$ G5 J8 G- P( g
00:17:49.693                             : en:Chapter 3( U1 Y) L. M" j
00:29:18.173                             : en:Chapter 44 g" I5 N4 Z5 @1 c0 i2 T. \
00:38:44.780                             : en:Chapter 5
, d2 Z' P& |  D) o00:50:41.580                             : en:Chapter 6
' ~2 k# K4 w1 s8 j& g8 Z! Z00:58:39.891                             : en:Chapter 7
) C8 h8 \7 u* U2 k01:09:07.017                             : en:Chapter 8, U/ f$ w+ Z& {0 J" x5 W# @
01:17:30.228                             : en:Chapter 9  g$ N) T+ C! \' k
01:28:08.074                             : en:Chapter 10/ |1 @4 N1 I$ }: b1 G
01:37:57.621                             : en:Chapter 11
6 r0 Z' b6 b4 M( `8 `% }01:48:41.264                             : en:Chapter 126 A( J: O$ U; F0 b0 w  F
01:57:47.268                             : en:Chapter 13

3 d0 k* B- b0 W8 M6 _
游客,查看本帖隐藏内容请回复 | 加入VIP可免积分免回复 了解详情 | 还不是会员:点击获取邀请码 Invitation Code

2

主题

720

帖子

4197

积分

Sponsor

金币
471 枚
体力
2335 点
QQ
ccfys888 发表于 6 天前 | 显示全部楼层
每天都来蓝光论坛看看,我爱蓝光电影。
9 Y- g: Q! f! e  I7 H9 I# oI love your Blu-ray movies Forum!# Y) j; M9 H2 J' B1 C3 t

2

主题

189

帖子

989

积分

Sponsor

金币
10 枚
体力
615 点
yunzhongge 发表于 5 天前 | 显示全部楼层
谢谢分享!谢谢资源网
找新电影 .

0

主题

156

帖子

738

积分

Sponsor

金币
56 枚
体力
372 点
青青翠竹 发表于 4 天前 | 显示全部楼层
谢谢分享!谢谢资源网

0

主题

156

帖子

738

积分

Sponsor

金币
56 枚
体力
372 点
青青翠竹 发表于 4 天前 | 显示全部楼层
膜拜神人,后来者请保持队列……!; K2 ?: T, N. b7 S
Blu-ray Film Forum: I will always support you!# h3 ]3 J# r  {

0

主题

589

帖子

2256

积分

Sponsor

金币
29 枚
体力
953 点

签到达人勋章

QQ
jiyugen8180 发表于 4 天前 | 显示全部楼层
每天都来蓝光论坛看看,我爱蓝光电影。
6 j) w0 _% S- h5 ?1 `' Obluraycd forum, a lot of Blu-ray movies!- p- m7 P" r7 `8 p. E9 \

2

主题

189

帖子

989

积分

Sponsor

金币
10 枚
体力
615 点
yunzhongge 发表于 3 天前 | 显示全部楼层
Bluraycd又有新电影发布了,激动中……!8 X( D$ r; ?' a$ }' r/ o
至少是现在,我一天没有访问蓝光电影论坛就不爽!At least now, my day did not visit the Blu-ray Film Forum on unhappy!
: K$ P8 k/ n; ~& I- j
找新电影 .

31

主题

2540

帖子

1万

积分

Sponsor

金币
1794 枚
体力
6817 点
QQ
shiji1973 发表于 3 天前 | 显示全部楼层
沙发是抢的而不是占的!% J1 z% o) ?3 X2 V0 u6 c* X
要想蓝光电影论坛发展好,资源多,就靠你我他!To the development of Blu-ray movies forum, resources and more depend on you and me!
) V1 z* t. N' L0 G: W& d$ E) n

本版积分规则

小黑屋|Archiver|4K蓝光论坛

GMT+8, 2022-11-26 23:19

Copyright © Tencent Cloud.

快速回复 返回顶部 返回列表