BluRayCD Forum

 找回密码
 立即注册【分享大片】
查看: 24|回复: 2
收起左侧

[动作战争] 海狼行动 Operation Seawolf 2022 1080p BluRaycd x264-FREEMAN 7.49GB

[复制链接]

1万

主题

1万

帖子

10万

积分

Post Share

金币
171 枚
体力
26702 点

卓越贡献勋章VIP黄金勋章诚信会员勋章

mvods 发表于 前天 06:11 | 显示全部楼层 |阅读模式

) }! m! `4 U8 Q9 n+ l4 }- R, g; k" Q/ c' o3 ]7 X& G1 O
◎译  名 海狼行动* g- |9 T. }7 g! ^* }- P
◎片  名 Operation Seawolf / Операция «Морской волк»9 P5 u# j- x% }' _* u- @$ z+ \
◎年  代 2022! R3 Y5 K" m' B; K9 U' k" C; @
◎产  地 美国% k- `1 }6 S" y0 I- S$ t
◎类  别 动作/历史/惊悚/战争
, m) `, i. |) W- P- {/ L! }2 z◎语  言 英语$ U5 t* y0 H2 I& q. k' r& j( p
◎上映日期 2022-10-06(美国/德国)9 m$ x- t# }  T  i
◎IMDb评分  3.2/10 from 292 users8 }2 B# n5 Z3 T0 z, O+ w
◎IMDb链接  https://www.imdb.com/title/tt13429928/- {" R: ^, \5 U  I8 R
◎豆瓣评分 0/10 from 0 users
9 e4 }8 s1 A- w! Z3 K, o6 c" K◎豆瓣链接 https://movie.douban.com/subject/35618601/- O/ a& E& r: O. ^; E2 B
◎片  长 1 h 27 min/ _# P2 F. X: }: T
◎导  演 史蒂文·卢克 Steven Luke9 ?) g. A. }6 s8 r6 W  y+ Y& V
◎编  剧 史蒂文·卢克 Steven Luke/ m+ v0 C+ `1 m3 `  s% {
◎演  员 弗兰克·格里罗 Frank Grillo8 ~) d. k. [4 I# V1 Y4 f, R
       杜夫·龙格尔 Dolph Lundgren5 o& e, b- V0 L+ j
       海勒姆·穆雷 Hiram A. Murray
. `1 W3 w3 q( `, Q# W       安德鲁·斯特克 Andrew Stecker, @7 a. N6 x. p) f( l  Y2 Z
       科迪·弗勒里 Cody Fleury) h" ~4 s4 ^& V, W- t+ S  Q0 C( k
       亚伦·考特 Aaron Courteau
2 k1 m- p- g: d       埃德加·达马提安 Edgar Damatian
  I$ y- d  j/ G3 ]( Z
1 `0 i# P4 H5 y, `) Z◎简  介   2 q( U0 d0 ?1 v, h- j$ J

0 C  ]2 H8 Q: U2 k  在第二次世界大战的最后几天,德国迫不及待地想抓住最后的机会打败盟国,于是就开始寻找他们仅存的武器和士兵。德国海军和剩下的最后几艘U型潜艇一起组成了最后一次攻击美国本土的任务。汉斯·凯斯勒上尉(伦德格伦)是两次世界大战中的一位头发花白的潜艇指挥官,他被召入伍以帮助扭转战争的潮流。这项任务很快被称为“海狼行动”。1 I. T: \( w/ @" u. A. m

  g: N2 W2 j! a! @" O  In the last days of WWII, Germany, desperate for any last grasp to defeat the allied powers, formed together the German Navy and the last remaining U-Boats, for one last mission, to attack the United States Homeland.
) Q! p/ Y3 x; w' c$ X
Video3 U# j3 a. {/ P, Y7 n
ID                                       : 1/ ~, ?, X$ `% d4 C3 }! W9 ?9 j
Format                                   : AVC" I* ~# l6 ?1 I# }
Format/Info                              : Advanced Video Codec2 g4 t8 h' f% x, ~
Format profile                           : [email protected]$ T# S3 ]+ K; n( O9 K# h- y
Format settings                          : CABAC / 4 Ref Frames6 O: ^+ c3 T4 W9 S. ?. F4 V5 q
Format settings, CABAC                   : Yes
8 Q1 G% n+ W8 B  J' zFormat settings, Reference frames        : 4 frames8 u0 c& I( a% B+ Q6 T) N
Codec ID                                 : V_MPEG4/ISO/AVC3 h5 ~- u5 {; @7 H$ D3 r4 f
Duration                                 : 1 h 27 min
# n* C& n. P1 ?: ]! u. o& t6 IBit rate                                 : 10.5 Mb/s! m+ w# Z8 h4 O
Width                                    : 1 920 pixels
2 e7 o+ T; x: A6 Y- W) M% [3 SHeight                                   : 1 080 pixels
# Z: A, C: w' |* b# qDisplay aspect ratio                     : 16:9
+ Y  m3 ^( ]+ oFrame rate mode                          : Constant! s9 W& f4 k/ R9 G9 D& k
Frame rate                               : 23.976 (24000/1001/189150) FPS. c' X) A7 C/ J3 F( C9 `% c# n
Color space                              : YUV: C+ V+ n2 o# z+ d' W( l
Chroma subsampling                       : 4:2:0
2 ]! f' {/ x8 VBit depth                                : 8 bits" D$ b; _: u4 \( d: z: X9 ?
Scan type                                : Progressive
$ r; n+ Y9 w( q8 O$ [Bits/(Pixel*Frame)                       : 0.2123 t8 J. [' k$ l# z* u! R  k$ @8 \
Stream size                              : 6.41 GiB (86%)
/ I$ O1 F5 U# `0 Z1 K: A% [Writing library                          : x264 core 164 r3101 b093bbe7 E9 A( G0 ]- |( ]% U  Q& c4 Q
Encoding settings                        : cabac=1 / ref=4 / deblock=1:-3:-3 / analyse=0x3:0x133 / me=umh / subme=9 / psy=1 / psy_rd=1.00:0.00 / mixed_ref=1 / me_range=16 / chroma_me=1 / trellis=2 / 8x8dct=1 / cqm=0 / deadzone=21,11 / fast_pskip=0 / chroma_qp_offset=-2 / threads=24 / lookahead_threads=2 / sliced_threads=0 / nr=0 / decimate=1 / interlaced=0 / bluray_compat=0 / constrained_intra=0 / bframes=3 / b_pyramid=2 / b_adapt=2 / b_bias=0 / direct=3 / weightb=1 / open_gop=0 / weightp=2 / keyint=250 / keyint_min=23 / scenecut=40 / intra_refresh=0 / rc_lookahead=60 / rc=crf / mbtree=1 / crf=17.0 / qcomp=0.60 / qpmin=0 / qpmax=69 / qpstep=4 / ip_ratio=1.40 / aq=3:1.00
4 H3 n" O( I9 TDefault                                  : Yes* q5 b8 W0 x4 [0 u8 \
Forced                                   : No
3 ~( Z  q+ O. a0 q* RColor range                              : Limited
8 n& _1 K+ d; g& ?" O$ sMatrix coefficients                      : BT.709  H& }/ U. W& I% }! n

1 V6 U  y5 [. `$ k) V1 ]" [Audio& X- c: s, d* T- l& {1 b3 U9 Q
ID                                       : 23 J# U$ z8 j0 c& V! Z) f3 e
Format                                   : DTS XLL# J: D3 b  z# j. _/ l  Z( i
Format/Info                              : Digital Theater Systems" z& g+ e9 [5 W" J
Commercial name                          : DTS-HD Master Audio
7 q' K) K, ^1 ~+ d! `# K2 BCodec ID                                 : A_DTS
7 m+ W# b& B0 T/ j' }" }  |1 NDuration                                 : 1 h 27 min7 M/ ^4 r9 a/ S& c  m1 c
Bit rate mode                            : Variable) S9 n+ k" ]: S1 Y1 |% Y
Bit rate                                 : 1 755 kb/s
, }: ]4 v, g% p, c8 l, G' LChannel(s)                               : 6 channels
$ K: S5 Q( a* |8 E" Y1 G# s1 P5 Q/ qChannel layout                           : C L R Ls Rs LFE
# d+ I2 d" H. V9 USampling rate                            : 48.0 kHz
4 L8 d/ t6 }% y& [4 S/ ]Frame rate                               : 93.750 FPS (512 SPF)! t% g% y# g3 ?9 ^
Bit depth                                : 16 bits, ~8 X$ }# D7 G- J, ~# |* N
Compression mode                         : Lossless
. G( c7 u3 P8 v9 g6 F# cStream size                              : 1.07 GiB (14%)+ r7 a2 i0 v2 e9 @% W; F/ c
Language                                 : English% y$ ?: l; V1 x# v( P/ I
Default                                  : Yes
3 Z: H9 O) b" k; M3 ~9 k- J) C, zForced                                   : No
7 @/ @4 l/ a3 U) W* d+ U4 s1 {
( w7 p# C* K! U4 L: [Text
; |, d  _, i3 f  Z/ U$ G8 xID                                       : 3
) I+ X: j+ M" T) O6 {Format                                   : PGS0 [8 l' `8 a2 |6 ?  d( D# P
Muxing mode                              : zlib
* R2 m  h0 r. [; a$ `Codec ID                                 : S_HDMV/PGS
8 T+ Y: c8 Q9 I6 V% l+ M8 }Codec ID/Info                            : Picture based subtitle format used on BDs/HD-DVDs
4 E0 @7 S- a5 iDuration                                 : 1 h 26 min
% T2 }# E7 k7 nBit rate                                 : 16.6 kb/s
' M  [/ r7 k- ^  o; {8 ^, g* d0 ^Count of elements                        : 1309
7 b, R4 H4 h$ w: `+ Z8 IStream size                              : 10.2 MiB (0%)
) Z& ?2 q4 @; g, y9 JLanguage                                 : German
! t9 m3 [: e% f* v* Y1 `Default                                  : No
' w2 u% o! k, F) R. KForced                                   : No8 \; Y7 U  s6 h  \* C; O
0 {7 S, C& [# g
Menu
6 T( h/ g1 B8 Q# M$ G00:00:00.000                             : 00:00:00.000
9 e& A/ \5 b8 s  U4 F+ \4 S00:06:04.948                             : 00:06:04.948# Q# w5 r$ T4 i
00:15:59.250                             : 00:15:59.250
( b. q1 q+ ?' i' G00:23:21.442                             : 00:23:21.4423 T4 H# N9 ^" ~1 B$ _
00:35:05.895                             : 00:35:05.895
  o; z$ c5 c6 X  B* `6 ^8 L00:42:47.440                             : 00:42:47.440
) {4 v0 |( x. C  Y# k2 N00:49:50.237                             : 00:49:50.237
' d- [3 ~6 k( `. q7 |: K& w) E00:57:13.930                             : 00:57:13.930
+ A. W" H+ Q/ c- X. I9 _- g01:04:15.310                             : 01:04:15.3109 h' _6 Q" H& ?, T+ ]0 @
01:08:53.838                             : 01:08:53.838& m) E% u- v, B& |' {
01:15:04.125                             : 01:15:04.125
/ _2 S6 D6 Y! v5 b3 ]" I. R" w% D01:22:27.693                             : 01:22:27.693
% K8 ~/ z* Y: @4 Y0 p/ i% E' J) ?- m" K
Operation.Seawolf.2022.1080p.BluRayCD.x264-FREEMAN 7.49 GB
" e6 b! f& ]8 e8 L6 r  e0 G" F1 \& ?. Q  ^. Z
RELEASE DATE.....: 08-11-2022
4 h4 ?- e! Z3 ]2 ESiZE.............: 7,49 GiB  W- S) n- C9 v' X' [6 D
ViDEO............: 1920x1080 - 10,5Mbps (crf17)
( k* v0 y2 x& B. N$ ?6 p( uSOURCE...........: 21,7 Mbps
2 @  Z7 ^/ R( ?' L& `/ ]) T1 hAUDiO1...........: English DTS XLL 5.1 - 1.755 kbps
0 O/ M3 s5 ]6 K6 b4 o/ d2 xAUDiO2...........: -
" e8 B& D4 p8 }' }8 tSUBS.............: German
" S- Y) W  {( X
, u7 i) Z, K+ ~6 phttps://www.imdb.com/title/tt13429928/

" W' z" l6 t# U) N9 ~
游客,查看本帖隐藏内容请回复 | 加入VIP可免积分免回复 了解详情 | 还不是会员:点击获取邀请码 Invitation Code

31

主题

2540

帖子

1万

积分

Sponsor

金币
1794 枚
体力
6817 点
QQ
shiji1973 发表于 前天 09:01 | 显示全部楼层
沙发是抢的而不是占的!. x7 X0 l% i+ W! ?  o( ^: z# R
The decisive Replies sink is I get the sinking feeling great sense of accomplishment!" U# V6 f2 l  z3 N+ M

0

主题

1078

帖子

4233

积分

Sponsor

金币
261 枚
体力
1830 点
zzk980220 发表于 昨天 21:45 | 显示全部楼层
啥也不说了,楼主就是给力!
4 C) i7 D1 H' q  U: w( x' JBluraycd.com movie updates really fast, also did not release issued, whether you believe it or not, anyway, I believed!

本版积分规则

小黑屋|Archiver|4K蓝光论坛

GMT+8, 2022-11-26 23:46

Copyright © Tencent Cloud.

快速回复 返回顶部 返回列表