BluRayCD Forum

 找回密码
 立即注册【分享大片】
查看: 14|回复: 2
收起左侧

[动作战争] 海狼行动 Operation Seawolf 2022 720p BluRaycd x264-FREEMAN 2.55GB

[复制链接]

1万

主题

1万

帖子

10万

积分

Post Share

金币
171 枚
体力
26702 点

卓越贡献勋章VIP黄金勋章诚信会员勋章

mvods 发表于 前天 06:17 | 显示全部楼层 |阅读模式
2 U3 B$ V6 G6 ]) h4 L
3 B& x6 I1 r( z8 I% Q7 i; o/ M7 ?* X
◎译  名 海狼行动
3 c* g& o% e, ?- o◎片  名 Operation Seawolf / Операция «Морской волк»# @3 K4 ^$ b* s( Q8 \
◎年  代 2022
& R  N" a0 p% Z( Z1 j8 Y◎产  地 美国
- ~4 d( f: ]& i$ k! u1 ~◎类  别 动作/历史/惊悚/战争0 z5 t8 x4 C  l- g/ h6 _
◎语  言 英语. m) l+ a* R$ y6 W7 e, G
◎上映日期 2022-10-06(美国/德国)/ P7 ?1 U' c% O6 s
◎IMDb评分  3.2/10 from 292 users
- H/ o: _7 f7 B7 @$ d# j  ?◎IMDb链接  https://www.imdb.com/title/tt13429928/4 R  k1 X" {% @& @
◎豆瓣评分 0/10 from 0 users/ |  v- {* {5 _; e0 l
◎豆瓣链接 https://movie.douban.com/subject/35618601/" t8 _7 T/ @9 q/ Y" A
◎片  长 1 h 27 min5 A! T- b) Q" a9 N- s/ s/ V- z7 b
◎导  演 史蒂文·卢克 Steven Luke
# L% d6 x* o: i. Z+ h7 J◎编  剧 史蒂文·卢克 Steven Luke
- R1 u+ Q9 k( g9 n' u+ }9 W5 L◎演  员 弗兰克·格里罗 Frank Grillo
7 H! ^# D( s3 X. }/ x6 u8 Z( ^       杜夫·龙格尔 Dolph Lundgren
1 w$ x4 r& G7 i5 F       海勒姆·穆雷 Hiram A. Murray
5 V* |' ~, M1 P" R5 ?       安德鲁·斯特克 Andrew Stecker
) w! L8 w! ~8 t. p' ^- ^       科迪·弗勒里 Cody Fleury
$ Y2 [8 I# |3 S$ w: t3 m5 l       亚伦·考特 Aaron Courteau
. |- o; L4 V6 N5 u/ X       埃德加·达马提安 Edgar Damatian
& _' P" a2 ^5 q. T2 p+ W7 w) ^+ Q. f0 o5 N4 d, h
◎简  介   3 d7 j' ?. G' Z$ O9 i0 C3 J- y

# ?. D; o+ y4 @6 x$ Q. n' I  在第二次世界大战的最后几天,德国迫不及待地想抓住最后的机会打败盟国,于是就开始寻找他们仅存的武器和士兵。德国海军和剩下的最后几艘U型潜艇一起组成了最后一次攻击美国本土的任务。汉斯·凯斯勒上尉(伦德格伦)是两次世界大战中的一位头发花白的潜艇指挥官,他被召入伍以帮助扭转战争的潮流。这项任务很快被称为“海狼行动”。& U* C2 N! ]5 o
- U' ~! u) c" g$ |
  In the last days of WWII, Germany, desperate for any last grasp to defeat the allied powers, formed together the German Navy and the last remaining U-Boats, for one last mission, to attack the United States Homeland.
: K; o5 L! X  p' u
Video
* w. r# Q8 l4 Z- t$ ?! zID                                       : 1
4 e" ?% |! E: T: D& @! w! O+ |Format                                   : AVC8 d+ L! ~: o7 ]9 G' F( F3 H
Format/Info                              : Advanced Video Codec, A) R% x8 |+ o4 k$ _  \3 u3 A; i
Format profile                           : [email protected]! A2 r1 R2 z6 {* Z& u1 {# q4 O; ^
Format settings                          : CABAC / 8 Ref Frames* l7 u, T/ X8 x, h
Format settings, CABAC                   : Yes
7 [' e3 R. l* CFormat settings, Reference frames        : 8 frames
; s; l4 X+ R! a; ECodec ID                                 : V_MPEG4/ISO/AVC* _- H/ n" ?/ f* t( J
Duration                                 : 1 h 27 min
9 {& s4 k+ D8 i  y& W$ ~' H. m6 tBit rate                                 : 3 540 kb/s# r% _# c2 E8 Y
Width                                    : 1 280 pixels" ]* p3 O6 x7 U2 K: [8 {
Height                                   : 720 pixels* P: g. ?7 L' B
Display aspect ratio                     : 16:9
# c, T# [7 Q5 R4 [! q/ r' n: x8 LFrame rate mode                          : Constant
, O0 A( }$ B( ^7 \9 MFrame rate                               : 23.976 (24000/1001/189150) FPS  u  j; R" S8 V& X2 d5 Q
Color space                              : YUV
9 o+ T3 n! T2 X3 b6 {Chroma subsampling                       : 4:2:0
0 D) @( u# p( A- {% H, K- `" lBit depth                                : 8 bits
' G2 {6 h+ p5 w* VScan type                                : Progressive
9 j8 S7 t' {7 |7 ]Bits/(Pixel*Frame)                       : 0.160# E1 ?) u, t9 i4 a% A
Stream size                              : 2.16 GiB (84%)
2 A+ H% g- G3 [6 ]. ^Writing library                          : x264 core 164 r3101 b093bbe
* c$ x. I7 Z( i! N9 ~! }Encoding settings                        : cabac=1 / ref=8 / deblock=1:-3:-3 / analyse=0x3:0x133 / me=umh / subme=9 / psy=1 / psy_rd=1.00:0.00 / mixed_ref=1 / me_range=16 / chroma_me=1 / trellis=2 / 8x8dct=1 / cqm=0 / deadzone=21,11 / fast_pskip=0 / chroma_qp_offset=-2 / threads=22 / lookahead_threads=1 / sliced_threads=0 / nr=0 / decimate=1 / interlaced=0 / bluray_compat=0 / constrained_intra=0 / bframes=3 / b_pyramid=2 / b_adapt=2 / b_bias=0 / direct=3 / weightb=1 / open_gop=0 / weightp=2 / keyint=250 / keyint_min=23 / scenecut=40 / intra_refresh=0 / rc_lookahead=60 / rc=crf / mbtree=1 / crf=17.0 / qcomp=0.60 / qpmin=0 / qpmax=69 / qpstep=4 / ip_ratio=1.40 / aq=3:1.00
7 m) h; M* w. I# m% VDefault                                  : Yes
5 W  v% L7 Z: o6 k' DForced                                   : No; Y9 f. e2 }. n7 i
Color range                              : Limited& @" P. Z( m+ E2 P4 U
Matrix coefficients                      : BT.709
( @' U- _4 y% R! _. X4 q( P  V' q6 U7 V( e, S* Y, B" t% A
Audio
$ B: e; R/ M0 D% SID                                       : 2( I. P* d5 e! U5 k1 `
Format                                   : AC-37 b' o) z6 ]  ?- M; A. q. a, x
Format/Info                              : Audio Coding 3
8 A) l/ s8 E+ g4 D3 h3 Q3 hCommercial name                          : Dolby Digital
5 \- s; n5 r2 z0 |. ~4 M. u1 hCodec ID                                 : A_AC3
# y$ L5 x& P4 i( X% v. {, PDuration                                 : 1 h 27 min
# i- z8 v0 l7 F, w# vBit rate mode                            : Constant
7 j+ Q2 ~6 l! p. V  N. kBit rate                                 : 640 kb/s
9 j+ e+ v* S6 k3 G9 k& V9 eChannel(s)                               : 6 channels
6 s7 r9 Y4 C9 g( ?& b$ cChannel layout                           : L R C LFE Ls Rs
' D4 K/ T9 j) f& e! [Sampling rate                            : 48.0 kHz
) P3 }8 a9 W' V) h) m9 j2 q5 nFrame rate                               : 31.250 FPS (1536 SPF)
  |+ G# T5 p" _6 HCompression mode                         : Lossy( m- U, x. v  Y7 P# M8 L7 n
Stream size                              : 399 MiB (15%)
6 q! @0 m. t" u/ A4 k  rLanguage                                 : English& X% w- L5 h* o5 }+ s
Service kind                             : Complete Main( E: x& N: k; U) Y" j
Default                                  : Yes
) h/ X$ z: Y9 ^0 B2 g2 _* RForced                                   : No
, T# _+ [$ o! U5 \, x: p$ i8 {( ]5 T: I( l4 h
Text( C5 L0 s5 D" @$ A, f1 v* S" J% O# s
ID                                       : 34 w: M2 N0 r5 D! b! c0 B* q
Format                                   : PGS
/ r0 B8 o3 N: d2 w" IMuxing mode                              : zlib$ z  b4 _3 G. e, @5 }- |
Codec ID                                 : S_HDMV/PGS) R0 x  {& m/ D' z# L
Codec ID/Info                            : Picture based subtitle format used on BDs/HD-DVDs3 j3 D3 ~1 a6 l, Q3 N$ s, ?6 K: D
Duration                                 : 1 h 26 min+ T. D% u9 q2 H, h# B# H
Bit rate                                 : 16.6 kb/s
- F) s; m6 w$ xCount of elements                        : 13090 V6 Y* q2 W+ B9 j2 S" J/ v, ]
Stream size                              : 10.2 MiB (0%)& a5 z) P, E! Z1 s4 a3 L
Language                                 : German
3 A0 k' H5 b2 N' h  rDefault                                  : No
% s/ Z3 I4 I: w+ P- h+ mForced                                   : No/ j6 m; t6 I6 U3 Q
& y; n3 Q+ L  _- p
Menu
$ F9 I7 C; f+ B" o) h* t00:00:00.000                             : 00:00:00.000
, N1 u/ C! T5 w! s! {. H00:06:04.948                             : 00:06:04.948
0 |4 ?  y( z& n00:15:59.250                             : 00:15:59.250
2 w5 r' W. w- O' p- E00:23:21.442                             : 00:23:21.442
! c  o$ u, s2 v8 t- l9 k8 m00:35:05.895                             : 00:35:05.895
3 _" h; B2 |3 Y3 I00:42:47.440                             : 00:42:47.440
+ x% G. |: _! Y  V0 ^/ r, m9 u: U  w' I00:49:50.237                             : 00:49:50.237; t- ^2 T* L$ [0 t, i. @, R; X/ P
00:57:13.930                             : 00:57:13.930
2 t% `+ _& `  T* L" |/ e$ h) }# v01:04:15.310                             : 01:04:15.310
6 l, n7 k( i, W, i/ D01:08:53.838                             : 01:08:53.838- Y% O9 q: i4 t$ ?# R
01:15:04.125                             : 01:15:04.125& s- E$ J/ V/ T2 M8 G
01:22:27.693                             : 01:22:27.693
3 M4 B, F' Y7 d% E0 e* O& j3 E: l+ ?) }2 X: N. x9 t  `4 E% V- i) }
Operation.Seawolf.2022.720p.BluRayCD.x264-FREEMAN 2.55 GB
- e( j% o5 D# {# J# p& r& w
  J- I- g5 k" s1 L3 x. F! ?RELEASE DATE.....: 08-11-2022
" E! L3 L+ @, e; rSiZE.............: 2,55 GiB
2 f6 r# p1 q8 D. t! OViDEO............: 1280x720 - 3.540Kbps (crf17)
. [* x4 \% s; R5 d1 FSOURCE...........: 21,7 Mbps: H  L+ W7 E7 _+ Y7 c( `( M- T
AUDiO1...........: English AC3 5.1 - 640 kbps
- e4 C; w, y. Y# dAUDiO2...........: -5 e0 ^" I' O' _/ j
SUBS.............: German6 [& E& t" w; ~2 V

, B! I/ \9 z  @+ _! ~1 ?https://www.imdb.com/title/tt13429928/

9 Z5 R$ K( t5 Q' t/ \
游客,查看本帖隐藏内容请回复 | 加入VIP可免积分免回复 了解详情 | 还不是会员:点击获取邀请码 Invitation Code

0

主题

589

帖子

2256

积分

Sponsor

金币
29 枚
体力
953 点

签到达人勋章

QQ
jiyugen8180 发表于 前天 22:13 | 显示全部楼层
每天都来蓝光论坛看看,我爱蓝光电影。
; T6 I/ d' }; r8 X8 [0 pIn fact, I have always felt that the landlord of good taste! Ha ha!
. x  c. Z! B: b. `5 }8 M4 Q, C

31

主题

2540

帖子

1万

积分

Sponsor

金币
1794 枚
体力
6817 点
QQ
shiji1973 发表于 2 小时前 | 显示全部楼层
沙发是抢的而不是占的!
2 F) J( A% L0 G8 u# r8 k- MBluraycd.com movie updates really fast, also did not release issued, whether you believe it or not, anyway, I believed!

本版积分规则

小黑屋|Archiver|4K蓝光论坛

GMT+8, 2022-11-26 23:17

Copyright © Tencent Cloud.

快速回复 返回顶部 返回列表